  0
SECTION
  2
HEADER
  9
$ACADVER
  1
AC1015
  9
$ACADMAINTVER
 70
    20
  9
$DWGCODEPAGE
  3
ANSI_932
  9
$INSBASE
 10
0.0
 20
0.0
 30
0.0
  9
$EXTMIN
 10
-234.36099516514
 20
1630.390448609366
 30
0.0
  9
$EXTMAX
 10
214.0225728548788
 20
1858.015234973328
 30
0.0
  9
$LIMMIN
 10
0.0
 20
0.0
  9
$LIMMAX
 10
420.0
 20
297.0
  9
$ORTHOMODE
 70
     0
  9
$REGENMODE
 70
     1
  9
$FILLMODE
 70
     1
  9
$QTEXTMODE
 70
     0
  9
$MIRRTEXT
 70
     0
  9
$LTSCALE
 40
1.0
  9
$ATTMODE
 70
     1
  9
$TEXTSIZE
 40
2.5
  9
$TRACEWID
 40
1.0
  9
$TEXTSTYLE
  7
Standard
  9
$CLAYER
  8
Object
  9
$CELTYPE
  6
ByLayer
  9
$CECOLOR
 62
   256
  9
$CELTSCALE
 40
1.0
  9
$DISPSILH
 70
     0
  9
$DIMSCALE
 40
1.0
  9
$DIMASZ
 40
4.0
  9
$DIMEXO
 40
1.0
  9
$DIMDLI
 40
7.0
  9
$DIMRND
 40
0.0
  9
$DIMDLE
 40
0.0
  9
$DIMEXE
 40
1.0
  9
$DIMTP
 40
0.0
  9
$DIMTM
 40
0.0
  9
$DIMTXT
 40
5.0
  9
$DIMCEN
 40
0.0
  9
$DIMTSZ
 40
0.0
  9
$DIMTOL
 70
     0
  9
$DIMLIM
 70
     0
  9
$DIMTIH
 70
     0
  9
$DIMTOH
 70
     0
  9
$DIMSE1
 70
     0
  9
$DIMSE2
 70
     0
  9
$DIMTAD
 70
     1
  9
$DIMZIN
 70
     8
  9
$DIMBLK
  1
Open30
  9
$DIMASO
 70
     1
  9
$DIMSHO
 70
     1
  9
$DIMPOST
  1

  9
$DIMAPOST
  1

  9
$DIMALT
 70
     0
  9
$DIMALTD
 70
     2
  9
$DIMALTF
 40
0.0394
  9
$DIMLFAC
 40
1.0
  9
$DIMTOFL
 70
     1
  9
$DIMTVP
 40
0.0
  9
$DIMTIX
 70
     0
  9
$DIMSOXD
 70
     0
  9
$DIMSAH
 70
     0
  9
$DIMBLK1
  1

  9
$DIMBLK2
  1

  9
$DIMSTYLE
  2
JIS
  9
$DIMCLRD
 70
     0
  9
$DIMCLRE
 70
     0
  9
$DIMCLRT
 70
     0
  9
$DIMTFAC
 40
1.0
  9
$DIMGAP
 40
1.0
  9
$DIMJUST
 70
     0
  9
$DIMSD1
 70
     0
  9
$DIMSD2
 70
     0
  9
$DIMTOLJ
 70
     1
  9
$DIMTZIN
 70
     0
  9
$DIMALTZ
 70
     0
  9
$DIMALTTZ
 70
     0
  9
$DIMUPT
 70
     0
  9
$DIMDEC
 70
     4
  9
$DIMTDEC
 70
     4
  9
$DIMALTU
 70
     2
  9
$DIMALTTD
 70
     2
  9
$DIMTXSTY
  7
Standard
  9
$DIMAUNIT
 70
     0
  9
$DIMADEC
 70
     0
  9
$DIMALTRND
 40
0.0
  9
$DIMAZIN
 70
     0
  9
$DIMDSEP
 70
    46
  9
$DIMATFIT
 70
     3
  9
$DIMFRAC
 70
     0
  9
$DIMLDRBLK
  1
Open30
  9
$DIMLUNIT
 70
     2
  9
$DIMLWD
 70
    -2
  9
$DIMLWE
 70
    -2
  9
$DIMTMOVE
 70
     0
  9
$LUNITS
 70
     2
  9
$LUPREC
 70
     4
  9
$SKETCHINC
 40
1.0
  9
$FILLETRAD
 40
0.0
  9
$AUNITS
 70
     0
  9
$AUPREC
 70
     0
  9
$MENU
  1
.
  9
$ELEVATION
 40
0.0
  9
$PELEVATION
 40
0.0
  9
$THICKNESS
 40
0.0
  9
$LIMCHECK
 70
     0
  9
$CHAMFERA
 40
0.0
  9
$CHAMFERB
 40
0.0
  9
$CHAMFERC
 40
0.0
  9
$CHAMFERD
 40
0.0
  9
$SKPOLY
 70
     0
  9
$TDCREATE
 40
2454379.577641921
  9
$TDUCREATE
 40
2454379.202641921
  9
$TDUPDATE
 40
2454936.648381979
  9
$TDUUPDATE
 40
2454936.273381979
  9
$TDINDWG
 40
0.1354968634
  9
$TDUSRTIMER
 40
0.1354959606
  9
$USRTIMER
 70
     1
  9
$ANGBASE
 50
0.0
  9
$ANGDIR
 70
     0
  9
$PDMODE
 70
     0
  9
$PDSIZE
 40
0.0
  9
$PLINEWID
 40
0.0
  9
$SPLFRAME
 70
     0
  9
$SPLINETYPE
 70
     6
  9
$SPLINESEGS
 70
     8
  9
$HANDSEED
  5
1F8C
  9
$SURFTAB1
 70
     6
  9
$SURFTAB2
 70
     6
  9
$SURFTYPE
 70
     6
  9
$SURFU
 70
     6
  9
$SURFV
 70
     6
  9
$UCSBASE
  2

  9
$UCSNAME
  2

  9
$UCSORG
 10
0.0
 20
0.0
 30
0.0
  9
$UCSXDIR
 10
1.0
 20
0.0
 30
0.0
  9
$UCSYDIR
 10
0.0
 20
1.0
 30
0.0
  9
$UCSORTHOREF
  2

  9
$UCSORTHOVIEW
 70
     0
  9
$UCSORGTOP
 10
0.0
 20
0.0
 30
0.0
  9
$UCSORGBOTTOM
 10
0.0
 20
0.0
 30
0.0
  9
$UCSORGLEFT
 10
0.0
 20
0.0
 30
0.0
  9
$UCSORGRIGHT
 10
0.0
 20
0.0
 30
0.0
  9
$UCSORGFRONT
 10
0.0
 20
0.0
 30
0.0
  9
$UCSORGBACK
 10
0.0
 20
0.0
 30
0.0
  9
$PUCSBASE
  2

  9
$PUCSNAME
  2

  9
$PUCSORG
 10
0.0
 20
0.0
 30
0.0
  9
$PUCSXDIR
 10
1.0
 20
0.0
 30
0.0
  9
$PUCSYDIR
 10
0.0
 20
1.0
 30
0.0
  9
$PUCSORTHOREF
  2

  9
$PUCSORTHOVIEW
 70
     0
  9
$PUCSORGTOP
 10
0.0
 20
0.0
 30
0.0
  9
$PUCSORGBOTTOM
 10
0.0
 20
0.0
 30
0.0
  9
$PUCSORGLEFT
 10
0.0
 20
0.0
 30
0.0
  9
$PUCSORGRIGHT
 10
0.0
 20
0.0
 30
0.0
  9
$PUCSORGFRONT
 10
0.0
 20
0.0
 30
0.0
  9
$PUCSORGBACK
 10
0.0
 20
0.0
 30
0.0
  9
$USERI1
 70
     0
  9
$USERI2
 70
     0
  9
$USERI3
 70
     0
  9
$USERI4
 70
     0
  9
$USERI5
 70
     0
  9
$USERR1
 40
0.0
  9
$USERR2
 40
0.0
  9
$USERR3
 40
0.0
  9
$USERR4
 40
0.0
  9
$USERR5
 40
0.0
  9
$WORLDVIEW
 70
     1
  9
$SHADEDGE
 70
     3
  9
$SHADEDIF
 70
    70
  9
$TILEMODE
 70
     1
  9
$MAXACTVP
 70
    64
  9
$PINSBASE
 10
0.0
 20
0.0
 30
0.0
  9
$PLIMCHECK
 70
     0
  9
$PEXTMIN
 10
0.0
 20
0.0
 30
0.0
  9
$PEXTMAX
 10
297.0
 20
210.0
 30
0.0
  9
$PLIMMIN
 10
0.037002778146416
 20
0.0133361937478469
  9
$PLIMMAX
 10
296.9629976511933
 20
209.9866638304666
  9
$UNITMODE
 70
     0
  9
$VISRETAIN
 70
     1
  9
$PLINEGEN
 70
     0
  9
$PSLTSCALE
 70
     1
  9
$TREEDEPTH
 70
  3020
  9
$CMLSTYLE
  2
Standard
  9
$CMLJUST
 70
     0
  9
$CMLSCALE
 40
20.0
  9
$PROXYGRAPHICS
 70
     1
  9
$MEASUREMENT
 70
     1
  9
$CELWEIGHT
370
    -1
  9
$ENDCAPS
280
     0
  9
$JOINSTYLE
280
     0
  9
$LWDISPLAY
290
     0
  9
$INSUNITS
 70
     4
  9
$HYPERLINKBASE
  1

  9
$STYLESHEET
  1

  9
$XEDIT
290
     1
  9
$CEPSNTYPE
380
     0
  9
$PSTYLEMODE
290
     1
  9
$FINGERPRINTGUID
  2
{733C549A-BCB8-4AFB-9693-44D802A4876F}
  9
$VERSIONGUID
  2
{C76F41D4-D85D-434E-A4CF-4395615BC1AF}
  9
$EXTNAMES
290
     1
  9
$PSVPSCALE
 40
0.0
  9
$OLESTARTUP
290
     0
  0
ENDSEC
  0
SECTION
  2
CLASSES
  0
CLASS
  1
ACDBDICTIONARYWDFLT
  2
AcDbDictionaryWithDefault
  3
ObjectDBX Classes
 90
        0
280
     0
281
     0
  0
CLASS
  1
PLOTSETTINGS
  2
AcDbPlotSettings
  3
ObjectDBX Classes
 90
        0
280
     0
281
     0
  0
CLASS
  1
DICTIONARYVAR
  2
AcDbDictionaryVar
  3
ObjectDBX Classes
 90
        0
280
     0
281
     0
  0
CLASS
  1
TABLESTYLE
  2
AcDbTableStyle
  3
ObjectDBX Classes
 90
     4095
280
     0
281
     0
  0
CLASS
  1
MATERIAL
  2
AcDbMaterial
  3
ObjectDBX Classes
 90
     1024
280
     0
281
     0
  0
CLASS
  1
VISUALSTYLE
  2
AcDbVisualStyle
  3
ObjectDBX Classes
 90
     4095
280
     0
281
     0
  0
CLASS
  1
ACAD_EVALUATION_GRAPH
  2
AcDbEvalGraph
  3
ObjectDBX Classes
 90
    33921
280
     0
281
     0
  0
CLASS
  1
ACAECUSTOBJ
  2
AcAeEditorObj
  3
AcAeEditorObj
 90
    33792
280
     0
281
     0
  0
CLASS
  1
ACDB_DYNAMICBLOCKPURGEPREVENTER_VERSION
  2
AcDbDynamicBlockPurgePreventer
  3
ObjectDBX Classes
 90
    33921
280
     0
281
     0
  0
CLASS
  1
SORTENTSTABLE
  2
AcDbSortentsTable
  3
ObjectDBX Classes
 90
        0
280
     0
281
     0
  0
CLASS
  1
DIMASSOC
  2
AcDbDimAssoc
  3
"AcDbDimAssoc|Product Desc:     AcDim ARX App For Dimension|Company:          Autodesk, Inc.|WEB Address:      www.autodesk.com"
 90
        0
280
     0
281
     0
  0
CLASS
  1
ACDBPLACEHOLDER
  2
AcDbPlaceHolder
  3
ObjectDBX Classes
 90
        0
280
     0
281
     0
  0
CLASS
  1
LAYOUT
  2
AcDbLayout
  3
ObjectDBX Classes
 90
        0
280
     0
281
     0
  0
ENDSEC
  0
SECTION
  2
TABLES
  0
TABLE
  2
VPORT
  5
8
330
0
100
AcDbSymbolTable
 70
     2
  0
VPORT
  5
1B5
330
8
100
AcDbSymbolTableRecord
100
AcDbViewportTableRecord
  2
*Active
 70
     0
 10
0.0
 20
0.0
 11
1.0
 21
1.0
 12
244.3500623437976
 22
1669.238385604388
 13
0.0
 23
0.0
 14
10.0
 24
10.0
 15
10.0
 25
10.0
 16
0.0
 26
0.0
 36
1.0
 17
0.0
 27
0.0
 37
0.0
 40
1140.683870500459
 41
1.617875647668393
 42
50.0
 43
0.0
 44
0.0
 50
0.0
 51
0.0
 71
     0
 72
  1000
 73
     1
 74
     3
 75
     0
 76
     0
 77
     0
 78
     0
281
     0
 65
     1
110
0.0
120
0.0
130
0.0
111
1.0
121
0.0
131
0.0
112
0.0
122
1.0
132
0.0
 79
     0
146
0.0
  0
VPORT
  5
45A
330
8
100
AcDbSymbolTableRecord
100
AcDbViewportTableRecord
  2
本図
 70
     0
 10
0.0
 20
0.0
 11
1.0
 21
1.0
 12
322.2643325138894
 22
893.4870383816823
 13
0.0
 23
0.0
 14
10.0
 24
10.0
 15
10.0
 25
10.0
 16
0.0
 26
0.0
 36
1.0
 17
0.0
 27
0.0
 37
0.0
 40
349.6006736910367
 41
1.105194805194805
 42
50.0
 43
0.0
 44
0.0
 50
0.0
 51
0.0
 71
     0
 72
  1000
 73
     1
 74
     3
 75
     0
 76
     1
 77
     0
 78
     0
281
     0
 65
     1
110
0.0
120
0.0
130
0.0
111
1.0
121
0.0
131
0.0
112
0.0
122
1.0
132
0.0
 79
     0
146
0.0
  0
ENDTAB
  0
TABLE
  2
LTYPE
  5
5
330
0
100
AcDbSymbolTable
 70
     5
  0
LTYPE
  5
14
330
5
100
AcDbSymbolTableRecord
100
AcDbLinetypeTableRecord
  2
ByBlock
 70
     0
  3

 72
    65
 73
     0
 40
0.0
  0
LTYPE
  5
15
330
5
100
AcDbSymbolTableRecord
100
AcDbLinetypeTableRecord
  2
ByLayer
 70
     0
  3

 72
    65
 73
     0
 40
0.0
  0
LTYPE
  5
16
330
5
100
AcDbSymbolTableRecord
100
AcDbLinetypeTableRecord
  2
Continuous
 70
     0
  3
Solid line
 72
    65
 73
     0
 40
0.0
  0
LTYPE
  5
291
330
5
100
AcDbSymbolTableRecord
100
AcDbLinetypeTableRecord
  2
HIDDEN2
 70
     0
  3
Hidden (.5x) _ _ _ _ _ _ _ _ _ _ _ _ _ _ _ _ _
 72
    65
 73
     2
 40
4.762499999999998
 49
3.174999999999998
 74
     0
 49
-1.587499999999999
 74
     0
  0
LTYPE
  5
4C3
330
5
100
AcDbSymbolTableRecord
100
AcDbLinetypeTableRecord
  2
CENTER2
 70
     0
  3
Center (.5x) ___ _ ___ _ ___ _ ___ _ ___ _ ___
 72
    65
 73
     4
 40
28.575
 49
19.05
 74
     0
 49
-3.174999999999998
 74
     0
 49
3.174999999999998
 74
     0
 49
-3.174999999999998
 74
     0
  0
LTYPE
  5
4C4
330
5
100
AcDbSymbolTableRecord
100
AcDbLinetypeTableRecord
  2
PHANTOM2
 70
     0
  3
Phantom (.5x) ___ _ _ ___ _ _ ___ _ _ ___ _ _
 72
    65
 73
     6
 40
31.75
 49
15.875
 74
     0
 49
-3.174999999999998
 74
     0
 49
3.174999999999998
 74
     0
 49
-3.174999999999998
 74
     0
 49
3.174999999999998
 74
     0
 49
-3.174999999999998
 74
     0
  0
LTYPE
  5
C47
330
5
100
AcDbSymbolTableRecord
100
AcDbLinetypeTableRecord
  2
CENTER
 70
     0
  3
Center ____ _ ____ _ ____ _ ____ _ ____ _ ____
 72
    65
 73
     4
 40
50.8
 49
31.75
 74
     0
 49
-6.349999999999997
 74
     0
 49
6.349999999999997
 74
     0
 49
-6.349999999999997
 74
     0
  0
ENDTAB
  0
TABLE
  2
LAYER
  5
2
102
{ACAD_XDICTIONARY
360
18A
102
}
330
0
100
AcDbSymbolTable
 70
    19
  0
LAYER
  5
10
330
2
100
AcDbSymbolTableRecord
100
AcDbLayerTableRecord
  2
0
 70
     0
 62
     7
  6
Continuous
370
    -3
390
F
  0
LAYER
  5
E4
330
2
100
AcDbSymbolTableRecord
100
AcDbLayerTableRecord
  2
Object
 70
     0
 62
     7
  6
Continuous
370
    -3
390
F
  0
LAYER
  5
12C
330
2
100
AcDbSymbolTableRecord
100
AcDbLayerTableRecord
  2
Title Block
 70
     0
 62
     7
  6
Continuous
370
    -3
390
F
  0
LAYER
  5
12D
330
2
100
AcDbSymbolTableRecord
100
AcDbLayerTableRecord
  2
Viewport
 70
     0
 62
     7
  6
Continuous
370
    -3
390
F
  0
LAYER
  5
345
330
2
100
AcDbSymbolTableRecord
100
AcDbLayerTableRecord
  2
作図線
 70
     0
 62
     6
  6
Continuous
290
     0
370
    18
390
F
  0
LAYER
  5
3DA
330
2
100
AcDbSymbolTableRecord
100
AcDbLayerTableRecord
  2
Dims
 70
     0
 62
     6
  6
Continuous
370
    -3
390
F
  0
LAYER
  5
3DB
330
2
100
AcDbSymbolTableRecord
100
AcDbLayerTableRecord
  2
Defpoints
 70
     0
 62
     7
  6
Continuous
290
     0
370
    -3
390
F
  0
LAYER
  5
3DC
330
2
100
AcDbSymbolTableRecord
100
AcDbLayerTableRecord
  2
テキスト
 70
     0
 62
     4
  6
Continuous
370
    -3
390
F
1001
AcAecLayerStandard
1000

1000

  0
LAYER
  5
4C5
330
2
100
AcDbSymbolTableRecord
100
AcDbLayerTableRecord
  2
寸法線
 70
     0
 62
     3
  6
Continuous
370
    18
390
F
  0
LAYER
  5
4C6
330
2
100
AcDbSymbolTableRecord
100
AcDbLayerTableRecord
  2
隠れ線
 70
     0
 62
     5
  6
HIDDEN2
370
    18
390
F
  0
LAYER
  5
4C7
330
2
100
AcDbSymbolTableRecord
100
AcDbLayerTableRecord
  2
中心線
 70
     0
 62
     1
  6
CENTER2
370
    18
390
F
  0
LAYER
  5
4C8
330
2
100
AcDbSymbolTableRecord
100
AcDbLayerTableRecord
  2
太線0.5
 70
     0
 62
     8
  6
Continuous
370
    50
390
F
  0
LAYER
  5
4C9
330
2
100
AcDbSymbolTableRecord
100
AcDbLayerTableRecord
  2
想像線
 70
     0
 62
     5
  6
PHANTOM2
370
    18
390
F
  0
LAYER
  5
4CA
330
2
100
AcDbSymbolTableRecord
100
AcDbLayerTableRecord
  2
一時線
 70
     0
 62
     2
  6
Continuous
290
     0
370
    18
390
F
1001
AcAecLayerStandard
1000

1000

  0
LAYER
  5
4CB
330
2
100
AcDbSymbolTableRecord
100
AcDbLayerTableRecord
  2
切断線
 70
     0
 62
     8
  6
Continuous
370
    25
390
F
1001
AcAecLayerStandard
1000

1000

  0
LAYER
  5
4CC
330
2
100
AcDbSymbolTableRecord
100
AcDbLayerTableRecord
  2
塗潰し
 70
     0
 62
     8
  6
Continuous
370
    18
390
F
1001
AcAecLayerStandard
1000

1000

  0
LAYER
  5
A4A
330
2
100
AcDbSymbolTableRecord
100
AcDbLayerTableRecord
  2
寸法
 70
     0
 62
     3
  6
Continuous
370
    18
390
F
  0
LAYER
  5
C48
330
2
100
AcDbSymbolTableRecord
100
AcDbLayerTableRecord
  2
Bracket
 70
     0
 62
     5
  6
Continuous
370
    40
390
F
  0
LAYER
  5
C49
330
2
100
AcDbSymbolTableRecord
100
AcDbLayerTableRecord
  2
Center
 70
     0
 62
     1
  6
CENTER
370
    -3
390
F
  0
ENDTAB
  0
TABLE
  2
STYLE
  5
3
330
0
100
AcDbSymbolTable
 70
     4
  0
STYLE
  5
11
330
3
100
AcDbSymbolTableRecord
100
AcDbTextStyleTableRecord
  2
Standard
 70
     0
 40
0.0
 41
1.0
 50
0.0
 71
     0
 42
2.5
  3
MS Gothic.ttf
  4

1001
ACAD
1000
MS Gothic
1071
    32817
  0
STYLE
  5
B0
330
3
100
AcDbSymbolTableRecord
100
AcDbTextStyleTableRecord
  2
Roman
 70
     0
 40
0.0
 41
1.0
 50
0.0
 71
     0
 42
5.0
  3
romans.shx
  4
extfont2.shx
  0
STYLE
  5
346
330
3
100
AcDbSymbolTableRecord
100
AcDbTextStyleTableRecord
  2
尺度１／２
 70
     0
 40
0.0
 41
1.0
 50
0.0
 71
     0
 42
8.0
  3
MS Gothic.ttf
  4

1001
ACAD
1000
MS Gothic
1071
    32817
  0
STYLE
  5
68E
330
3
100
AcDbSymbolTableRecord
100
AcDbTextStyleTableRecord
  2
BWH-jdt02
 70
     0
 40
0.0
 41
0.7
 50
0.0
 71
     0
 42
4.752464886293636
  3
SimSun.ttf
  4

1001
ACAD
1000
SimSun
1071
    34306
  0
ENDTAB
  0
TABLE
  2
VIEW
  5
6
330
0
100
AcDbSymbolTable
 70
     1
  0
ENDTAB
  0
TABLE
  2
UCS
  5
7
330
0
100
AcDbSymbolTable
 70
     0
  0
ENDTAB
  0
TABLE
  2
APPID
  5
9
330
0
100
AcDbSymbolTable
 70
     9
  0
APPID
  5
12
330
9
100
AcDbSymbolTableRecord
100
AcDbRegAppTableRecord
  2
ACAD
 70
     0
  0
APPID
  5
1B4
330
9
100
AcDbSymbolTableRecord
100
AcDbRegAppTableRecord
  2
ACAD_PSEXT
 70
     0
  0
APPID
  5
27C
330
9
100
AcDbSymbolTableRecord
100
AcDbRegAppTableRecord
  2
ACAUTHENVIRON
 70
     0
  0
APPID
  5
280
330
9
100
AcDbSymbolTableRecord
100
AcDbRegAppTableRecord
  2
AcDbDynamicBlockTrueName
 70
     0
  0
APPID
  5
281
330
9
100
AcDbSymbolTableRecord
100
AcDbRegAppTableRecord
  2
AcDbDynamicBlockGUID
 70
     0
  0
APPID
  5
283
330
9
100
AcDbSymbolTableRecord
100
AcDbRegAppTableRecord
  2
AcDbBlockRepETag
 70
     0
  0
APPID
  5
331
330
9
100
AcDbSymbolTableRecord
100
AcDbRegAppTableRecord
  2
ACAD_EXEMPT_FROM_CAD_STANDARDS
 70
     0
  0
APPID
  5
3DD
330
9
100
AcDbSymbolTableRecord
100
AcDbRegAppTableRecord
  2
AcAecLayerStandard
 70
     0
  0
APPID
  5
692
330
9
100
AcDbSymbolTableRecord
100
AcDbRegAppTableRecord
  2
RAK
 70
     0
  0
ENDTAB
  0
TABLE
  2
DIMSTYLE
  5
A
330
0
100
AcDbSymbolTable
 70
     4
100
AcDbDimStyleTable
 71
     3
340
121
340
348
340
347
  0
DIMSTYLE
105
121
102
{ACAD_REACTORS
330
174B
330
1751
330
1752
330
1BC1
102
}
330
A
100
AcDbSymbolTableRecord
100
AcDbDimStyleTableRecord
  2
JIS
 70
     0
 41
4.0
 42
1.0
 43
7.0
 44
1.0
 73
     0
 74
     0
 77
     1
 78
     8
140
5.0
141
0.0
143
0.0394
147
1.0
172
     1
340
11
341
33F
342
33F
  0
DIMSTYLE
105
292
330
A
100
AcDbSymbolTableRecord
100
AcDbDimStyleTableRecord
  2
ISO-25
 70
     0
 41
2.5
 42
0.625
 43
3.75
 44
1.25
 73
     0
 74
     0
 77
     1
 78
     8
140
2.5
141
2.5
143
0.03937007874016
147
0.625
171
     3
172
     1
271
     2
272
     2
274
     3
278
    44
283
     0
284
     8
340
11
  0
DIMSTYLE
105
347
330
A
100
AcDbSymbolTableRecord
100
AcDbDimStyleTableRecord
  2
JIS１／２
 70
     0
 41
6.0
 42
1.0
 43
7.0
 44
1.0
 73
     0
 74
     0
 77
     1
 78
     8
140
7.0
141
0.0
143
0.0394
147
2.0
172
     1
271
     2
272
     2
340
346
341
33F
342
33F
  0
DIMSTYLE
105
348
330
A
100
AcDbSymbolTableRecord
100
AcDbDimStyleTableRecord
  2
JIS２／１
 70
     0
 41
2.5
 42
1.0
 43
7.0
 44
1.0
 73
     0
 74
     0
 77
     1
 78
     8
140
3.0
141
0.0
143
0.0394
147
0.5
172
     1
271
     2
272
     2
340
11
341
33F
342
33F
  0
ENDTAB
  0
TABLE
  2
BLOCK_RECORD
  5
1
330
0
100
AcDbSymbolTable
 70
    39
  0
BLOCK_RECORD
  5
1F
102
{ACAD_XDICTIONARY
360
B52
102
}
330
1
100
AcDbSymbolTableRecord
100
AcDbBlockTableRecord
  2
*Model_Space
340
22
  0
BLOCK_RECORD
  5
1F49
330
1
100
AcDbSymbolTableRecord
100
AcDbBlockTableRecord
  2
*Paper_Space
340
1F46
  0
BLOCK_RECORD
  5
AB
102
{ACAD_XDICTIONARY
360
28E
102
}
330
1
100
AcDbSymbolTableRecord
100
AcDbBlockTableRecord
  2
JIS A4 title block (portrait)
340
0
310
2800000020000000200000000100080000000000000400000000000000000000000000000000000000000000000080000080000000808000800000008000800080800000C0C0C000C0DCC000F0CAA6000020400000206000002080000020A0000020C0000020E00000400000004020000040400000406000004080000040A0
310
000040C0000040E00000600000006020000060400000606000006080000060A0000060C0000060E00000800000008020000080400000806000008080000080A0000080C0000080E00000A0000000A0200000A0400000A0600000A0800000A0A00000A0C00000A0E00000C0000000C0200000C0400000C0600000C0800000C0
310
A00000C0C00000C0E00000E0000000E0200000E0400000E0600000E0800000E0A00000E0C00000E0E00040000000400020004000400040006000400080004000A0004000C0004000E00040200000402020004020400040206000402080004020A0004020C0004020E000404000004040200040404000404060004040800040
310
40A0004040C0004040E00040600000406020004060400040606000406080004060A0004060C0004060E00040800000408020004080400040806000408080004080A0004080C0004080E00040A0000040A0200040A0400040A0600040A0800040A0A00040A0C00040A0E00040C0000040C0200040C0400040C0600040C08000
310
40C0A00040C0C00040C0E00040E0000040E0200040E0400040E0600040E0800040E0A00040E0C00040E0E00080000000800020008000400080006000800080008000A0008000C0008000E00080200000802020008020400080206000802080008020A0008020C0008020E00080400000804020008040400080406000804080
310
008040A0008040C0008040E00080600000806020008060400080606000806080008060A0008060C0008060E00080800000808020008080400080806000808080008080A0008080C0008080E00080A0000080A0200080A0400080A0600080A0800080A0A00080A0C00080A0E00080C0000080C0200080C0400080C0600080C0
310
800080C0A00080C0C00080C0E00080E0000080E0200080E0400080E0600080E0800080E0A00080E0C00080E0E000C0000000C0002000C0004000C0006000C0008000C000A000C000C000C000E000C0200000C0202000C0204000C0206000C0208000C020A000C020C000C020E000C0400000C0402000C0404000C0406000C0
310
408000C040A000C040C000C040E000C0600000C0602000C0604000C0606000C0608000C060A000C060C000C060E000C0800000C0802000C0804000C0806000C0808000C080A000C080C000C080E000C0A00000C0A02000C0A04000C0A06000C0A08000C0A0A000C0A0C000C0A0E000C0C00000C0C02000C0C04000C0C06000
310
C0C08000C0C0A000F0FBFF00A4A0A000808080000000FF0000FF000000FFFF00FF000000FF00FF00FFFF0000FFFFFF00FFFFFFFFFFFFFFFFFFFFFFFFFFFFFFFFFFFFFFFFFFFFFFFFFFFFFFFFFFFFFFFFFFFFFFFFFFFF000000FFFFFFFFFFFFFF00FFFFFFFFFFFFFFFF00FFFFFFFFFFFFFFFFFFFFFFFF000000000000000000
310
0000000000000000000000FFFFFFFFFFFFFFFFFFFFFFFFFFFF00FFFFFF0000000000000000000000000000FFFFFFFFFFFFFFFFFFFFFFFFFFFF00FFFFFF0000000000000000FFFFFFFFFF00FFFFFFFFFFFFFFFFFFFFFFFFFFFF00FFFFFF0000000000000000000000000000FFFFFFFFFFFFFFFFFFFFFFFFFFFF00FFFFFF0000
310
000000000000000000000000FFFFFFFFFFFFFFFFFFFFFFFFFF0000FFFFFFFFFFFFFFFFFFFFFFFFFFFFFFFF00FFFFFFFFFFFFFFFFFFFFFFFFFFFF00FFFFFFFFFFFFFFFFFFFFFFFFFFFFFFFF00FFFFFFFFFFFFFFFFFFFFFFFFFFFF00FFFFFFFFFFFFFFFFFFFFFFFFFFFFFFFF00FFFFFFFFFFFFFFFFFFFFFFFFFFFF00FFFFFFFF
310
FFFFFFFFFFFFFFFFFFFFFFFF00FFFFFFFFFFFFFFFFFFFFFFFFFF0000FFFFFFFFFFFFFFFFFFFFFFFFFFFFFFFF00FFFFFFFFFFFFFFFFFFFFFFFFFFFF00FFFFFFFFFFFFFFFFFFFFFFFFFFFFFFFF00FFFFFFFFFFFFFFFFFFFFFFFFFFFF00FFFFFFFFFFFFFFFFFFFFFFFFFFFFFFFF00FFFFFFFFFFFFFFFFFFFFFFFFFFFF00FFFFFF
310
FFFFFFFFFFFFFFFFFFFFFFFFFF00FFFFFFFFFFFFFFFFFFFFFFFF000000FFFFFFFFFFFFFFFFFFFFFFFFFFFFFFFF00FFFFFFFFFFFFFFFFFFFFFFFFFFFF00FFFFFFFFFFFFFFFFFFFFFFFFFFFFFFFF00FFFFFFFFFFFFFFFFFFFFFFFFFFFF00FFFFFFFFFFFFFFFFFFFFFFFFFFFFFFFF00FFFFFFFFFFFFFFFFFFFFFFFFFFFF00FFFF
310
FFFFFFFFFFFFFFFFFFFFFFFFFFFF00FFFFFFFFFFFFFFFFFFFFFFFFFFFF00FFFFFFFFFFFFFFFFFFFFFFFFFFFFFFFF00FFFFFFFFFFFFFFFFFFFFFFFFFF0000FFFFFFFFFFFFFFFFFFFFFFFFFFFFFFFF00FFFFFFFFFFFFFFFFFFFFFFFFFFFF00FFFFFFFFFFFFFFFFFFFFFFFFFFFFFFFF00FFFFFFFFFFFFFFFFFFFFFFFFFFFF00FF
310
FFFFFFFFFFFFFFFFFFFFFFFFFFFFFF00FFFFFFFFFFFFFFFFFFFFFFFFFFFF00FFFFFFFFFFFFFFFFFFFFFFFFFFFFFFFF00FFFFFFFFFFFFFFFFFFFFFFFFFF0000FFFFFFFFFFFFFFFFFFFFFFFFFFFFFFFF00FFFFFFFFFFFFFFFFFFFFFFFFFFFF00FFFFFFFFFFFFFFFFFFFFFFFFFFFFFFFF00FFFFFFFFFFFFFFFFFFFFFFFFFFFF00
310
00000000000000000000FFFFFFFFFFFF00FFFFFFFFFFFFFFFFFFFFFFFFFFFF0000000000000000000000FFFFFFFFFFFF00FFFFFFFFFFFFFFFFFFFFFFFFFFFF0000000000000000000000FFFFFFFFFFFF00FFFFFFFFFFFFFFFFFFFFFFFF00FF000000000000000000000000000000000000FFFFFFFFFFFFFFFFFFFFFFFF0000
310
00FFFFFFFFFFFFFF00FFFFFFFFFFFFFFFF00FFFFFFFFFFFFFFFFFFFFFFFFFFFFFFFFFFFFFFFFFFFFFFFFFFFFFFFFFFFFFFFFFFFFFFFFFFFF
102
{BLKREFS
331
11A
102
}
1001
AcDbDynamicBlockGUID
1000
{6DB1C6FB-04ED-4989-8D70-427348F3A6A6}
1001
AcDbBlockRepETag
1070
     1
1071
       23
1001
ACAD
1000
DesignCenter Data
1002
{
1070
     1
1070
     4
1002
}
  0
BLOCK_RECORD
  5
33F
330
1
100
AcDbSymbolTableRecord
100
AcDbBlockTableRecord
  2
_Open30
340
0
102
{BLKREFS
331
1057
331
1058
331
1062
331
1063
331
10E8
331
10E9
331
110A
331
110B
331
1905
331
1906
331
198B
331
198C
331
1C4C
331
1C4D
331
1DE6
331
1DE7
331
1DEF
331
1DF0
331
1DF8
331
1DF9
331
1E03
331
1E04
331
1E0C
331
1E0D
331
1E16
331
1E17
331
1E21
331
1E22
331
1E29
331
1E2A
331
1EF9
331
1EFA
331
1F0F
331
1F10
102
}
  0
BLOCK_RECORD
  5
4E7
102
{ACAD_XDICTIONARY
360
4E8
102
}
330
1
100
AcDbSymbolTableRecord
100
AcDbBlockTableRecord
  2
JIS A3 title block
340
0
310
2800000020000000200000000100080000000000000400000000000000000000000000000000000000000000000080000080000000808000800000008000800080800000C0C0C000C0DCC000F0CAA6000020400000206000002080000020A0000020C0000020E00000400000004020000040400000406000004080000040A0
310
000040C0000040E00000600000006020000060400000606000006080000060A0000060C0000060E00000800000008020000080400000806000008080000080A0000080C0000080E00000A0000000A0200000A0400000A0600000A0800000A0A00000A0C00000A0E00000C0000000C0200000C0400000C0600000C0800000C0
310
A00000C0C00000C0E00000E0000000E0200000E0400000E0600000E0800000E0A00000E0C00000E0E00040000000400020004000400040006000400080004000A0004000C0004000E00040200000402020004020400040206000402080004020A0004020C0004020E000404000004040200040404000404060004040800040
310
40A0004040C0004040E00040600000406020004060400040606000406080004060A0004060C0004060E00040800000408020004080400040806000408080004080A0004080C0004080E00040A0000040A0200040A0400040A0600040A0800040A0A00040A0C00040A0E00040C0000040C0200040C0400040C0600040C08000
310
40C0A00040C0C00040C0E00040E0000040E0200040E0400040E0600040E0800040E0A00040E0C00040E0E00080000000800020008000400080006000800080008000A0008000C0008000E00080200000802020008020400080206000802080008020A0008020C0008020E00080400000804020008040400080406000804080
310
008040A0008040C0008040E00080600000806020008060400080606000806080008060A0008060C0008060E00080800000808020008080400080806000808080008080A0008080C0008080E00080A0000080A0200080A0400080A0600080A0800080A0A00080A0C00080A0E00080C0000080C0200080C0400080C0600080C0
310
800080C0A00080C0C00080C0E00080E0000080E0200080E0400080E0600080E0800080E0A00080E0C00080E0E000C0000000C0002000C0004000C0006000C0008000C000A000C000C000C000E000C0200000C0202000C0204000C0206000C0208000C020A000C020C000C020E000C0400000C0402000C0404000C0406000C0
310
408000C040A000C040C000C040E000C0600000C0602000C0604000C0606000C0608000C060A000C060C000C060E000C0800000C0802000C0804000C0806000C0808000C080A000C080C000C080E000C0A00000C0A02000C0A04000C0A06000C0A08000C0A0A000C0A0C000C0A0E000C0C00000C0C02000C0C04000C0C06000
310
C0C08000C0C0A000F0FBFF00A4A0A000808080000000FF0000FF000000FFFF00FF000000FF00FF00FFFF0000FFFFFF00FFFFFFFFFFFFFFFFFFFFFFFFFFFFFFFFFFFFFFFFFFFFFFFFFFFFFFFFFFFFFFFFFFFFFFFFFFFFFFFFFFFFFFFFFFFFFFFFFFFFFFFFFFFFFFFFFFFFFFFFFFFFFFFFFFFFFFFFFFFFFFFFFFFFFFFFFFFFFF
310
FFFFFFFFFFFFFFFFFFFFFFFFFFFFFFFFFFFFFFFFFFFFFFFFFFFFFFFFFFFFFFFFFFFFFFFFFFFFFFFFFFFFFFFFFFFFFFFFFFFFFFFFFFFFFFFFFFFFFFFFFFFFFFFFFFFFFFFFFFFFFFFFFFFFFFFFFFFFFFFFFFFFFFFFFFFFFFFFFFFFFFFFFFFFFFFFFFFFFFFFFFFFFFFFFFFFFFFFFFFFFFFFFFFF00FFFF00000000000000000000
310
000000000000FFFFFFFFFFFF0000FFFF00FFFFFFFF0000000000000000FFFFFFFFFFFFFFFFFFFFFFFFFFFFFFFFFFFFFFFFFFFFFFFF0000000000000000FFFFFFFFFFFFFFFFFFFFFFFFFFFFFFFFFFFF00FFFFFFFFFF00FFFFFFFFFFFFFFFFFFFFFFFFFFFFFFFFFFFFFFFFFFFFFFFFFF00FFFFFFFFFFFFFFFFFFFFFFFFFFFFFF
310
FFFFFFFFFFFFFFFFFFFFFFFFFFFFFFFF00FFFFFFFFFF00FFFFFFFFFFFFFFFFFFFFFFFFFFFFFFFFFFFFFFFFFFFFFFFFFF00FFFFFFFFFF00FFFFFFFFFFFFFFFFFFFFFFFFFFFFFFFFFFFFFFFFFFFFFFFFFF00FFFFFFFFFFFFFFFFFFFFFFFFFFFFFFFFFFFFFFFFFFFFFFFFFFFFFFFFFFFFFF00FFFFFFFFFF00FFFFFFFFFFFFFFFF
310
FFFFFFFFFFFFFFFFFFFFFFFFFFFFFFFFFF00FFFFFFFFFF00FFFFFFFFFFFFFFFFFFFFFFFFFFFFFFFFFFFFFFFFFFFFFFFFFF00FFFFFF000000FFFFFFFFFFFFFFFFFFFFFFFFFFFFFFFFFFFFFFFFFFFFFFFFFF0000FFFFFFFF00FFFFFFFFFFFFFFFFFFFFFFFFFFFFFFFFFFFFFFFFFFFFFFFFFF00FFFFFFFFFF00FFFFFFFFFFFFFF
310
FFFFFFFFFFFFFFFFFFFFFFFFFFFFFFFFFFFF00FFFFFFFFFF00FFFFFFFFFFFFFFFFFFFFFFFFFFFFFFFFFFFFFFFFFFFFFFFFFF00FFFFFFFFFF00FFFFFFFFFFFFFFFFFFFFFFFFFFFFFFFFFFFFFFFFFFFFFFFFFF00FFFFFFFFFF00FFFFFFFFFFFFFFFFFFFFFFFFFFFFFFFFFFFFFFFFFFFFFFFFFF00FFFFFFFFFF00FFFFFFFFFFFF
310
FFFFFFFFFFFFFFFFFFFFFFFFFFFFFFFFFFFFFF00FFFFFFFFFF00FFFFFFFFFFFFFFFFFFFFFFFFFFFFFFFFFFFFFFFFFFFFFFFFFF00FFFFFFFFFF00FFFFFFFFFFFFFFFFFFFFFFFFFFFFFFFFFFFFFFFFFFFFFFFFFF00FFFFFF000000000000000000000000000000000000000000000000000000000000FFFFFFFFFFFFFFFFFFFF
310
FFFFFFFFFFFFFFFFFFFFFFFFFFFFFFFFFFFFFFFFFFFFFFFFFFFFFFFFFFFFFFFFFFFFFFFFFFFFFFFFFFFFFFFFFFFFFFFFFFFFFFFFFFFFFFFFFFFFFFFFFFFFFFFFFFFFFFFFFFFFFFFFFFFFFFFFFFFFFFFFFFFFFFFFFFFFFFFFFFFFFFFFFFFFFFFFFFFFFFFFFFFFFFFFFFFFFFFFFFFFFFFFFFFFFFFFFFFFFFFFFFFFFFFFFFFFFF
310
FFFFFFFFFFFFFFFFFFFFFFFFFFFFFFFFFFFFFFFFFFFFFFFFFFFFFFFFFFFFFFFFFFFFFFFFFFFFFFFFFFFFFFFFFFFFFFFFFFFFFFFFFFFFFFFF
102
{BLKREFS
331
6B2
102
}
1001
AcDbDynamicBlockGUID
1000
{ADD7F6C8-90DF-4B5E-9041-BE536E290B26}
1001
AcDbBlockRepETag
1070
     1
1071
       75
1001
ACAD
1000
DesignCenter Data
1002
{
1070
     1
1070
     4
1002
}
  0
BLOCK_RECORD
  5
6ED
102
{ACAD_XDICTIONARY
360
930
102
}
330
1
100
AcDbSymbolTableRecord
100
AcDbBlockTableRecord
  2
JIS A4 title block (landscape)
340
0
102
{BLKREFS
331
8B6
102
}
1001
AcDbDynamicBlockGUID
1000
{CEEEE382-D703-4645-97A2-E5AB7DAA0D3B}
1001
AcDbBlockRepETag
1070
     1
1071
       77
1001
ACAD
1000
DesignCenter Data
1002
{
1070
     1
1070
     4
1002
}
  0
BLOCK_RECORD
  5
C16
330
1
100
AcDbSymbolTableRecord
100
AcDbBlockTableRecord
  2
*D6
340
0
  0
BLOCK_RECORD
  5
C24
330
1
100
AcDbSymbolTableRecord
100
AcDbBlockTableRecord
  2
*D7
340
0
  0
BLOCK_RECORD
  5
C2F
330
1
100
AcDbSymbolTableRecord
100
AcDbBlockTableRecord
  2
*D8
340
0
  0
BLOCK_RECORD
  5
C3B
330
1
100
AcDbSymbolTableRecord
100
AcDbBlockTableRecord
  2
*D9
340
0
  0
BLOCK_RECORD
  5
F0A
330
1
100
AcDbSymbolTableRecord
100
AcDbBlockTableRecord
  2
*D10
340
0
  0
BLOCK_RECORD
  5
F18
330
1
100
AcDbSymbolTableRecord
100
AcDbBlockTableRecord
  2
*D11
340
0
  0
BLOCK_RECORD
  5
F23
330
1
100
AcDbSymbolTableRecord
100
AcDbBlockTableRecord
  2
*D12
340
0
  0
BLOCK_RECORD
  5
F2F
330
1
100
AcDbSymbolTableRecord
100
AcDbBlockTableRecord
  2
*D13
340
0
  0
BLOCK_RECORD
  5
109D
330
1
100
AcDbSymbolTableRecord
100
AcDbBlockTableRecord
  2
_DotSmall
340
0
  0
BLOCK_RECORD
  5
1157
330
1
100
AcDbSymbolTableRecord
100
AcDbBlockTableRecord
  2
*D15
340
0
  0
BLOCK_RECORD
  5
1163
330
1
100
AcDbSymbolTableRecord
100
AcDbBlockTableRecord
  2
*D16
340
0
  0
BLOCK_RECORD
  5
116F
330
1
100
AcDbSymbolTableRecord
100
AcDbBlockTableRecord
  2
*D17
340
0
  0
BLOCK_RECORD
  5
117B
330
1
100
AcDbSymbolTableRecord
100
AcDbBlockTableRecord
  2
*D18
340
0
  0
BLOCK_RECORD
  5
1189
330
1
100
AcDbSymbolTableRecord
100
AcDbBlockTableRecord
  2
*D19
340
0
  0
BLOCK_RECORD
  5
1195
330
1
100
AcDbSymbolTableRecord
100
AcDbBlockTableRecord
  2
*D20
340
0
  0
BLOCK_RECORD
  5
1370
330
1
100
AcDbSymbolTableRecord
100
AcDbBlockTableRecord
  2
*D21
340
0
  0
BLOCK_RECORD
  5
137C
330
1
100
AcDbSymbolTableRecord
100
AcDbBlockTableRecord
  2
*D22
340
0
  0
BLOCK_RECORD
  5
1388
330
1
100
AcDbSymbolTableRecord
100
AcDbBlockTableRecord
  2
*D23
340
0
  0
BLOCK_RECORD
  5
1394
330
1
100
AcDbSymbolTableRecord
100
AcDbBlockTableRecord
  2
*D24
340
0
  0
BLOCK_RECORD
  5
13A2
330
1
100
AcDbSymbolTableRecord
100
AcDbBlockTableRecord
  2
*D25
340
0
  0
BLOCK_RECORD
  5
13AE
330
1
100
AcDbSymbolTableRecord
100
AcDbBlockTableRecord
  2
*D26
340
0
  0
BLOCK_RECORD
  5
1462
330
1
100
AcDbSymbolTableRecord
100
AcDbBlockTableRecord
  2
*D27
340
0
  0
BLOCK_RECORD
  5
1470
330
1
100
AcDbSymbolTableRecord
100
AcDbBlockTableRecord
  2
*D28
340
0
  0
BLOCK_RECORD
  5
147B
330
1
100
AcDbSymbolTableRecord
100
AcDbBlockTableRecord
  2
*D29
340
0
  0
BLOCK_RECORD
  5
1487
330
1
100
AcDbSymbolTableRecord
100
AcDbBlockTableRecord
  2
*D30
340
0
  0
BLOCK_RECORD
  5
1753
330
1
100
AcDbSymbolTableRecord
100
AcDbBlockTableRecord
  2
*D31
340
0
  0
BLOCK_RECORD
  5
1761
330
1
100
AcDbSymbolTableRecord
100
AcDbBlockTableRecord
  2
*D32
340
0
  0
BLOCK_RECORD
  5
176C
330
1
100
AcDbSymbolTableRecord
100
AcDbBlockTableRecord
  2
*D33
340
0
  0
BLOCK_RECORD
  5
1778
330
1
100
AcDbSymbolTableRecord
100
AcDbBlockTableRecord
  2
*D34
340
0
  0
BLOCK_RECORD
  5
1866
330
1
100
AcDbSymbolTableRecord
100
AcDbBlockTableRecord
  2
*D35
340
0
  0
BLOCK_RECORD
  5
1BC2
330
1
100
AcDbSymbolTableRecord
100
AcDbBlockTableRecord
  2
*D36
340
0
  0
BLOCK_RECORD
  5
1C3C
330
1
100
AcDbSymbolTableRecord
100
AcDbBlockTableRecord
  2
*D37
340
0
  0
ENDTAB
  0
ENDSEC
  0
SECTION
  2
BLOCKS
  0
BLOCK
  5
20
330
1F
100
AcDbEntity
  8
0
100
AcDbBlockBegin
  2
*Model_Space
 70
     0
 10
0.0
 20
0.0
 30
0.0
  3
*Model_Space
  1

  0
ENDBLK
  5
21
330
1F
100
AcDbEntity
  8
0
100
AcDbBlockEnd
  0
BLOCK
  5
1F61
330
1F49
100
AcDbEntity
 67
     1
  8
0
100
AcDbBlockBegin
  2
*Paper_Space
 70
     0
 10
0.0
 20
0.0
 30
0.0
  3
*Paper_Space
  1

  0
ENDBLK
  5
1F62
330
1F49
100
AcDbEntity
 67
     1
  8
0
100
AcDbBlockEnd
  0
BLOCK
  5
116
330
AB
100
AcDbEntity
  8
0
100
AcDbBlockBegin
  2
JIS A4 title block (portrait)
 70
     2
 10
0.0
 20
0.0
 30
0.0
  3
JIS A4 title block (portrait)
  1

  4
JIS A4 title block and attributes (portrait)
  0
LINE
  5
28C
330
AB
100
AcDbEntity
  8
0
100
AcDbLine
 10
0.0
 20
297.0
 30
0.0
 11
25.0
 21
297.0
 31
0.0
1001
AcDbBlockRepETag
1070
     1
1071
        0
1005
28C
  0
LINE
  5
28D
330
AB
100
AcDbEntity
  8
0
100
AcDbLine
 10
0.0
 20
287.0
 30
0.0
 11
0.0
 21
297.0
 31
0.0
1001
AcDbBlockRepETag
1070
     1
1071
        1
1005
28D
  0
LINE
  5
2E7
330
AB
100
AcDbEntity
  8
0
100
AcDbLine
 10
17.5
 20
10.0
 30
0.0
 11
17.5
 21
287.0
 31
0.0
1001
AcDbBlockRepETag
1070
     1
1071
        2
1005
2E7
  0
LINE
  5
2E8
330
AB
100
AcDbEntity
  8
0
100
AcDbLine
 10
192.5
 20
287.0
 30
0.0
 11
192.5
 21
10.0
 31
0.0
1001
AcDbBlockRepETag
1070
     1
1071
        3
1005
2E8
  0
LINE
  5
2E9
330
AB
100
AcDbEntity
  8
0
100
AcDbLine
 10
192.5
 20
10.0
 30
0.0
 11
17.5
 21
10.0
 31
0.0
1001
AcDbBlockRepETag
1070
     1
1071
        4
1005
2E9
  0
LINE
  5
2EA
330
AB
100
AcDbEntity
  8
0
100
AcDbLine
 10
25.0
 20
0.0
 30
0.0
 11
0.0
 21
0.0
 31
0.0
1001
AcDbBlockRepETag
1070
     1
1071
        5
1005
2EA
  0
LINE
  5
2EB
330
AB
100
AcDbEntity
  8
0
100
AcDbLine
 10
0.0
 20
0.0
 30
0.0
 11
0.0
 21
10.0
 31
0.0
1001
AcDbBlockRepETag
1070
     1
1071
        6
1005
2EB
  0
LINE
  5
2EC
330
AB
100
AcDbEntity
  8
0
100
AcDbLine
 10
61.25
 20
10.0
 30
0.0
 11
61.25
 21
5.0
 31
0.0
1001
AcDbBlockRepETag
1070
     1
1071
        7
1005
2EC
  0
LINE
  5
2ED
330
AB
100
AcDbEntity
  8
0
100
AcDbLine
 10
17.5
 20
148.5
 30
0.0
 11
0.0
 21
148.5
 31
0.0
1001
AcDbBlockRepETag
1070
     1
1071
        8
1005
2ED
  0
LINE
  5
2EE
330
AB
100
AcDbEntity
  8
0
100
AcDbLine
 10
17.5
 20
56.16666666666668
 30
0.0
 11
12.5
 21
56.16666666666668
 31
0.0
1001
AcDbBlockRepETag
1070
     1
1071
        9
1005
2EE
  0
LINE
  5
2EF
330
AB
100
AcDbEntity
  8
0
100
AcDbLine
 10
17.5
 20
102.3333333333333
 30
0.0
 11
12.5
 21
102.3333333333333
 31
0.0
1001
AcDbBlockRepETag
1070
     1
1071
       10
1005
2EF
  0
LINE
  5
2F0
330
AB
100
AcDbEntity
  8
0
100
AcDbLine
 10
17.5
 20
148.5
 30
0.0
 11
12.5
 21
148.5
 31
0.0
1001
AcDbBlockRepETag
1070
     1
1071
       11
1005
2F0
  0
LINE
  5
2F1
330
AB
100
AcDbEntity
  8
0
100
AcDbLine
 10
105.0
 20
10.0
 30
0.0
 11
105.0
 21
0.0
 31
0.0
1001
AcDbBlockRepETag
1070
     1
1071
       12
1005
2F1
  0
LINE
  5
2F2
330
AB
100
AcDbEntity
  8
0
100
AcDbLine
 10
210.0
 20
10.0
 30
0.0
 11
210.0
 21
0.0
 31
0.0
1001
AcDbBlockRepETag
1070
     1
1071
       13
1005
2F2
  0
LINE
  5
2F3
330
AB
100
AcDbEntity
  8
0
100
AcDbLine
 10
148.75
 20
10.0
 30
0.0
 11
148.75
 21
5.0
 31
0.0
1001
AcDbBlockRepETag
1070
     1
1071
       14
1005
2F3
  0
LINE
  5
2F4
330
AB
100
AcDbEntity
  8
0
100
AcDbLine
 10
210.0
 20
0.0
 30
0.0
 11
200.0
 21
0.0
 31
0.0
1001
AcDbBlockRepETag
1070
     1
1071
       15
1005
2F4
  0
LINE
  5
2F5
330
AB
100
AcDbEntity
  8
0
100
AcDbLine
 10
192.5
 20
56.16666666666668
 30
0.0
 11
197.5
 21
56.16666666666668
 31
0.0
1001
AcDbBlockRepETag
1070
     1
1071
       16
1005
2F5
  0
LINE
  5
2F6
330
AB
100
AcDbEntity
  8
0
100
AcDbLine
 10
192.5
 20
102.3333333333333
 30
0.0
 11
197.5
 21
102.3333333333333
 31
0.0
1001
AcDbBlockRepETag
1070
     1
1071
       17
1005
2F6
  0
LINE
  5
2F7
330
AB
100
AcDbEntity
  8
0
100
AcDbLine
 10
192.5
 20
148.5
 30
0.0
 11
210.0
 21
148.5
 31
0.0
1001
AcDbBlockRepETag
1070
     1
1071
       18
1005
2F7
  0
LINE
  5
2F8
330
AB
100
AcDbEntity
  8
0
100
AcDbLine
 10
192.5
 20
148.5
 30
0.0
 11
197.5
 21
148.5
 31
0.0
1001
AcDbBlockRepETag
1070
     1
1071
       19
1005
2F8
  0
LINE
  5
2F9
330
AB
100
AcDbEntity
  8
0
100
AcDbLine
 10
17.5
 20
287.0
 30
0.0
 11
192.5
 21
287.0
 31
0.0
1001
AcDbBlockRepETag
1070
     1
1071
       20
1005
2F9
  0
LINE
  5
2FA
330
AB
100
AcDbEntity
  8
0
100
AcDbLine
 10
17.5
 20
194.6666666666666
 30
0.0
 11
12.5
 21
194.6666666666666
 31
0.0
1001
AcDbBlockRepETag
1070
     1
1071
       21
1005
2FA
  0
LINE
  5
2FB
330
AB
100
AcDbEntity
  8
0
100
AcDbLine
 10
17.5
 20
240.8333333333333
 30
0.0
 11
12.5
 21
240.8333333333333
 31
0.0
1001
AcDbBlockRepETag
1070
     1
1071
       22
1005
2FB
  0
LINE
  5
2FC
330
AB
100
AcDbEntity
  8
0
100
AcDbLine
 10
61.25
 20
287.0
 30
0.0
 11
61.25
 21
292.0
 31
0.0
1001
AcDbBlockRepETag
1070
     1
1071
       24
1005
2FC
  0
ATTDEF
  5
2FD
330
AB
100
AcDbEntity
  8
0
 62
     0
380
     1
100
AcDbText
 10
17.5
 20
293.0
 30
0.0
 40
3.0
  1

  7
Roman
100
AcDbAttributeDefinition
  3
Author:
  2
USER
 70
     8
1001
AcDbBlockRepETag
1070
     1
1071
       25
1005
0
  0
LINE
  5
2FE
330
AB
100
AcDbEntity
  8
0
100
AcDbLine
 10
192.5
 20
194.6666666666667
 30
0.0
 11
197.5
 21
194.6666666666667
 31
0.0
1001
AcDbBlockRepETag
1070
     1
1071
       26
1005
2FE
  0
LINE
  5
2FF
330
AB
100
AcDbEntity
  8
0
100
AcDbLine
 10
192.5
 20
240.8333333333334
 30
0.0
 11
197.5
 21
240.8333333333334
 31
0.0
1001
AcDbBlockRepETag
1070
     1
1071
       27
1005
2FF
  0
ATTDEF
  5
300
330
AB
100
AcDbEntity
  8
0
 62
     0
380
     1
100
AcDbText
 10
125.5
 20
293.0
 30
0.0
 40
3.0
  1

  7
Roman
100
AcDbAttributeDefinition
  3
File name:
  2
FNAME
 70
     8
1001
AcDbBlockRepETag
1070
     1
1071
       28
1005
0
  0
LINE
  5
301
330
AB
100
AcDbEntity
  8
0
100
AcDbLine
 10
105.0
 20
287.0
 30
0.0
 11
105.0
 21
297.0
 31
0.0
1001
AcDbBlockRepETag
1070
     1
1071
       29
1005
301
  0
LINE
  5
302
330
AB
100
AcDbEntity
  8
0
100
AcDbLine
 10
105.0
 20
287.0
 30
0.0
 11
105.0
 21
292.0
 31
0.0
1001
AcDbBlockRepETag
1070
     1
1071
       30
1005
302
  0
ATTDEF
  5
303
330
AB
100
AcDbEntity
  8
0
 62
     0
380
     1
100
AcDbText
 10
77.5
 20
293.0
 30
0.0
 40
3.0
  1

  7
Roman
100
AcDbAttributeDefinition
  3
Revision date:
  2
REVDATE
 70
     8
1001
AcDbBlockRepETag
1070
     1
1071
       31
1005
0
  0
LINE
  5
304
330
AB
100
AcDbEntity
  8
0
100
AcDbLine
 10
210.0
 20
297.0
 30
0.0
 11
210.0
 21
287.0
 31
0.0
1001
AcDbBlockRepETag
1070
     1
1071
       32
1005
304
  0
LINE
  5
305
330
AB
100
AcDbEntity
  8
0
100
AcDbLine
 10
148.75
 20
287.0
 30
0.0
 11
148.75
 21
292.0
 31
0.0
1001
AcDbBlockRepETag
1070
     1
1071
       33
1005
305
  0
LINE
  5
306
330
AB
100
AcDbEntity
  8
0
100
AcDbLine
 10
200.0
 20
297.0
 30
0.0
 11
210.0
 21
297.0
 31
0.0
1001
AcDbBlockRepETag
1070
     1
1071
       34
1005
306
  0
TEXT
  5
307
330
AB
100
AcDbEntity
  8
0
100
AcDbText
 10
13.87568307432493
 20
120.75
 30
0.0
 40
3.0
  1
D
  7
Roman
 72
     1
 11
15.4471116457535
 21
120.75
 31
0.0
100
AcDbText
1001
AcDbBlockRepETag
1070
     1
1071
       35
1005
307
  0
TEXT
  5
308
330
AB
100
AcDbEntity
  8
0
100
AcDbText
 10
13.9471116457535
 20
168.25
 30
0.0
 40
3.0
  1
C
  7
Roman
 72
     1
 11
15.4471116457535
 21
168.25
 31
0.0
100
AcDbText
1001
AcDbBlockRepETag
1070
     1
1071
       36
1005
308
  0
TEXT
  5
309
330
AB
100
AcDbEntity
  8
0
100
AcDbText
 10
13.87568307432493
 20
215.75
 30
0.0
 40
3.0
  1
B
  7
Roman
 72
     1
 11
15.4471116457535
 21
215.75
 31
0.0
100
AcDbText
1001
AcDbBlockRepETag
1070
     1
1071
       37
1005
309
  0
TEXT
  5
30A
330
AB
100
AcDbEntity
  8
0
100
AcDbText
 10
14.16139736003921
 20
263.25
 30
0.0
 40
3.0
  1
A
  7
Roman
 72
     1
 11
15.4471116457535
 21
263.25
 31
0.0
100
AcDbText
1001
AcDbBlockRepETag
1070
     1
1071
       38
1005
30A
  0
TEXT
  5
30B
330
AB
100
AcDbEntity
  8
0
100
AcDbText
 10
38.11904761904761
 20
288.0
 30
0.0
 40
3.0
  1
1
  7
Roman
 72
     1
 11
39.33333333333332
 21
288.0
 31
0.0
100
AcDbText
1001
AcDbBlockRepETag
1070
     1
1071
       39
1005
30B
  0
TEXT
  5
30C
330
AB
100
AcDbEntity
  8
0
100
AcDbText
 10
81.57142857142856
 20
288.0
 30
0.0
 40
3.0
  1
2
  7
Roman
 72
     1
 11
83.0
 21
288.0
 31
0.0
100
AcDbText
1001
AcDbBlockRepETag
1070
     1
1071
       40
1005
30C
  0
TEXT
  5
30D
330
AB
100
AcDbEntity
  8
0
100
AcDbText
 10
125.2380952380953
 20
288.0
 30
0.0
 40
3.0
  1
3
  7
Roman
 72
     1
 11
126.6666666666667
 21
288.0
 31
0.0
100
AcDbText
1001
AcDbBlockRepETag
1070
     1
1071
       41
1005
30D
  0
TEXT
  5
30E
330
AB
100
AcDbEntity
  8
0
100
AcDbText
 10
168.8333333333333
 20
288.0
 30
0.0
 40
3.0
  1
4
  7
Roman
 72
     1
 11
170.3333333333333
 21
288.0
 31
0.0
100
AcDbText
1001
AcDbBlockRepETag
1070
     1
1071
       42
1005
30E
  0
TEXT
  5
30F
330
AB
100
AcDbEntity
  8
0
100
AcDbText
 10
13.9471116457535
 20
28.41666666666668
 30
0.0
 40
3.0
  1
F
  7
Roman
 72
     1
 11
15.4471116457535
 21
28.41666666666668
 31
0.0
100
AcDbText
1001
AcDbBlockRepETag
1070
     1
1071
       43
1005
30F
  0
TEXT
  5
310
330
AB
100
AcDbEntity
  8
0
100
AcDbText
 10
13.9471116457535
 20
75.91666666666668
 30
0.0
 40
3.0
  1
E
  7
Roman
 72
     1
 11
15.4471116457535
 21
75.91666666666668
 31
0.0
100
AcDbText
1001
AcDbBlockRepETag
1070
     1
1071
       44
1005
310
  0
LINE
  5
311
330
AB
100
AcDbEntity
  8
0
100
AcDbLine
 10
192.4978723404242
 20
19.0
 30
0.0
 11
75.49787234042418
 21
19.0
 31
0.0
1001
AcDbBlockRepETag
1070
     1
1071
      166
1005
311
  0
LINE
  5
312
330
AB
100
AcDbEntity
  8
0
100
AcDbLine
 10
115.4978723404242
 20
28.0
 30
0.0
 11
75.49787234042418
 21
28.0
 31
0.0
1001
AcDbBlockRepETag
1070
     1
1071
      168
1005
312
  0
LINE
  5
313
330
AB
100
AcDbEntity
  8
0
100
AcDbLine
 10
192.4978723404242
 20
37.0
 30
0.0
 11
75.49787234042418
 21
37.0
 31
0.0
1001
AcDbBlockRepETag
1070
     1
1071
      169
1005
313
  0
LINE
  5
314
330
AB
100
AcDbEntity
  8
0
100
AcDbLine
 10
192.4978723404242
 20
46.0
 30
0.0
 11
75.49787234042418
 21
46.0
 31
0.0
1001
AcDbBlockRepETag
1070
     1
1071
      170
1005
314
  0
MTEXT
  5
315
330
AB
100
AcDbEntity
  8
0
100
AcDbMText
 10
100.9978723404242
 20
14.5
 30
0.0
 40
4.0
 41
51.0
 71
     5
 72
     5
  1
富国石油株式会社
 73
     1
 44
1.0
1001
AcDbBlockRepETag
1070
     1
1071
      171
1005
315
1001
ACAD
1000
MTEXTBEGIN
1070
    73
1070
     1
1070
    44
1040
1.0
1070
    74
1070
     0
1000
MTEXTEND
  0
MTEXT
  5
316
102
{ACAD_XDICTIONARY
360
1F77
102
}
330
AB
100
AcDbEntity
  8
0
100
AcDbMText
 10
78.47796344079569
 20
23.5
 30
0.0
 40
2.0
 41
3.96018220074299
 71
     5
 72
     5
  1
検\P図
 73
     1
 44
1.0
1001
AcDbBlockRepETag
1070
     1
1071
      172
1005
316
1001
ACAD
1000
MTEXTBEGIN
1070
    73
1070
     1
1070
    44
1040
1.0
1070
    74
1070
     0
1000
MTEXTEND
1000
ACAD_MTEXT_DEFINED_HEIGHT_BEGIN
1070
    46
1040
9.0
1000
ACAD_MTEXT_DEFINED_HEIGHT_END
  0
MTEXT
  5
317
330
AB
100
AcDbEntity
  8
0
100
AcDbMText
 10
78.47796344079569
 20
32.5
 30
0.0
 40
2.0
 41
3.96018220074299
 71
     5
 72
     5
  1
確\P認
 73
     1
 44
1.0
1001
AcDbBlockRepETag
1070
     1
1071
      173
1005
317
1001
ACAD
1000
MTEXTBEGIN
1070
    73
1070
     1
1070
    44
1040
1.0
1070
    74
1070
     0
1000
MTEXTEND
1000
ACAD_MTEXT_DEFINED_HEIGHT_BEGIN
1070
    46
1040
9.0
1000
ACAD_MTEXT_DEFINED_HEIGHT_END
  0
MTEXT
  5
318
330
AB
100
AcDbEntity
  8
0
100
AcDbMText
 10
78.47796344079569
 20
41.5
 30
0.0
 40
2.0
 41
3.96018220074299
 71
     5
 72
     5
  1
縮\P尺
 73
     1
 44
1.0
1001
AcDbBlockRepETag
1070
     1
1071
      174
1005
318
1001
ACAD
1000
MTEXTBEGIN
1070
    73
1070
     1
1070
    44
1040
1.0
1070
    74
1070
     0
1000
MTEXTEND
1000
ACAD_MTEXT_DEFINED_HEIGHT_BEGIN
1070
    46
1040
9.0
1000
ACAD_MTEXT_DEFINED_HEIGHT_END
  0
LINE
  5
319
330
AB
100
AcDbEntity
  8
0
100
AcDbLine
 10
95.49787234042415
 20
19.0
 30
0.0
 11
95.49787234042415
 21
46.0
 31
0.0
1001
AcDbBlockRepETag
1070
     1
1071
      175
1005
319
  0
LINE
  5
31A
330
AB
100
AcDbEntity
  8
0
100
AcDbLine
 10
115.4978723404242
 20
19.0
 30
0.0
 11
115.4978723404242
 21
46.0
 31
0.0
1001
AcDbBlockRepETag
1070
     1
1071
      176
1005
31A
  0
LINE
  5
31B
330
AB
100
AcDbEntity
  8
0
100
AcDbLine
 10
147.4978723404241
 20
37.0
 30
0.0
 11
147.4978723404241
 21
46.0
 31
0.0
1001
AcDbBlockRepETag
1070
     1
1071
      194
1005
31B
  0
MTEXT
  5
31C
330
AB
100
AcDbEntity
  8
0
100
AcDbMText
 10
98.47796344079569
 20
32.5
 30
0.0
 40
2.0
 41
3.96018220074299
 71
     5
 72
     5
  1
設\P計
 73
     1
 44
1.0
1001
AcDbBlockRepETag
1070
     1
1071
      177
1005
31C
1001
ACAD
1000
MTEXTBEGIN
1070
    73
1070
     1
1070
    44
1040
1.0
1070
    74
1070
     0
1000
MTEXTEND
1000
ACAD_MTEXT_DEFINED_HEIGHT_BEGIN
1070
    46
1040
9.0
1000
ACAD_MTEXT_DEFINED_HEIGHT_END
  0
MTEXT
  5
31D
330
AB
100
AcDbEntity
  8
0
100
AcDbMText
 10
98.47796344079569
 20
23.5
 30
0.0
 40
2.0
 41
3.96018220074299
 71
     5
 72
     5
  1
製\P図
 73
     1
 44
1.0
1001
AcDbBlockRepETag
1070
     1
1071
      178
1005
31D
1001
ACAD
1000
MTEXTBEGIN
1070
    73
1070
     1
1070
    44
1040
1.0
1070
    74
1070
     0
1000
MTEXTEND
1000
ACAD_MTEXT_DEFINED_HEIGHT_BEGIN
1070
    46
1040
9.0
1000
ACAD_MTEXT_DEFINED_HEIGHT_END
  0
MTEXT
  5
31E
330
AB
100
AcDbEntity
  8
0
100
AcDbMText
 10
118.4779634407957
 20
41.5
 30
0.0
 40
2.0
 41
3.96018220074299
 71
     5
 72
     5
  1
材\P料
 73
     1
 44
1.0
1001
AcDbBlockRepETag
1070
     1
1071
      179
1005
31E
1001
ACAD
1000
MTEXTBEGIN
1070
    73
1070
     1
1070
    44
1040
1.0
1070
    74
1070
     0
1000
MTEXTEND
1000
ACAD_MTEXT_DEFINED_HEIGHT_BEGIN
1070
    46
1040
9.0
1000
ACAD_MTEXT_DEFINED_HEIGHT_END
  0
LINE
  5
31F
330
AB
100
AcDbEntity
  8
0
  6
HIDDEN2
 48
0.5
100
AcDbLine
 10
192.4978723404242
 20
32.5
 30
0.0
 11
115.4978723404242
 21
32.5
 31
0.0
1001
AcDbBlockRepETag
1070
     1
1071
      180
1005
31F
  0
POINT
  5
320
330
AB
100
AcDbEntity
  8
0
100
AcDbPoint
 10
101.2478723404242
 20
37.0
 30
0.0
1001
AcDbBlockRepETag
1070
     1
1071
      189
1005
320
  0
POINT
  5
321
330
AB
100
AcDbEntity
  8
0
100
AcDbPoint
 10
101.2478723404242
 20
28.0
 30
0.0
1001
AcDbBlockRepETag
1070
     1
1071
      190
1005
321
  0
MTEXT
  5
322
330
AB
100
AcDbEntity
  8
0
100
AcDbMText
 10
108.3728723404242
 20
23.5
 30
0.0
 40
3.0
 41
14.25
 71
     5
 72
     5
  1
齊藤
 73
     1
 44
1.0
1001
AcDbBlockRepETag
1070
     1
1071
      192
1005
322
1001
ACAD
1000
MTEXTBEGIN
1070
    73
1070
     1
1070
    44
1040
1.0
1070
    74
1070
     0
1000
MTEXTEND
1000
ACAD_MTEXT_DEFINED_HEIGHT_BEGIN
1070
    46
1040
9.0
1000
ACAD_MTEXT_DEFINED_HEIGHT_END
  0
TEXT
  5
323
330
AB
100
AcDbEntity
  8
0
100
AcDbText
 10
38.45238095238097
 20
6.230338100985591
 30
0.0
 40
3.0
  1
1
  7
Roman
 72
     1
 11
39.66666666666668
 21
6.230338100985591
 31
0.0
100
AcDbText
1001
AcDbBlockRepETag
1070
     1
1071
       45
1005
323
  0
TEXT
  5
324
330
AB
100
AcDbEntity
  8
0
100
AcDbText
 10
81.90476190476188
 20
6.230338100985591
 30
0.0
 40
3.0
  1
2
  7
Roman
 72
     1
 11
83.33333333333332
 21
6.230338100985591
 31
0.0
100
AcDbText
1001
AcDbBlockRepETag
1070
     1
1071
       46
1005
324
  0
TEXT
  5
325
330
AB
100
AcDbEntity
  8
0
100
AcDbText
 10
125.5714285714286
 20
6.230338100985591
 30
0.0
 40
3.0
  1
3
  7
Roman
 72
     1
 11
127.0
 21
6.230338100985591
 31
0.0
100
AcDbText
1001
AcDbBlockRepETag
1070
     1
1071
       47
1005
325
  0
TEXT
  5
326
330
AB
100
AcDbEntity
  8
0
100
AcDbText
 10
169.1666666666667
 20
6.230338100985591
 30
0.0
 40
3.0
  1
4
  7
Roman
 72
     1
 11
170.6666666666667
 21
6.230338100985591
 31
0.0
100
AcDbText
1001
AcDbBlockRepETag
1070
     1
1071
       48
1005
326
  0
TEXT
  5
327
330
AB
100
AcDbEntity
  8
0
100
AcDbText
 10
193.2387724536951
 20
33.75
 30
0.0
 40
3.0
  1
F
  7
Roman
 72
     1
 11
194.7387724536952
 21
33.75
 31
0.0
100
AcDbText
1001
AcDbBlockRepETag
1070
     1
1071
       49
1005
327
  0
TEXT
  5
328
330
AB
100
AcDbEntity
  8
0
100
AcDbText
 10
193.2387724536951
 20
81.25
 30
0.0
 40
3.0
  1
E
  7
Roman
 72
     1
 11
194.7387724536952
 21
81.25
 31
0.0
100
AcDbText
1001
AcDbBlockRepETag
1070
     1
1071
       50
1005
328
  0
TEXT
  5
329
330
AB
100
AcDbEntity
  8
0
100
AcDbText
 10
193.1673438822666
 20
221.0833333333333
 30
0.0
 40
3.0
  1
B
  7
Roman
 72
     1
 11
194.7387724536952
 21
221.0833333333333
 31
0.0
100
AcDbText
1001
AcDbBlockRepETag
1070
     1
1071
       51
1005
329
  0
TEXT
  5
32A
330
AB
100
AcDbEntity
  8
0
100
AcDbText
 10
193.4530581679809
 20
268.5833333333333
 30
0.0
 40
3.0
  1
A
  7
Roman
 72
     1
 11
194.7387724536952
 21
268.5833333333333
 31
0.0
100
AcDbText
1001
AcDbBlockRepETag
1070
     1
1071
       52
1005
32A
  0
LINE
  5
32B
330
AB
100
AcDbEntity
  8
0
100
AcDbLine
 10
75.49787234042418
 20
10.0
 30
0.0
 11
75.49787234042418
 21
46.0
 31
0.0
1001
AcDbBlockRepETag
1070
     1
1071
      162
1005
32B
  0
LINE
  5
32C
330
AB
100
AcDbEntity
  8
0
100
AcDbLine
 10
126.4978723404242
 20
10.0
 30
0.0
 11
126.4978723404242
 21
19.0
 31
0.0
1001
AcDbBlockRepETag
1070
     1
1071
      167
1005
32C
  0
TEXT
  5
32D
330
AB
100
AcDbEntity
  8
0
100
AcDbText
 10
193.1673438822666
 20
126.0833333333333
 30
0.0
 40
3.0
  1
D
  7
Roman
 72
     1
 11
194.7387724536952
 21
126.0833333333333
 31
0.0
100
AcDbText
1001
AcDbBlockRepETag
1070
     1
1071
       54
1005
32D
  0
TEXT
  5
32E
330
AB
100
AcDbEntity
  8
0
100
AcDbText
 10
193.2387724536951
 20
173.5833333333333
 30
0.0
 40
3.0
  1
C
  7
Roman
 72
     1
 11
194.7387724536952
 21
173.5833333333333
 31
0.0
100
AcDbText
1001
AcDbBlockRepETag
1070
     1
1071
       53
1005
32E
  0
ENDBLK
  5
117
330
AB
100
AcDbEntity
  8
0
100
AcDbBlockEnd
  0
BLOCK
  5
340
330
33F
100
AcDbEntity
  8
0
100
AcDbBlockBegin
  2
_Open30
 70
     0
 10
0.0
 20
0.0
 30
0.0
  3
_Open30
  1

  0
LINE
  5
341
330
33F
100
AcDbEntity
  8
0
  6
ByBlock
 62
     0
370
    -2
100
AcDbLine
 10
-1.0
 20
0.26794919
 30
0.0
 11
0.0
 21
0.0
 31
0.0
  0
LINE
  5
342
330
33F
100
AcDbEntity
  8
0
  6
ByBlock
 62
     0
370
    -2
100
AcDbLine
 10
0.0
 20
0.0
 30
0.0
 11
-1.0
 21
-0.26794919
 31
0.0
  0
LINE
  5
343
330
33F
100
AcDbEntity
  8
0
  6
ByBlock
 62
     0
370
    -2
100
AcDbLine
 10
0.0
 20
0.0
 30
0.0
 11
-1.0
 21
0.0
 31
0.0
  0
ENDBLK
  5
344
330
33F
100
AcDbEntity
  8
0
100
AcDbBlockEnd
  0
BLOCK
  5
4EA
330
4E7
100
AcDbEntity
  8
0
100
AcDbBlockBegin
  2
JIS A3 title block
 70
     2
 10
0.0
 20
0.0
 30
0.0
  3
JIS A3 title block
  1

  4
JIS A3 title block and attributes
  0
LINE
  5
4EB
330
4E7
100
AcDbEntity
  8
0
100
AcDbLine
 10
402.5
 20
10.0
 30
0.0
 11
17.49999999999999
 21
10.0
 31
0.0
1001
AcDbBlockRepETag
1070
     1
1071
        0
1005
4EB
  0
LINE
  5
4EC
330
4E7
100
AcDbEntity
  8
0
100
AcDbLine
 10
17.5
 20
287.0
 30
0.0
 11
402.5
 21
287.0
 31
0.0
1001
AcDbBlockRepETag
1070
     1
1071
        1
1005
4EC
  0
LINE
  5
4ED
330
4E7
100
AcDbEntity
  8
0
100
AcDbLine
 10
25.0
 20
0.0
 30
0.0
 11
0.0
 21
0.0
 31
0.0
1001
AcDbBlockRepETag
1070
     1
1071
        3
1005
4ED
  0
LINE
  5
4EE
330
4E7
100
AcDbEntity
  8
0
100
AcDbLine
 10
0.0
 20
0.0
 30
0.0
 11
0.0
 21
10.0
 31
0.0
1001
AcDbBlockRepETag
1070
     1
1071
        4
1005
4EE
  0
LINE
  5
4EF
330
4E7
100
AcDbEntity
  8
0
100
AcDbLine
 10
65.625
 20
10.0
 30
0.0
 11
65.625
 21
5.0
 31
0.0
1001
AcDbBlockRepETag
1070
     1
1071
        5
1005
4EF
  0
TEXT
  5
4F0
330
4E7
100
AcDbEntity
  8
0
100
AcDbText
 10
40.34821428571429
 20
6.019997240728746
 30
0.0
 40
3.0
  1
1
  7
Roman
 72
     1
 11
41.5625
 21
6.019997240728746
 31
0.0
100
AcDbText
1001
AcDbBlockRepETag
1070
     1
1071
        6
1005
4F0
  0
ATTDEF
  5
4F1
330
4E7
100
AcDbEntity
  8
0
 62
     0
380
     1
100
AcDbText
 10
11.49999999999999
 20
10.0
 30
0.0
 40
3.0
  1

 50
90.0
  7
Roman
100
AcDbAttributeDefinition
  3
Author:
  2
USER
 70
     8
1001
AcDbBlockRepETag
1070
     1
1071
        7
1005
0
  0
TEXT
  5
4F2
330
4E7
100
AcDbEntity
  8
0
100
AcDbText
 10
13.60716135953388
 20
33.08333333333334
 30
0.0
 40
3.0
  1
F
  7
Roman
 72
     1
 11
15.10716135953388
 21
33.08333333333334
 31
0.0
100
AcDbText
1001
AcDbBlockRepETag
1070
     1
1071
        8
1005
4F2
  0
LINE
  5
4F3
330
4E7
100
AcDbEntity
  8
0
100
AcDbLine
 10
17.49999999999999
 20
148.5
 30
0.0
 11
0.0
 21
148.5
 31
0.0
1001
AcDbBlockRepETag
1070
     1
1071
        9
1005
4F3
  0
ATTDEF
  5
4F4
330
4E7
100
AcDbEntity
  8
0
 62
     0
380
     1
100
AcDbText
 10
11.49999999999999
 20
70.0
 30
0.0
 40
3.0
  1

 50
90.0
  7
Roman
100
AcDbAttributeDefinition
  3
Revision date:
  2
REVDATE
 70
     8
1001
AcDbBlockRepETag
1070
     1
1071
       10
1005
0
  0
LINE
  5
4F5
330
4E7
100
AcDbEntity
  8
0
100
AcDbLine
 10
17.49999999999999
 20
56.16666666666667
 30
0.0
 11
12.49999999999999
 21
56.16666666666667
 31
0.0
1001
AcDbBlockRepETag
1070
     1
1071
       11
1005
4F5
  0
TEXT
  5
4F6
330
4E7
100
AcDbEntity
  8
0
100
AcDbText
 10
13.60716135953388
 20
79.25
 30
0.0
 40
3.0
  1
E
  7
Roman
 72
     1
 11
15.10716135953388
 21
79.25
 31
0.0
100
AcDbText
1001
AcDbBlockRepETag
1070
     1
1071
       12
1005
4F6
  0
ATTDEF
  5
4F7
330
4E7
100
AcDbEntity
  8
0
 62
     0
380
     1
100
AcDbText
 10
11.49999999999999
 20
118.0
 30
0.0
 40
3.0
  1

 50
90.0
  7
Roman
100
AcDbAttributeDefinition
  3
File name:
  2
FNAME
 70
     8
1001
AcDbBlockRepETag
1070
     1
1071
       13
1005
0
  0
LINE
  5
4F8
330
4E7
100
AcDbEntity
  8
0
100
AcDbLine
 10
17.49999999999999
 20
102.3333333333333
 30
0.0
 11
12.49999999999999
 21
102.3333333333333
 31
0.0
1001
AcDbBlockRepETag
1070
     1
1071
       14
1005
4F8
  0
TEXT
  5
4F9
330
4E7
100
AcDbEntity
  8
0
100
AcDbText
 10
13.53573278810531
 20
125.4166666666666
 30
0.0
 40
3.0
  1
D
  7
Roman
 72
     1
 11
15.10716135953388
 21
125.4166666666666
 31
0.0
100
AcDbText
1001
AcDbBlockRepETag
1070
     1
1071
       15
1005
4F9
  0
LINE
  5
4FA
330
4E7
100
AcDbEntity
  8
0
100
AcDbLine
 10
17.49999999999999
 20
148.5
 30
0.0
 11
12.49999999999999
 21
148.5
 31
0.0
1001
AcDbBlockRepETag
1070
     1
1071
       16
1005
4FA
  0
TEXT
  5
4FB
330
4E7
100
AcDbEntity
  8
0
100
AcDbText
 10
136.3839285714286
 20
6.019997240728746
 30
0.0
 40
3.0
  1
3
  7
Roman
 72
     1
 11
137.8125
 21
6.019997240728746
 31
0.0
100
AcDbText
1001
AcDbBlockRepETag
1070
     1
1071
       17
1005
4FB
  0
LINE
  5
4FC
330
4E7
100
AcDbEntity
  8
0
100
AcDbLine
 10
113.75
 20
10.0
 30
0.0
 11
113.75
 21
5.0
 31
0.0
1001
AcDbBlockRepETag
1070
     1
1071
       18
1005
4FC
  0
TEXT
  5
4FD
330
4E7
100
AcDbEntity
  8
0
100
AcDbText
 10
88.25892857142857
 20
6.019997240728746
 30
0.0
 40
3.0
  1
2
  7
Roman
 72
     1
 11
89.6875
 21
6.019997240728746
 31
0.0
100
AcDbText
1001
AcDbBlockRepETag
1070
     1
1071
       19
1005
4FD
  0
LINE
  5
4FE
330
4E7
100
AcDbEntity
  8
0
100
AcDbLine
 10
161.875
 20
10.0
 30
0.0
 11
161.875
 21
5.0
 31
0.0
1001
AcDbBlockRepETag
1070
     1
1071
       20
1005
4FE
  0
TEXT
  5
4FF
330
4E7
100
AcDbEntity
  8
0
100
AcDbText
 10
184.4375
 20
6.019997240728746
 30
0.0
 40
3.0
  1
4
  7
Roman
 72
     1
 11
185.9375
 21
6.019997240728746
 31
0.0
100
AcDbText
1001
AcDbBlockRepETag
1070
     1
1071
       21
1005
4FF
  0
TEXT
  5
500
330
4E7
100
AcDbEntity
  8
0
100
AcDbText
 10
13.60716135953388
 20
171.5833333333333
 30
0.0
 40
3.0
  1
C
  7
Roman
 72
     1
 11
15.10716135953388
 21
171.5833333333333
 31
0.0
100
AcDbText
1001
AcDbBlockRepETag
1070
     1
1071
       22
1005
500
  0
LINE
  5
501
330
4E7
100
AcDbEntity
  8
0
100
AcDbLine
 10
17.49999999999999
 20
194.6666666666666
 30
0.0
 11
12.49999999999999
 21
194.6666666666666
 31
0.0
1001
AcDbBlockRepETag
1070
     1
1071
       23
1005
501
  0
TEXT
  5
502
330
4E7
100
AcDbEntity
  8
0
100
AcDbText
 10
13.53573278810531
 20
217.75
 30
0.0
 40
3.0
  1
B
  7
Roman
 72
     1
 11
15.10716135953388
 21
217.75
 31
0.0
100
AcDbText
1001
AcDbBlockRepETag
1070
     1
1071
       24
1005
502
  0
LINE
  5
503
330
4E7
100
AcDbEntity
  8
0
100
AcDbLine
 10
17.49999999999999
 20
240.8333333333333
 30
0.0
 11
12.49999999999999
 21
240.8333333333333
 31
0.0
1001
AcDbBlockRepETag
1070
     1
1071
       25
1005
503
  0
LINE
  5
504
330
4E7
100
AcDbEntity
  8
0
100
AcDbLine
 10
0.0
 20
297.0
 30
0.0
 11
25.0
 21
297.0
 31
0.0
1001
AcDbBlockRepETag
1070
     1
1071
       26
1005
504
  0
LINE
  5
505
330
4E7
100
AcDbEntity
  8
0
100
AcDbLine
 10
0.0
 20
287.0
 30
0.0
 11
0.0
 21
297.0
 31
0.0
1001
AcDbBlockRepETag
1070
     1
1071
       27
1005
505
  0
LINE
  5
506
330
4E7
100
AcDbEntity
  8
0
100
AcDbLine
 10
65.625
 20
287.0
 30
0.0
 11
65.625
 21
292.0
 31
0.0
1001
AcDbBlockRepETag
1070
     1
1071
       28
1005
506
  0
TEXT
  5
507
330
4E7
100
AcDbEntity
  8
0
100
AcDbText
 10
13.82144707381959
 20
263.9166666666666
 30
0.0
 40
3.0
  1
A
  7
Roman
 72
     1
 11
15.10716135953388
 21
263.9166666666666
 31
0.0
100
AcDbText
1001
AcDbBlockRepETag
1070
     1
1071
       29
1005
507
  0
TEXT
  5
508
330
4E7
100
AcDbEntity
  8
0
100
AcDbText
 10
40.34821428571429
 20
288.0
 30
0.0
 40
3.0
  1
1
  7
Roman
 72
     1
 11
41.5625
 21
288.0
 31
0.0
100
AcDbText
1001
AcDbBlockRepETag
1070
     1
1071
       30
1005
508
  0
TEXT
  5
509
330
4E7
100
AcDbEntity
  8
0
100
AcDbText
 10
136.3839285714286
 20
288.0
 30
0.0
 40
3.0
  1
3
  7
Roman
 72
     1
 11
137.8125
 21
288.0
 31
0.0
100
AcDbText
1001
AcDbBlockRepETag
1070
     1
1071
       31
1005
509
  0
LINE
  5
50A
330
4E7
100
AcDbEntity
  8
0
100
AcDbLine
 10
113.75
 20
287.0
 30
0.0
 11
113.75
 21
292.0
 31
0.0
1001
AcDbBlockRepETag
1070
     1
1071
       32
1005
50A
  0
TEXT
  5
50B
330
4E7
100
AcDbEntity
  8
0
100
AcDbText
 10
88.25892857142857
 20
288.0
 30
0.0
 40
3.0
  1
2
  7
Roman
 72
     1
 11
89.6875
 21
288.0
 31
0.0
100
AcDbText
1001
AcDbBlockRepETag
1070
     1
1071
       33
1005
50B
  0
LINE
  5
50C
330
4E7
100
AcDbEntity
  8
0
100
AcDbLine
 10
161.875
 20
287.0
 30
0.0
 11
161.875
 21
292.0
 31
0.0
1001
AcDbBlockRepETag
1070
     1
1071
       34
1005
50C
  0
TEXT
  5
50D
330
4E7
100
AcDbEntity
  8
0
100
AcDbText
 10
184.4375
 20
288.0
 30
0.0
 40
3.0
  1
4
  7
Roman
 72
     1
 11
185.9375
 21
288.0
 31
0.0
100
AcDbText
1001
AcDbBlockRepETag
1070
     1
1071
       35
1005
50D
  0
LINE
  5
50E
330
4E7
100
AcDbEntity
  8
0
100
AcDbLine
 10
402.5
 20
287.0
 30
0.0
 11
402.5
 21
10.0
 31
0.0
1001
AcDbBlockRepETag
1070
     1
1071
       36
1005
50E
  0
LINE
  5
50F
330
4E7
100
AcDbEntity
  8
0
100
AcDbLine
 10
210.0
 20
10.0
 30
0.0
 11
210.0
 21
0.0
 31
0.0
1001
AcDbBlockRepETag
1070
     1
1071
       37
1005
50F
  0
LINE
  5
510
330
4E7
100
AcDbEntity
  8
0
100
AcDbLine
 10
258.125
 20
10.0
 30
0.0
 11
258.125
 21
5.0
 31
0.0
1001
AcDbBlockRepETag
1070
     1
1071
       39
1005
510
  0
TEXT
  5
511
330
4E7
100
AcDbEntity
  8
0
100
AcDbText
 10
232.6339285714286
 20
6.019997240728746
 30
0.0
 40
3.0
  1
5
  7
Roman
 72
     1
 11
234.0625
 21
6.019997240728746
 31
0.0
100
AcDbText
1001
AcDbBlockRepETag
1070
     1
1071
       40
1005
511
  0
LINE
  5
512
330
4E7
100
AcDbEntity
  8
0
100
AcDbLine
 10
306.25
 20
10.0
 30
0.0
 11
306.25
 21
5.0
 31
0.0
1001
AcDbBlockRepETag
1070
     1
1071
       41
1005
512
  0
TEXT
  5
513
330
4E7
100
AcDbEntity
  8
0
100
AcDbText
 10
280.6875
 20
6.019997240728746
 30
0.0
 40
3.0
  1
6
  7
Roman
 72
     1
 11
282.1875
 21
6.019997240728746
 31
0.0
100
AcDbText
1001
AcDbBlockRepETag
1070
     1
1071
       42
1005
513
  0
TEXT
  5
514
330
4E7
100
AcDbEntity
  8
0
100
AcDbText
 10
328.8839285714285
 20
6.019997240728746
 30
0.0
 40
3.0
  1
7
  7
Roman
 72
     1
 11
330.3125
 21
6.019997240728746
 31
0.0
100
AcDbText
1001
AcDbBlockRepETag
1070
     1
1071
       43
1005
514
  0
LINE
  5
515
330
4E7
100
AcDbEntity
  8
0
100
AcDbLine
 10
354.375
 20
10.0
 30
0.0
 11
354.375
 21
5.0
 31
0.0
1001
AcDbBlockRepETag
1070
     1
1071
       44
1005
515
  0
TEXT
  5
516
330
4E7
100
AcDbEntity
  8
0
100
AcDbText
 10
377.0089285714286
 20
6.019997240728746
 30
0.0
 40
3.0
  1
8
  7
Roman
 72
     1
 11
378.4375
 21
6.019997240728746
 31
0.0
100
AcDbText
1001
AcDbBlockRepETag
1070
     1
1071
       45
1005
516
  0
LINE
  5
517
330
4E7
100
AcDbEntity
  8
0
100
AcDbLine
 10
420.0
 20
10.0
 30
0.0
 11
420.0
 21
0.0
 31
0.0
1001
AcDbBlockRepETag
1070
     1
1071
       46
1005
517
  0
LINE
  5
518
330
4E7
100
AcDbEntity
  8
0
100
AcDbLine
 10
420.0
 20
0.0
 30
0.0
 11
410.0
 21
0.0
 31
0.0
1001
AcDbBlockRepETag
1070
     1
1071
       47
1005
518
  0
LINE
  5
519
330
4E7
100
AcDbEntity
  8
0
 62
     0
380
     1
100
AcDbLine
 10
402.5
 20
49.00000000000036
 30
0.0
 11
402.5
 21
10.0
 31
0.0
1001
AcDbBlockRepETag
1070
     1
1071
       48
1005
519
  0
LINE
  5
51A
330
4E7
100
AcDbEntity
  8
0
 62
     0
380
     1
100
AcDbLine
 10
402.5
 20
10.0
 30
0.0
 11
402.5
 21
49.00000000000036
 31
0.0
1001
AcDbBlockRepETag
1070
     1
1071
       49
1005
51A
  0
TEXT
  5
51B
330
4E7
100
AcDbEntity
  8
0
100
AcDbText
 10
403.8708251683468
 20
33.08333333333334
 30
0.0
 40
3.0
  1
F
  7
Roman
 72
     1
 11
405.3708251683468
 21
33.08333333333334
 31
0.0
100
AcDbText
1001
AcDbBlockRepETag
1070
     1
1071
       50
1005
51B
  0
LINE
  5
51C
330
4E7
100
AcDbEntity
  8
0
100
AcDbLine
 10
402.5
 20
56.16666666666668
 30
0.0
 11
407.5
 21
56.16666666666668
 31
0.0
1001
AcDbBlockRepETag
1070
     1
1071
       51
1005
51C
  0
TEXT
  5
51D
330
4E7
100
AcDbEntity
  8
0
100
AcDbText
 10
403.8708251683468
 20
79.25
 30
0.0
 40
3.0
  1
E
  7
Roman
 72
     1
 11
405.3708251683468
 21
79.25
 31
0.0
100
AcDbText
1001
AcDbBlockRepETag
1070
     1
1071
       52
1005
51D
  0
LINE
  5
51E
330
4E7
100
AcDbEntity
  8
0
100
AcDbLine
 10
402.5
 20
102.3333333333333
 30
0.0
 11
407.5
 21
102.3333333333333
 31
0.0
1001
AcDbBlockRepETag
1070
     1
1071
       53
1005
51E
  0
TEXT
  5
51F
330
4E7
100
AcDbEntity
  8
0
100
AcDbText
 10
403.7993965969183
 20
125.4166666666666
 30
0.0
 40
3.0
  1
D
  7
Roman
 72
     1
 11
405.3708251683468
 21
125.4166666666666
 31
0.0
100
AcDbText
1001
AcDbBlockRepETag
1070
     1
1071
       54
1005
51F
  0
LINE
  5
520
330
4E7
100
AcDbEntity
  8
0
100
AcDbLine
 10
402.5
 20
148.5
 30
0.0
 11
420.0
 21
148.5
 31
0.0
1001
AcDbBlockRepETag
1070
     1
1071
       56
1005
520
  0
LINE
  5
521
330
4E7
100
AcDbEntity
  8
0
100
AcDbLine
 10
210.0
 20
287.0
 30
0.0
 11
210.0
 21
297.0
 31
0.0
1001
AcDbBlockRepETag
1070
     1
1071
       57
1005
521
  0
LINE
  5
522
330
4E7
100
AcDbEntity
  8
0
100
AcDbLine
 10
258.125
 20
287.0
 30
0.0
 11
258.125
 21
292.0
 31
0.0
1001
AcDbBlockRepETag
1070
     1
1071
       58
1005
522
  0
LINE
  5
523
330
4E7
100
AcDbEntity
  8
0
100
AcDbLine
 10
210.0
 20
287.0
 30
0.0
 11
210.0
 21
292.0
 31
0.0
1001
AcDbBlockRepETag
1070
     1
1071
       59
1005
523
  0
TEXT
  5
524
330
4E7
100
AcDbEntity
  8
0
100
AcDbText
 10
232.6339285714286
 20
288.0
 30
0.0
 40
3.0
  1
5
  7
Roman
 72
     1
 11
234.0625
 21
288.0
 31
0.0
100
AcDbText
1001
AcDbBlockRepETag
1070
     1
1071
       60
1005
524
  0
LINE
  5
525
330
4E7
100
AcDbEntity
  8
0
100
AcDbLine
 10
306.25
 20
287.0
 30
0.0
 11
306.25
 21
292.0
 31
0.0
1001
AcDbBlockRepETag
1070
     1
1071
       61
1005
525
  0
TEXT
  5
526
330
4E7
100
AcDbEntity
  8
0
100
AcDbText
 10
280.6875
 20
288.0
 30
0.0
 40
3.0
  1
6
  7
Roman
 72
     1
 11
282.1875
 21
288.0
 31
0.0
100
AcDbText
1001
AcDbBlockRepETag
1070
     1
1071
       62
1005
526
  0
TEXT
  5
527
330
4E7
100
AcDbEntity
  8
0
100
AcDbText
 10
328.8839285714285
 20
288.0
 30
0.0
 40
3.0
  1
7
  7
Roman
 72
     1
 11
330.3125
 21
288.0
 31
0.0
100
AcDbText
1001
AcDbBlockRepETag
1070
     1
1071
       63
1005
527
  0
TEXT
  5
528
330
4E7
100
AcDbEntity
  8
0
100
AcDbText
 10
403.8708251683468
 20
171.5833333333333
 30
0.0
 40
3.0
  1
C
  7
Roman
 72
     1
 11
405.3708251683468
 21
171.5833333333333
 31
0.0
100
AcDbText
1001
AcDbBlockRepETag
1070
     1
1071
       64
1005
528
  0
LINE
  5
529
330
4E7
100
AcDbEntity
  8
0
100
AcDbLine
 10
402.5
 20
194.6666666666667
 30
0.0
 11
407.5
 21
194.6666666666667
 31
0.0
1001
AcDbBlockRepETag
1070
     1
1071
       65
1005
529
  0
TEXT
  5
52A
330
4E7
100
AcDbEntity
  8
0
100
AcDbText
 10
403.7993965969183
 20
217.75
 30
0.0
 40
3.0
  1
B
  7
Roman
 72
     1
 11
405.3708251683468
 21
217.75
 31
0.0
100
AcDbText
1001
AcDbBlockRepETag
1070
     1
1071
       66
1005
52A
  0
LINE
  5
52B
330
4E7
100
AcDbEntity
  8
0
100
AcDbLine
 10
402.5
 20
240.8333333333334
 30
0.0
 11
407.5
 21
240.8333333333334
 31
0.0
1001
AcDbBlockRepETag
1070
     1
1071
       67
1005
52B
  0
LINE
  5
52C
330
4E7
100
AcDbEntity
  8
0
100
AcDbLine
 10
354.375
 20
287.0
 30
0.0
 11
354.375
 21
292.0
 31
0.0
1001
AcDbBlockRepETag
1070
     1
1071
       68
1005
52C
  0
TEXT
  5
52D
330
4E7
100
AcDbEntity
  8
0
100
AcDbText
 10
377.0089285714286
 20
288.0
 30
0.0
 40
3.0
  1
8
  7
Roman
 72
     1
 11
378.4375
 21
288.0
 31
0.0
100
AcDbText
1001
AcDbBlockRepETag
1070
     1
1071
       69
1005
52D
  0
LINE
  5
52E
330
4E7
100
AcDbEntity
  8
0
100
AcDbLine
 10
420.0
 20
297.0
 30
0.0
 11
420.0
 21
287.0
 31
0.0
1001
AcDbBlockRepETag
1070
     1
1071
       70
1005
52E
  0
TEXT
  5
52F
330
4E7
100
AcDbEntity
  8
0
100
AcDbText
 10
404.0851108826325
 20
263.9166666666666
 30
0.0
 40
3.0
  1
A
  7
Roman
 72
     1
 11
405.3708251683468
 21
263.9166666666666
 31
0.0
100
AcDbText
1001
AcDbBlockRepETag
1070
     1
1071
       71
1005
52F
  0
LINE
  5
530
330
4E7
100
AcDbEntity
  8
0
100
AcDbLine
 10
410.0
 20
297.0
 30
0.0
 11
420.0
 21
297.0
 31
0.0
1001
AcDbBlockRepETag
1070
     1
1071
       72
1005
530
  0
LINE
  5
531
330
4E7
100
AcDbEntity
  8
0
100
AcDbLine
 10
286.4978723404242
 20
10.0
 30
0.0
 11
286.4978723404242
 21
10.0
 31
0.0
1001
AcDbBlockRepETag
1070
     1
1071
      161
1005
531
  0
LINE
  5
532
330
4E7
100
AcDbEntity
  8
0
100
AcDbLine
 10
285.4978723404242
 20
10.0
 30
0.0
 11
285.4978723404242
 21
46.0
 31
0.0
1001
AcDbBlockRepETag
1070
     1
1071
      162
1005
532
  0
LINE
  5
533
330
4E7
100
AcDbEntity
  8
0
100
AcDbLine
 10
402.4978723404242
 20
19.0
 30
0.0
 11
285.4978723404242
 21
19.0
 31
0.0
1001
AcDbBlockRepETag
1070
     1
1071
      166
1005
533
  0
LINE
  5
534
330
4E7
100
AcDbEntity
  8
0
100
AcDbLine
 10
336.4978723404242
 20
10.0
 30
0.0
 11
336.4978723404242
 21
19.0
 31
0.0
1001
AcDbBlockRepETag
1070
     1
1071
      167
1005
534
  0
LINE
  5
535
330
4E7
100
AcDbEntity
  8
0
100
AcDbLine
 10
325.4978723404242
 20
28.0
 30
0.0
 11
285.4978723404242
 21
28.0
 31
0.0
1001
AcDbBlockRepETag
1070
     1
1071
      168
1005
535
  0
LINE
  5
536
330
4E7
100
AcDbEntity
  8
0
100
AcDbLine
 10
402.4978723404242
 20
37.0
 30
0.0
 11
285.4978723404242
 21
37.0
 31
0.0
1001
AcDbBlockRepETag
1070
     1
1071
      169
1005
536
  0
LINE
  5
537
330
4E7
100
AcDbEntity
  8
0
100
AcDbLine
 10
402.4978723404242
 20
46.0
 30
0.0
 11
285.4978723404242
 21
46.0
 31
0.0
1001
AcDbBlockRepETag
1070
     1
1071
      170
1005
537
  0
MTEXT
  5
538
330
4E7
100
AcDbEntity
  8
0
100
AcDbMText
 10
310.9978723404242
 20
14.5
 30
0.0
 40
4.0
 41
51.0
 71
     5
 72
     5
  1
富国石油株式会社
 73
     1
 44
1.0
1001
AcDbBlockRepETag
1070
     1
1071
      171
1005
538
1001
ACAD
1000
MTEXTBEGIN
1070
    73
1070
     1
1070
    44
1040
1.0
1070
    74
1070
     0
1000
MTEXTEND
  0
MTEXT
  5
539
102
{ACAD_XDICTIONARY
360
1F7B
102
}
330
4E7
100
AcDbEntity
  8
0
100
AcDbMText
 10
288.4779634407957
 20
23.5
 30
0.0
 40
2.0
 41
3.96018220074299
 71
     5
 72
     5
  1
検\P図
 73
     1
 44
1.0
1001
AcDbBlockRepETag
1070
     1
1071
      172
1005
539
1001
ACAD
1000
MTEXTBEGIN
1070
    73
1070
     1
1070
    44
1040
1.0
1070
    74
1070
     0
1000
MTEXTEND
1000
ACAD_MTEXT_DEFINED_HEIGHT_BEGIN
1070
    46
1040
9.0
1000
ACAD_MTEXT_DEFINED_HEIGHT_END
  0
MTEXT
  5
53A
330
4E7
100
AcDbEntity
  8
0
100
AcDbMText
 10
288.4779634407957
 20
32.5
 30
0.0
 40
2.0
 41
3.96018220074299
 71
     5
 72
     5
  1
確\P認
 73
     1
 44
1.0
1001
AcDbBlockRepETag
1070
     1
1071
      173
1005
53A
1001
ACAD
1000
MTEXTBEGIN
1070
    73
1070
     1
1070
    44
1040
1.0
1070
    74
1070
     0
1000
MTEXTEND
1000
ACAD_MTEXT_DEFINED_HEIGHT_BEGIN
1070
    46
1040
9.0
1000
ACAD_MTEXT_DEFINED_HEIGHT_END
  0
MTEXT
  5
53B
330
4E7
100
AcDbEntity
  8
0
100
AcDbMText
 10
288.4779634407957
 20
41.5
 30
0.0
 40
2.0
 41
3.96018220074299
 71
     5
 72
     5
  1
縮\P尺
 73
     1
 44
1.0
1001
AcDbBlockRepETag
1070
     1
1071
      174
1005
53B
1001
ACAD
1000
MTEXTBEGIN
1070
    73
1070
     1
1070
    44
1040
1.0
1070
    74
1070
     0
1000
MTEXTEND
1000
ACAD_MTEXT_DEFINED_HEIGHT_BEGIN
1070
    46
1040
9.0
1000
ACAD_MTEXT_DEFINED_HEIGHT_END
  0
LINE
  5
53C
330
4E7
100
AcDbEntity
  8
0
100
AcDbLine
 10
305.4978723404242
 20
19.0
 30
0.0
 11
305.4978723404242
 21
46.0
 31
0.0
1001
AcDbBlockRepETag
1070
     1
1071
      175
1005
53C
  0
LINE
  5
53D
330
4E7
100
AcDbEntity
  8
0
100
AcDbLine
 10
325.4978723404242
 20
19.0
 30
0.0
 11
325.4978723404242
 21
46.0
 31
0.0
1001
AcDbBlockRepETag
1070
     1
1071
      176
1005
53D
  0
LINE
  5
53E
330
4E7
100
AcDbEntity
  8
0
100
AcDbLine
 10
357.4978723404242
 20
37.0
 30
0.0
 11
357.4978723404242
 21
46.0
 31
0.0
1001
AcDbBlockRepETag
1070
     1
1071
      194
1005
53E
  0
MTEXT
  5
53F
330
4E7
100
AcDbEntity
  8
0
100
AcDbMText
 10
308.4779634407957
 20
32.5
 30
0.0
 40
2.0
 41
3.96018220074299
 71
     5
 72
     5
  1
設\P計
 73
     1
 44
1.0
1001
AcDbBlockRepETag
1070
     1
1071
      177
1005
53F
1001
ACAD
1000
MTEXTBEGIN
1070
    73
1070
     1
1070
    44
1040
1.0
1070
    74
1070
     0
1000
MTEXTEND
1000
ACAD_MTEXT_DEFINED_HEIGHT_BEGIN
1070
    46
1040
9.0
1000
ACAD_MTEXT_DEFINED_HEIGHT_END
  0
MTEXT
  5
540
330
4E7
100
AcDbEntity
  8
0
100
AcDbMText
 10
308.4779634407957
 20
23.5
 30
0.0
 40
2.0
 41
3.96018220074299
 71
     5
 72
     5
  1
製\P図
 73
     1
 44
1.0
1001
AcDbBlockRepETag
1070
     1
1071
      178
1005
540
1001
ACAD
1000
MTEXTBEGIN
1070
    73
1070
     1
1070
    44
1040
1.0
1070
    74
1070
     0
1000
MTEXTEND
1000
ACAD_MTEXT_DEFINED_HEIGHT_BEGIN
1070
    46
1040
9.0
1000
ACAD_MTEXT_DEFINED_HEIGHT_END
  0
MTEXT
  5
541
330
4E7
100
AcDbEntity
  8
0
100
AcDbMText
 10
328.4779634407957
 20
41.5
 30
0.0
 40
2.0
 41
3.96018220074299
 71
     5
 72
     5
  1
材\P料
 73
     1
 44
1.0
1001
AcDbBlockRepETag
1070
     1
1071
      179
1005
541
1001
ACAD
1000
MTEXTBEGIN
1070
    73
1070
     1
1070
    44
1040
1.0
1070
    74
1070
     0
1000
MTEXTEND
1000
ACAD_MTEXT_DEFINED_HEIGHT_BEGIN
1070
    46
1040
9.0
1000
ACAD_MTEXT_DEFINED_HEIGHT_END
  0
LINE
  5
542
330
4E7
100
AcDbEntity
  8
0
  6
HIDDEN2
 48
0.5
100
AcDbLine
 10
402.4978723404242
 20
32.5
 30
0.0
 11
325.4978723404242
 21
32.5
 31
0.0
1001
AcDbBlockRepETag
1070
     1
1071
      180
1005
542
  0
POINT
  5
543
330
4E7
100
AcDbEntity
  8
0
100
AcDbPoint
 10
311.2478723404242
 20
37.0
 30
0.0
1001
AcDbBlockRepETag
1070
     1
1071
      189
1005
543
  0
POINT
  5
544
330
4E7
100
AcDbEntity
  8
0
100
AcDbPoint
 10
311.2478723404242
 20
28.0
 30
0.0
1001
AcDbBlockRepETag
1070
     1
1071
      190
1005
544
  0
LINE
  5
545
330
4E7
100
AcDbEntity
  8
0
100
AcDbLine
 10
17.5
 20
10.0
 30
0.0
 11
17.5
 21
287.0
 31
0.0
1001
AcDbBlockRepETag
1070
     1
1071
       74
1005
545
  0
ENDBLK
  5
546
330
4E7
100
AcDbEntity
  8
0
100
AcDbBlockEnd
  0
BLOCK
  5
6F0
330
6ED
100
AcDbEntity
  8
0
100
AcDbBlockBegin
  2
JIS A4 title block (landscape)
 70
     2
 10
0.0
 20
0.0
 30
0.0
  3
JIS A4 title block (landscape)
  1

  4
JIS A3 title block and attributes
  0
LINE
  5
92E
330
6ED
100
AcDbEntity
  8
0
100
AcDbLine
 10
0.0
 20
297.0
 30
0.0
 11
25.0
 21
297.0
 31
0.0
1001
AcDbBlockRepETag
1070
     1
1071
       26
1005
92E
  0
LINE
  5
92F
330
6ED
100
AcDbEntity
  8
0
100
AcDbLine
 10
0.0
 20
287.0
 30
0.0
 11
0.0
 21
297.0
 31
0.0
1001
AcDbBlockRepETag
1070
     1
1071
       27
1005
92F
  0
LINE
  5
989
330
6ED
100
AcDbEntity
  8
0
100
AcDbLine
 10
279.5
 20
97.0
 30
0.0
 11
17.5
 21
97.0
 31
0.0
1001
AcDbBlockRepETag
1070
     1
1071
        0
1005
989
  0
LINE
  5
98A
330
6ED
100
AcDbEntity
  8
0
100
AcDbLine
 10
17.5
 20
287.0
 30
0.0
 11
279.5
 21
287.0
 31
0.0
1001
AcDbBlockRepETag
1070
     1
1071
        1
1005
98A
  0
LINE
  5
98B
330
6ED
100
AcDbEntity
  8
0
100
AcDbLine
 10
17.5
 20
97.0
 30
0.0
 11
17.5
 21
287.0
 31
0.0
1001
AcDbBlockRepETag
1070
     1
1071
        2
1005
98B
  0
LINE
  5
98C
330
6ED
100
AcDbEntity
  8
0
100
AcDbLine
 10
25.0
 20
87.0
 30
0.0
 11
0.0
 21
87.0
 31
0.0
1001
AcDbBlockRepETag
1070
     1
1071
        3
1005
98C
  0
LINE
  5
98D
330
6ED
100
AcDbEntity
  8
0
100
AcDbLine
 10
0.0
 20
87.0
 30
0.0
 11
0.0
 21
97.0
 31
0.0
1001
AcDbBlockRepETag
1070
     1
1071
        4
1005
98D
  0
LINE
  5
98E
330
6ED
100
AcDbEntity
  8
0
100
AcDbLine
 10
61.16666666666668
 20
97.0
 30
0.0
 11
61.16666666666668
 21
92.0
 31
0.0
1001
AcDbBlockRepETag
1070
     1
1071
        5
1005
98E
  0
TEXT
  5
98F
330
6ED
100
AcDbEntity
  8
0
100
AcDbText
 10
38.11904761904761
 20
93.23033810098564
 30
0.0
 40
3.0
  1
1
  7
Roman
 72
     1
 11
39.33333333333332
 21
93.23033810098564
 31
0.0
100
AcDbText
1001
AcDbBlockRepETag
1070
     1
1071
        6
1005
98F
  0
ATTDEF
  5
990
330
6ED
100
AcDbEntity
  8
0
 62
     0
100
AcDbText
 10
11.5
 20
97.0
 30
0.0
 40
3.0
  1

 50
90.0
  7
Roman
100
AcDbAttributeDefinition
  3
Author:
  2
USER
 70
     8
1001
AcDbBlockRepETag
1070
     1
1071
        7
1005
0
  0
TEXT
  5
991
330
6ED
100
AcDbEntity
  8
0
100
AcDbText
 10
13.87568307432493
 20
120.75
 30
0.0
 40
3.0
  1
D
  7
Roman
 72
     1
 11
15.4471116457535
 21
120.75
 31
0.0
100
AcDbText
1001
AcDbBlockRepETag
1070
     1
1071
        8
1005
991
  0
LINE
  5
992
330
6ED
100
AcDbEntity
  8
0
100
AcDbLine
 10
17.5
 20
192.0
 30
0.0
 11
0.0
 21
192.0
 31
0.0
1001
AcDbBlockRepETag
1070
     1
1071
        9
1005
992
  0
ATTDEF
  5
993
330
6ED
100
AcDbEntity
  8
0
 62
     0
100
AcDbText
 10
11.5
 20
157.0
 30
0.0
 40
3.0
  1

 50
90.0
  7
Roman
100
AcDbAttributeDefinition
  3
Revision date:
  2
REVDATE
 70
     8
1001
AcDbBlockRepETag
1070
     1
1071
       10
1005
0
  0
LINE
  5
994
330
6ED
100
AcDbEntity
  8
0
100
AcDbLine
 10
17.5
 20
144.5
 30
0.0
 11
12.5
 21
144.5
 31
0.0
1001
AcDbBlockRepETag
1070
     1
1071
       11
1005
994
  0
TEXT
  5
995
330
6ED
100
AcDbEntity
  8
0
100
AcDbText
 10
13.9471116457535
 20
168.25
 30
0.0
 40
3.0
  1
C
  7
Roman
 72
     1
 11
15.4471116457535
 21
168.25
 31
0.0
100
AcDbText
1001
AcDbBlockRepETag
1070
     1
1071
       12
1005
995
  0
ATTDEF
  5
996
330
6ED
100
AcDbEntity
  8
0
 62
     0
100
AcDbText
 10
11.5
 20
205.0
 30
0.0
 40
3.0
  1

 50
90.0
  7
Roman
100
AcDbAttributeDefinition
  3
File name:
  2
FNAME
 70
     8
1001
AcDbBlockRepETag
1070
     1
1071
       13
1005
0
  0
LINE
  5
997
330
6ED
100
AcDbEntity
  8
0
100
AcDbLine
 10
17.5
 20
192.0
 30
0.0
 11
12.5
 21
192.0
 31
0.0
1001
AcDbBlockRepETag
1070
     1
1071
       14
1005
997
  0
TEXT
  5
998
330
6ED
100
AcDbEntity
  8
0
100
AcDbText
 10
13.87568307432493
 20
215.75
 30
0.0
 40
3.0
  1
B
  7
Roman
 72
     1
 11
15.4471116457535
 21
215.75
 31
0.0
100
AcDbText
1001
AcDbBlockRepETag
1070
     1
1071
       15
1005
998
  0
LINE
  5
999
330
6ED
100
AcDbEntity
  8
0
100
AcDbLine
 10
104.8333333333333
 20
97.0
 30
0.0
 11
104.8333333333333
 21
92.0
 31
0.0
1001
AcDbBlockRepETag
1070
     1
1071
       16
1005
999
  0
TEXT
  5
99A
330
6ED
100
AcDbEntity
  8
0
100
AcDbText
 10
81.57142857142856
 20
93.23033810098564
 30
0.0
 40
3.0
  1
2
  7
Roman
 72
     1
 11
83.0
 21
93.23033810098564
 31
0.0
100
AcDbText
1001
AcDbBlockRepETag
1070
     1
1071
       17
1005
99A
  0
TEXT
  5
99B
330
6ED
100
AcDbEntity
  8
0
100
AcDbText
 10
125.2380952380953
 20
93.23033810098564
 30
0.0
 40
3.0
  1
3
  7
Roman
 72
     1
 11
126.6666666666667
 21
93.23033810098564
 31
0.0
100
AcDbText
1001
AcDbBlockRepETag
1070
     1
1071
       18
1005
99B
  0
LINE
  5
99C
330
6ED
100
AcDbEntity
  8
0
100
AcDbLine
 10
148.5
 20
97.0
 30
0.0
 11
148.5
 21
87.0
 31
0.0
1001
AcDbBlockRepETag
1070
     1
1071
       19
1005
99C
  0
LINE
  5
99D
330
6ED
100
AcDbEntity
  8
0
100
AcDbLine
 10
148.5
 20
97.0
 30
0.0
 11
148.5
 21
92.0
 31
0.0
1001
AcDbBlockRepETag
1070
     1
1071
       20
1005
99D
  0
LINE
  5
99E
330
6ED
100
AcDbEntity
  8
0
100
AcDbLine
 10
192.1666666666667
 20
97.0
 30
0.0
 11
192.1666666666667
 21
92.0
 31
0.0
1001
AcDbBlockRepETag
1070
     1
1071
       21
1005
99E
  0
TEXT
  5
99F
330
6ED
100
AcDbEntity
  8
0
100
AcDbText
 10
168.8333333333333
 20
93.23033810098564
 30
0.0
 40
3.0
  1
4
  7
Roman
 72
     1
 11
170.3333333333333
 21
93.23033810098564
 31
0.0
100
AcDbText
1001
AcDbBlockRepETag
1070
     1
1071
       22
1005
99F
  0
LINE
  5
9A0
330
6ED
100
AcDbEntity
  8
0
100
AcDbLine
 10
17.5
 20
239.5
 30
0.0
 11
12.5
 21
239.5
 31
0.0
1001
AcDbBlockRepETag
1070
     1
1071
       25
1005
9A0
  0
TEXT
  5
9A1
330
6ED
100
AcDbEntity
  8
0
100
AcDbText
 10
14.16139736003921
 20
263.25
 30
0.0
 40
3.0
  1
A
  7
Roman
 72
     1
 11
15.4471116457535
 21
263.25
 31
0.0
100
AcDbText
1001
AcDbBlockRepETag
1070
     1
1071
       75
1005
9A1
  0
TEXT
  5
9A2
330
6ED
100
AcDbEntity
  8
0
100
AcDbText
 10
38.11904761904761
 20
288.0
 30
0.0
 40
3.0
  1
1
  7
Roman
 72
     1
 11
39.33333333333332
 21
288.0
 31
0.0
100
AcDbText
1001
AcDbBlockRepETag
1070
     1
1071
       76
1005
9A2
  0
LINE
  5
9A3
330
6ED
100
AcDbEntity
  8
0
100
AcDbLine
 10
61.16666666666666
 20
287.0
 30
0.0
 11
61.16666666666666
 21
292.0
 31
0.0
1001
AcDbBlockRepETag
1070
     1
1071
       28
1005
9A3
  0
TEXT
  5
9A4
330
6ED
100
AcDbEntity
  8
0
100
AcDbText
 10
81.57142857142856
 20
288.0
 30
0.0
 40
3.0
  1
2
  7
Roman
 72
     1
 11
83.0
 21
288.0
 31
0.0
100
AcDbText
1001
AcDbBlockRepETag
1070
     1
1071
       29
1005
9A4
  0
LINE
  5
9A5
330
6ED
100
AcDbEntity
  8
0
100
AcDbLine
 10
104.8333333333333
 20
287.0
 30
0.0
 11
104.8333333333333
 21
292.0
 31
0.0
1001
AcDbBlockRepETag
1070
     1
1071
       30
1005
9A5
  0
TEXT
  5
9A6
330
6ED
100
AcDbEntity
  8
0
100
AcDbText
 10
125.2380952380953
 20
288.0
 30
0.0
 40
3.0
  1
3
  7
Roman
 72
     1
 11
126.6666666666667
 21
288.0
 31
0.0
100
AcDbText
1001
AcDbBlockRepETag
1070
     1
1071
       31
1005
9A6
  0
TEXT
  5
9A7
330
6ED
100
AcDbEntity
  8
0
100
AcDbText
 10
168.8333333333333
 20
288.0
 30
0.0
 40
3.0
  1
4
  7
Roman
 72
     1
 11
170.3333333333333
 21
288.0
 31
0.0
100
AcDbText
1001
AcDbBlockRepETag
1070
     1
1071
       32
1005
9A7
  0
LINE
  5
9A8
330
6ED
100
AcDbEntity
  8
0
100
AcDbLine
 10
148.5
 20
287.0
 30
0.0
 11
148.5
 21
297.0
 31
0.0
1001
AcDbBlockRepETag
1070
     1
1071
       33
1005
9A8
  0
LINE
  5
9A9
330
6ED
100
AcDbEntity
  8
0
100
AcDbLine
 10
148.5
 20
287.0
 30
0.0
 11
148.5
 21
292.0
 31
0.0
1001
AcDbBlockRepETag
1070
     1
1071
       34
1005
9A9
  0
LINE
  5
9AA
330
6ED
100
AcDbEntity
  8
0
100
AcDbLine
 10
192.1666666666666
 20
287.0
 30
0.0
 11
192.1666666666666
 21
292.0
 31
0.0
1001
AcDbBlockRepETag
1070
     1
1071
       35
1005
9AA
  0
LINE
  5
9AB
330
6ED
100
AcDbEntity
  8
0
100
AcDbLine
 10
279.5
 20
287.0
 30
0.0
 11
279.5
 21
97.0
 31
0.0
1001
AcDbBlockRepETag
1070
     1
1071
       36
1005
9AB
  0
LINE
  5
9AC
330
6ED
100
AcDbEntity
  8
0
100
AcDbLine
 10
235.8333333333334
 20
97.0
 30
0.0
 11
235.8333333333334
 21
92.0
 31
0.0
1001
AcDbBlockRepETag
1070
     1
1071
       37
1005
9AC
  0
TEXT
  5
9AD
330
6ED
100
AcDbEntity
  8
0
100
AcDbText
 10
212.5714285714286
 20
93.23033810098564
 30
0.0
 40
3.0
  1
5
  7
Roman
 72
     1
 11
214.0
 21
93.23033810098564
 31
0.0
100
AcDbText
1001
AcDbBlockRepETag
1070
     1
1071
       38
1005
9AD
  0
TEXT
  5
9AE
330
6ED
100
AcDbEntity
  8
0
100
AcDbText
 10
256.1666666666667
 20
93.23033810098564
 30
0.0
 40
3.0
  1
6
  7
Roman
 72
     1
 11
257.6666666666667
 21
93.23033810098564
 31
0.0
100
AcDbText
1001
AcDbBlockRepETag
1070
     1
1071
       39
1005
9AE
  0
LINE
  5
9AF
330
6ED
100
AcDbEntity
  8
0
100
AcDbLine
 10
297.0
 20
97.0
 30
0.0
 11
297.0
 21
87.0
 31
0.0
1001
AcDbBlockRepETag
1070
     1
1071
       40
1005
9AF
  0
LINE
  5
9B0
330
6ED
100
AcDbEntity
  8
0
100
AcDbLine
 10
297.0
 20
87.0
 30
0.0
 11
287.0
 21
87.0
 31
0.0
1001
AcDbBlockRepETag
1070
     1
1071
       41
1005
9B0
  0
TEXT
  5
9B1
330
6ED
100
AcDbEntity
  8
0
100
AcDbText
 10
280.1673438822666
 20
120.75
 30
0.0
 40
3.0
  1
D
  7
Roman
 72
     1
 11
281.7387724536952
 21
120.75
 31
0.0
100
AcDbText
1001
AcDbBlockRepETag
1070
     1
1071
       42
1005
9B1
  0
LINE
  5
9B2
330
6ED
100
AcDbEntity
  8
0
100
AcDbLine
 10
279.5
 20
144.5
 30
0.0
 11
284.5
 21
144.5
 31
0.0
1001
AcDbBlockRepETag
1070
     1
1071
       43
1005
9B2
  0
TEXT
  5
9B3
330
6ED
100
AcDbEntity
  8
0
100
AcDbText
 10
280.2387724536952
 20
168.25
 30
0.0
 40
3.0
  1
C
  7
Roman
 72
     1
 11
281.7387724536952
 21
168.25
 31
0.0
100
AcDbText
1001
AcDbBlockRepETag
1070
     1
1071
       44
1005
9B3
  0
LINE
  5
9B4
330
6ED
100
AcDbEntity
  8
0
100
AcDbLine
 10
279.5
 20
192.0
 30
0.0
 11
297.0
 21
192.0
 31
0.0
1001
AcDbBlockRepETag
1070
     1
1071
       45
1005
9B4
  0
LINE
  5
9B5
330
6ED
100
AcDbEntity
  8
0
100
AcDbLine
 10
279.5
 20
192.0
 30
0.0
 11
284.5
 21
192.0
 31
0.0
1001
AcDbBlockRepETag
1070
     1
1071
       46
1005
9B5
  0
TEXT
  5
9B6
330
6ED
100
AcDbEntity
  8
0
100
AcDbText
 10
280.1673438822666
 20
215.75
 30
0.0
 40
3.0
  1
B
  7
Roman
 72
     1
 11
281.7387724536952
 21
215.75
 31
0.0
100
AcDbText
1001
AcDbBlockRepETag
1070
     1
1071
       47
1005
9B6
  0
TEXT
  5
9B7
330
6ED
100
AcDbEntity
  8
0
100
AcDbText
 10
212.5714285714286
 20
288.0
 30
0.0
 40
3.0
  1
5
  7
Roman
 72
     1
 11
214.0
 21
288.0
 31
0.0
100
AcDbText
1001
AcDbBlockRepETag
1070
     1
1071
       48
1005
9B7
  0
LINE
  5
9B8
330
6ED
100
AcDbEntity
  8
0
100
AcDbLine
 10
235.8333333333333
 20
287.0
 30
0.0
 11
235.8333333333333
 21
292.0
 31
0.0
1001
AcDbBlockRepETag
1070
     1
1071
       49
1005
9B8
  0
TEXT
  5
9B9
330
6ED
100
AcDbEntity
  8
0
100
AcDbText
 10
256.1666666666667
 20
288.0
 30
0.0
 40
3.0
  1
6
  7
Roman
 72
     1
 11
257.6666666666667
 21
288.0
 31
0.0
100
AcDbText
1001
AcDbBlockRepETag
1070
     1
1071
       50
1005
9B9
  0
LINE
  5
9BA
330
6ED
100
AcDbEntity
  8
0
100
AcDbLine
 10
279.5
 20
239.5
 30
0.0
 11
284.5
 21
239.5
 31
0.0
1001
AcDbBlockRepETag
1070
     1
1071
       51
1005
9BA
  0
TEXT
  5
9BB
330
6ED
100
AcDbEntity
  8
0
100
AcDbText
 10
280.4530581679809
 20
263.25
 30
0.0
 40
3.0
  1
A
  7
Roman
 72
     1
 11
281.7387724536952
 21
263.25
 31
0.0
100
AcDbText
1001
AcDbBlockRepETag
1070
     1
1071
       52
1005
9BB
  0
LINE
  5
9BC
330
6ED
100
AcDbEntity
  8
0
100
AcDbLine
 10
287.0
 20
297.0
 30
0.0
 11
297.0
 21
297.0
 31
0.0
1001
AcDbBlockRepETag
1070
     1
1071
       53
1005
9BC
  0
LINE
  5
9BD
330
6ED
100
AcDbEntity
  8
0
100
AcDbLine
 10
297.0
 20
297.0
 30
0.0
 11
297.0
 21
287.0
 31
0.0
1001
AcDbBlockRepETag
1070
     1
1071
       54
1005
9BD
  0
LINE
  5
9BE
330
6ED
100
AcDbEntity
  8
0
100
AcDbLine
 10
163.4978723404242
 20
97.0
 30
0.0
 11
163.4978723404242
 21
97.0
 31
0.0
1001
AcDbBlockRepETag
1070
     1
1071
      161
1005
9BE
  0
LINE
  5
9BF
330
6ED
100
AcDbEntity
  8
0
100
AcDbLine
 10
162.4978723404242
 20
97.0
 30
0.0
 11
162.4978723404242
 21
133.0
 31
0.0
1001
AcDbBlockRepETag
1070
     1
1071
      162
1005
9BF
  0
LINE
  5
9C0
330
6ED
100
AcDbEntity
  8
0
100
AcDbLine
 10
279.4978723404242
 20
106.0
 30
0.0
 11
162.4978723404242
 21
106.0
 31
0.0
1001
AcDbBlockRepETag
1070
     1
1071
      166
1005
9C0
  0
LINE
  5
9C1
330
6ED
100
AcDbEntity
  8
0
100
AcDbLine
 10
213.4978723404242
 20
97.0
 30
0.0
 11
213.4978723404242
 21
106.0
 31
0.0
1001
AcDbBlockRepETag
1070
     1
1071
      167
1005
9C1
  0
LINE
  5
9C2
330
6ED
100
AcDbEntity
  8
0
100
AcDbLine
 10
202.4978723404242
 20
115.0
 30
0.0
 11
162.4978723404242
 21
115.0
 31
0.0
1001
AcDbBlockRepETag
1070
     1
1071
      168
1005
9C2
  0
LINE
  5
9C3
330
6ED
100
AcDbEntity
  8
0
100
AcDbLine
 10
279.4978723404242
 20
124.0
 30
0.0
 11
162.4978723404242
 21
124.0
 31
0.0
1001
AcDbBlockRepETag
1070
     1
1071
      169
1005
9C3
  0
LINE
  5
9C4
330
6ED
100
AcDbEntity
  8
0
100
AcDbLine
 10
279.4978723404242
 20
133.0
 30
0.0
 11
162.4978723404242
 21
133.0
 31
0.0
1001
AcDbBlockRepETag
1070
     1
1071
      170
1005
9C4
  0
MTEXT
  5
9C5
330
6ED
100
AcDbEntity
  8
0
100
AcDbMText
 10
187.997872340424
 20
101.5
 30
0.0
 40
4.0
 41
51.0
 71
     5
 72
     5
  1
富国石油株式会社
 73
     1
 44
1.0
1001
AcDbBlockRepETag
1070
     1
1071
      171
1005
9C5
1001
ACAD
1000
MTEXTBEGIN
1070
    73
1070
     1
1070
    44
1040
1.0
1070
    74
1070
     0
1000
MTEXTEND
  0
MTEXT
  5
9C6
102
{ACAD_XDICTIONARY
360
1F83
102
}
330
6ED
100
AcDbEntity
  8
0
100
AcDbMText
 10
165.4779634407957
 20
110.5
 30
0.0
 40
2.0
 41
3.96018220074299
 71
     5
 72
     5
  1
検\P図
 73
     1
 44
1.0
1001
AcDbBlockRepETag
1070
     1
1071
      172
1005
9C6
1001
ACAD
1000
MTEXTBEGIN
1070
    73
1070
     1
1070
    44
1040
1.0
1070
    74
1070
     0
1000
MTEXTEND
1000
ACAD_MTEXT_DEFINED_HEIGHT_BEGIN
1070
    46
1040
9.0
1000
ACAD_MTEXT_DEFINED_HEIGHT_END
  0
MTEXT
  5
9C7
330
6ED
100
AcDbEntity
  8
0
100
AcDbMText
 10
165.4779634407957
 20
119.5
 30
0.0
 40
2.0
 41
3.96018220074299
 71
     5
 72
     5
  1
確\P認
 73
     1
 44
1.0
1001
AcDbBlockRepETag
1070
     1
1071
      173
1005
9C7
1001
ACAD
1000
MTEXTBEGIN
1070
    73
1070
     1
1070
    44
1040
1.0
1070
    74
1070
     0
1000
MTEXTEND
1000
ACAD_MTEXT_DEFINED_HEIGHT_BEGIN
1070
    46
1040
9.0
1000
ACAD_MTEXT_DEFINED_HEIGHT_END
  0
MTEXT
  5
9C8
330
6ED
100
AcDbEntity
  8
0
100
AcDbMText
 10
165.4779634407957
 20
128.5
 30
0.0
 40
2.0
 41
3.96018220074299
 71
     5
 72
     5
  1
縮\P尺
 73
     1
 44
1.0
1001
AcDbBlockRepETag
1070
     1
1071
      174
1005
9C8
1001
ACAD
1000
MTEXTBEGIN
1070
    73
1070
     1
1070
    44
1040
1.0
1070
    74
1070
     0
1000
MTEXTEND
1000
ACAD_MTEXT_DEFINED_HEIGHT_BEGIN
1070
    46
1040
9.0
1000
ACAD_MTEXT_DEFINED_HEIGHT_END
  0
LINE
  5
9C9
330
6ED
100
AcDbEntity
  8
0
100
AcDbLine
 10
182.4978723404242
 20
106.0
 30
0.0
 11
182.4978723404242
 21
133.0
 31
0.0
1001
AcDbBlockRepETag
1070
     1
1071
      175
1005
9C9
  0
LINE
  5
9CA
330
6ED
100
AcDbEntity
  8
0
100
AcDbLine
 10
202.4978723404242
 20
106.0
 30
0.0
 11
202.4978723404242
 21
133.0
 31
0.0
1001
AcDbBlockRepETag
1070
     1
1071
      176
1005
9CA
  0
LINE
  5
9CB
330
6ED
100
AcDbEntity
  8
0
100
AcDbLine
 10
234.4978723404242
 20
124.0
 30
0.0
 11
234.4978723404242
 21
133.0
 31
0.0
1001
AcDbBlockRepETag
1070
     1
1071
      194
1005
9CB
  0
MTEXT
  5
9CC
330
6ED
100
AcDbEntity
  8
0
100
AcDbMText
 10
185.4779634407956
 20
119.5
 30
0.0
 40
2.0
 41
3.96018220074299
 71
     5
 72
     5
  1
設\P計
 73
     1
 44
1.0
1001
AcDbBlockRepETag
1070
     1
1071
      177
1005
9CC
1001
ACAD
1000
MTEXTBEGIN
1070
    73
1070
     1
1070
    44
1040
1.0
1070
    74
1070
     0
1000
MTEXTEND
1000
ACAD_MTEXT_DEFINED_HEIGHT_BEGIN
1070
    46
1040
9.0
1000
ACAD_MTEXT_DEFINED_HEIGHT_END
  0
MTEXT
  5
9CD
330
6ED
100
AcDbEntity
  8
0
100
AcDbMText
 10
185.4779634407956
 20
110.5
 30
0.0
 40
2.0
 41
3.96018220074299
 71
     5
 72
     5
  1
製\P図
 73
     1
 44
1.0
1001
AcDbBlockRepETag
1070
     1
1071
      178
1005
9CD
1001
ACAD
1000
MTEXTBEGIN
1070
    73
1070
     1
1070
    44
1040
1.0
1070
    74
1070
     0
1000
MTEXTEND
1000
ACAD_MTEXT_DEFINED_HEIGHT_BEGIN
1070
    46
1040
9.0
1000
ACAD_MTEXT_DEFINED_HEIGHT_END
  0
MTEXT
  5
9CE
330
6ED
100
AcDbEntity
  8
0
100
AcDbMText
 10
205.4779634407957
 20
128.5
 30
0.0
 40
2.0
 41
3.96018220074299
 71
     5
 72
     5
  1
材\P料
 73
     1
 44
1.0
1001
AcDbBlockRepETag
1070
     1
1071
      179
1005
9CE
1001
ACAD
1000
MTEXTBEGIN
1070
    73
1070
     1
1070
    44
1040
1.0
1070
    74
1070
     0
1000
MTEXTEND
1000
ACAD_MTEXT_DEFINED_HEIGHT_BEGIN
1070
    46
1040
9.0
1000
ACAD_MTEXT_DEFINED_HEIGHT_END
  0
LINE
  5
9CF
330
6ED
100
AcDbEntity
  8
0
  6
HIDDEN2
 48
0.5
100
AcDbLine
 10
279.4978723404242
 20
119.5
 30
0.0
 11
202.4978723404242
 21
119.5
 31
0.0
1001
AcDbBlockRepETag
1070
     1
1071
      180
1005
9CF
  0
POINT
  5
9D0
330
6ED
100
AcDbEntity
  8
0
100
AcDbPoint
 10
188.2478723404242
 20
124.0
 30
0.0
1001
AcDbBlockRepETag
1070
     1
1071
      189
1005
9D0
  0
POINT
  5
9D1
330
6ED
100
AcDbEntity
  8
0
100
AcDbPoint
 10
188.2478723404242
 20
115.0
 30
0.0
1001
AcDbBlockRepETag
1070
     1
1071
      190
1005
9D1
  0
ENDBLK
  5
74C
330
6ED
100
AcDbEntity
  8
0
100
AcDbBlockEnd
  0
BLOCK
  5
C17
330
C16
100
AcDbEntity
  8
0
100
AcDbBlockBegin
  2
*D6
 70
     1
 10
0.0
 20
0.0
 30
0.0
  3
*D6
  1

  0
LINE
  5
C18
330
C16
100
AcDbEntity
  8
Dims
 62
     0
370
    -2
100
AcDbLine
 10
234.4902587084715
 20
15.86419662820998
 30
0.0
 11
246.8286657010501
 21
15.86419662820998
 31
0.0
  0
LINE
  5
C19
330
C16
100
AcDbEntity
  8
Dims
 62
     0
370
    -2
100
AcDbLine
 10
234.4902587084715
 20
13.86419662820998
 30
0.0
 11
246.8286657010501
 21
13.86419662820997
 31
0.0
  0
LINE
  5
C1A
330
C16
100
AcDbEntity
  8
Dims
 62
     0
370
    -2
100
AcDbLine
 10
245.8286657010501
 20
11.36419662820997
 30
0.0
 11
245.8286657010501
 21
8.864196628209978
 31
0.0
  0
LINE
  5
C1B
330
C16
100
AcDbEntity
  8
Dims
 62
     0
370
    -2
100
AcDbLine
 10
245.8286657010501
 20
18.36419662820998
 30
0.0
 11
245.8286657010501
 21
28.53607162820998
 31
0.0
  0
LINE
  5
C1C
330
C16
100
AcDbEntity
  8
Dims
 62
     0
370
    -2
100
AcDbLine
 10
245.8286657010501
 20
13.86419662820997
 30
0.0
 11
245.8286657010501
 21
15.86419662820998
 31
0.0
  0
SOLID
  5
C1D
330
C16
100
AcDbEntity
  8
Dims
 62
     0
100
AcDbTrace
 10
245.4119990343834
 20
11.36419662820997
 30
0.0
 11
246.2453323677168
 21
11.36419662820997
 31
0.0
 12
245.8286657010501
 22
13.86419662820997
 32
0.0
 13
245.8286657010501
 23
13.86419662820997
 33
0.0
  0
SOLID
  5
C1E
330
C16
100
AcDbEntity
  8
Dims
 62
     0
100
AcDbTrace
 10
245.4119990343834
 20
18.36419662820998
 30
0.0
 11
246.2453323677168
 21
18.36419662820998
 31
0.0
 12
245.8286657010501
 22
15.86419662820998
 32
0.0
 13
245.8286657010501
 23
15.86419662820998
 33
0.0
  0
MTEXT
  5
C1F
330
C16
100
AcDbEntity
  8
Dims
 62
     0
100
AcDbMText
 10
241.3286657010501
 20
24.94232162821002
 30
0.0
 40
5.0
 41
0.0
 71
     5
 72
     1
  1
\A1;2
 11
0.0000000000000001
 21
1.0
 31
0.0
 73
     1
 44
1.0
1001
ACAD
1000
MTEXTBEGIN
1070
    73
1070
     1
1070
    44
1040
1.0
1070
    74
1070
     0
1000
MTEXTEND
  0
POINT
  5
C20
330
C16
100
AcDbEntity
  8
Defpoints
 62
     0
100
AcDbPoint
 10
233.9902587084715
 20
15.86419662820998
 30
0.0
  0
POINT
  5
C21
330
C16
100
AcDbEntity
  8
Defpoints
 62
     0
100
AcDbPoint
 10
233.9902587084715
 20
13.86419662820998
 30
0.0
  0
POINT
  5
C22
330
C16
100
AcDbEntity
  8
Defpoints
 62
     0
100
AcDbPoint
 10
245.8286657010501
 20
13.86419662820997
 30
0.0
  0
ENDBLK
  5
C23
330
C16
100
AcDbEntity
  8
0
100
AcDbBlockEnd
  0
BLOCK
  5
C25
330
C24
100
AcDbEntity
  8
0
100
AcDbBlockBegin
  2
*D7
 70
     1
 10
0.0
 20
0.0
 30
0.0
  3
*D7
  1

  0
LINE
  5
C26
330
C24
100
AcDbEntity
  8
Dims
 62
     0
370
    -2
100
AcDbLine
 10
243.3444189541624
 20
81.88948826712945
 30
0.0
 11
231.607213266851
 21
74.60778799152445
 31
0.0
  0
LINE
  5
C27
330
C24
100
AcDbEntity
  8
Dims
 62
     0
370
    -2
100
AcDbLine
 10
176.3733041500918
 20
40.340963165148
 30
0.0
 11
174.2489230302165
 21
39.02300836413353
 31
0.0
  0
MTEXT
  5
C28
330
C24
100
AcDbEntity
  8
Dims
 62
     0
100
AcDbMText
 10
236.1656880286183
 20
82.73150154560983
 30
0.0
 40
5.0
 41
0.0
 71
     5
 72
     1
  1
\A1;50
 11
0.8497524479501434
 21
0.5271819204057922
 31
0.0
 73
     1
 44
1.0
1001
ACAD
1000
MTEXTBEGIN
1070
    73
1070
     1
1070
    44
1040
1.0
1070
    74
1070
     0
1000
MTEXTEND
  0
LINE
  5
C29
330
C24
100
AcDbEntity
  8
Dims
 62
     0
370
    -2
100
AcDbLine
 10
178.4976852699672
 20
41.65891796616249
 30
0.0
 11
229.4828321469757
 21
73.28983319050997
 31
0.0
  0
SOLID
  5
C2A
330
C24
100
AcDbEntity
  8
Dims
 62
     0
100
AcDbTrace
 10
176.1536450165894
 20
40.69502668512721
 30
0.0
 11
176.5929632835941
 21
39.98689964516879
 31
0.0
 12
178.4976852699672
 22
41.65891796616249
 32
0.0
 13
178.4976852699672
 23
41.65891796616249
 33
0.0
  0
SOLID
  5
C2B
330
C24
100
AcDbEntity
  8
Dims
 62
     0
100
AcDbTrace
 10
231.3875541333486
 20
74.96185151150368
 30
0.0
 11
231.8268724003534
 21
74.25372447154519
 31
0.0
 12
229.4828321469757
 22
73.28983319050997
 32
0.0
 13
229.4828321469757
 23
73.28983319050997
 33
0.0
  0
POINT
  5
C2C
330
C24
100
AcDbEntity
  8
Defpoints
 62
     0
100
AcDbPoint
 10
229.4828321469757
 20
73.28983319050997
 30
0.0
  0
POINT
  5
C2D
330
C24
100
AcDbEntity
  8
Defpoints
 62
     0
100
AcDbPoint
 10
178.4976852699672
 20
41.65891796616249
 30
0.0
  0
ENDBLK
  5
C2E
330
C24
100
AcDbEntity
  8
0
100
AcDbBlockEnd
  0
BLOCK
  5
C30
330
C2F
100
AcDbEntity
  8
0
100
AcDbBlockBegin
  2
*D8
 70
     1
 10
0.0
 20
0.0
 30
0.0
  3
*D8
  1

  0
LINE
  5
C31
330
C2F
100
AcDbEntity
  8
Dims
 62
     0
370
    -2
100
AcDbLine
 10
229.4902587084715
 20
-3.635803371790018
 30
0.0
 11
246.8783278499604
 21
-3.635803371790022
 31
0.0
  0
LINE
  5
C32
330
C2F
100
AcDbEntity
  8
Dims
 62
     0
370
    -2
100
AcDbLine
 10
234.4902587084715
 20
13.86419662820998
 30
0.0
 11
246.8783278499604
 21
13.86419662820997
 31
0.0
  0
LINE
  5
C33
330
C2F
100
AcDbEntity
  8
Dims
 62
     0
370
    -2
100
AcDbLine
 10
245.8783278499605
 20
-1.135803371790021
 30
0.0
 11
245.8783278499605
 21
11.36419662820997
 31
0.0
  0
SOLID
  5
C34
330
C2F
100
AcDbEntity
  8
Dims
 62
     0
100
AcDbTrace
 10
245.4616611832938
 20
-1.135803371790021
 30
0.0
 11
246.2949945166271
 21
-1.135803371790021
 31
0.0
 12
245.8783278499605
 22
-3.635803371790022
 32
0.0
 13
245.8783278499605
 23
-3.635803371790022
 33
0.0
  0
SOLID
  5
C35
330
C2F
100
AcDbEntity
  8
Dims
 62
     0
100
AcDbTrace
 10
245.4616611832938
 20
11.36419662820997
 30
0.0
 11
246.2949945166271
 21
11.36419662820997
 31
0.0
 12
245.8783278499605
 22
13.86419662820997
 32
0.0
 13
245.8783278499605
 23
13.86419662820997
 33
0.0
  0
MTEXT
  5
C36
330
C2F
100
AcDbEntity
  8
Dims
 62
     0
100
AcDbMText
 10
241.3783278499604
 20
5.114196628210016
 30
0.0
 40
5.0
 41
0.0
 71
     5
 72
     1
  1
\A1;18
 11
0.0000000000000001
 21
1.0
 31
0.0
 73
     1
 44
1.0
1001
ACAD
1000
MTEXTBEGIN
1070
    73
1070
     1
1070
    44
1040
1.0
1070
    74
1070
     0
1000
MTEXTEND
  0
POINT
  5
C37
330
C2F
100
AcDbEntity
  8
Defpoints
 62
     0
100
AcDbPoint
 10
228.9902587084715
 20
-3.635803371790018
 30
0.0
  0
POINT
  5
C38
330
C2F
100
AcDbEntity
  8
Defpoints
 62
     0
100
AcDbPoint
 10
233.9902587084715
 20
13.86419662820998
 30
0.0
  0
POINT
  5
C39
330
C2F
100
AcDbEntity
  8
Defpoints
 62
     0
100
AcDbPoint
 10
245.8783278499605
 20
13.86419662820997
 30
0.0
  0
ENDBLK
  5
C3A
330
C2F
100
AcDbEntity
  8
0
100
AcDbBlockEnd
  0
BLOCK
  5
C3C
330
C3B
100
AcDbEntity
  8
0
100
AcDbBlockBegin
  2
*D9
 70
     1
 10
0.0
 20
0.0
 30
0.0
  3
*D9
  1

  0
LINE
  5
C3D
330
C3B
100
AcDbEntity
  8
Dims
 62
     0
370
    -2
100
AcDbLine
 10
178.9902587084715
 20
-4.135803371790018
 30
0.0
 11
178.9902587084715
 21
-23.19903708728373
 31
0.0
  0
LINE
  5
C3E
330
C3B
100
AcDbEntity
  8
Dims
 62
     0
370
    -2
100
AcDbLine
 10
228.9902587084715
 20
-4.135803371790018
 30
0.0
 11
228.9902587084715
 21
-23.19903708728373
 31
0.0
  0
LINE
  5
C3F
330
C3B
100
AcDbEntity
  8
Dims
 62
     0
370
    -2
100
AcDbLine
 10
181.4902587084715
 20
-22.19903708728373
 30
0.0
 11
226.4902587084715
 21
-22.19903708728373
 31
0.0
  0
SOLID
  5
C40
330
C3B
100
AcDbEntity
  8
Dims
 62
     0
100
AcDbTrace
 10
181.4902587084715
 20
-21.78237042061706
 30
0.0
 11
181.4902587084715
 21
-22.6157037539504
 31
0.0
 12
178.9902587084715
 22
-22.19903708728373
 32
0.0
 13
178.9902587084715
 23
-22.19903708728373
 33
0.0
  0
SOLID
  5
C41
330
C3B
100
AcDbEntity
  8
Dims
 62
     0
100
AcDbTrace
 10
226.4902587084715
 20
-21.78237042061706
 30
0.0
 11
226.4902587084715
 21
-22.6157037539504
 31
0.0
 12
228.9902587084715
 22
-22.19903708728373
 32
0.0
 13
228.9902587084715
 23
-22.19903708728373
 33
0.0
  0
MTEXT
  5
C42
330
C3B
100
AcDbEntity
  8
Dims
 62
     0
100
AcDbMText
 10
203.9902587084715
 20
-17.69903708728373
 30
0.0
 40
5.0
 41
0.0
 71
     5
 72
     1
  1
\A1;40
 73
     1
 44
1.0
1001
ACAD
1000
MTEXTBEGIN
1070
    73
1070
     1
1070
    44
1040
1.0
1070
    74
1070
     0
1000
MTEXTEND
  0
POINT
  5
C43
330
C3B
100
AcDbEntity
  8
Defpoints
 62
     0
100
AcDbPoint
 10
178.9902587084715
 20
-3.635803371790018
 30
0.0
  0
POINT
  5
C44
330
C3B
100
AcDbEntity
  8
Defpoints
 62
     0
100
AcDbPoint
 10
228.9902587084715
 20
-3.635803371790018
 30
0.0
  0
POINT
  5
C45
330
C3B
100
AcDbEntity
  8
Defpoints
 62
     0
100
AcDbPoint
 10
228.9902587084715
 20
-22.19903708728373
 30
0.0
  0
ENDBLK
  5
C46
330
C3B
100
AcDbEntity
  8
0
100
AcDbBlockEnd
  0
BLOCK
  5
F16
330
F0A
100
AcDbEntity
  8
0
100
AcDbBlockBegin
  2
*D10
 70
     1
 10
0.0
 20
0.0
 30
0.0
  3
*D10
  1

  0
LINE
  5
10E3
330
F0A
100
AcDbEntity
  8
Dims
  6
HIDDEN2
 62
     0
370
    -2
100
AcDbLine
 10
-17.9990628697104
 20
1683.224592409803
 30
0.0
 11
-5.252835897566681
 21
1683.224592409803
 31
0.0
  0
LINE
  5
10E4
330
F0A
100
AcDbEntity
  8
Dims
  6
HIDDEN2
 62
     0
370
    -2
100
AcDbLine
 10
-17.9990628697104
 20
1680.024592409802
 30
0.0
 11
-5.252835897566684
 21
1680.024592409802
 31
0.0
  0
LINE
  5
10E5
330
F0A
100
AcDbEntity
  8
Dims
  6
HIDDEN2
 62
     0
370
    -2
100
AcDbLine
 10
-6.252835897566686
 20
1672.024592409802
 30
0.0
 11
-6.252835897566687
 21
1664.024592409802
 31
0.0
  0
LINE
  5
10E6
330
F0A
100
AcDbEntity
  8
Dims
  6
HIDDEN2
 62
     0
370
    -2
100
AcDbLine
 10
-6.252835897566682
 20
1691.224592409803
 30
0.0
 11
-6.252835897566677
 21
1705.392105100158
 31
0.0
  0
LINE
  5
10E7
330
F0A
100
AcDbEntity
  8
Dims
  6
HIDDEN2
 62
     0
370
    -2
100
AcDbLine
 10
-6.252835897566682
 20
1680.024592409802
 30
0.0
 11
-6.252835897566682
 21
1683.224592409803
 31
0.0
  0
INSERT
  5
10E8
330
F0A
100
AcDbEntity
  8
Dims
  6
HIDDEN2
 62
     0
370
    -2
100
AcDbBlockReference
  2
_Open30
 10
-6.252835897566682
 20
1680.024592409802
 30
0.0
 41
8.0
 42
8.0
 43
8.0
 50
90.0
  0
INSERT
  5
10E9
330
F0A
100
AcDbEntity
  8
Dims
  6
HIDDEN2
 62
     0
370
    -2
100
AcDbBlockReference
  2
_Open30
 10
-6.252835897566682
 20
1683.224592409803
 30
0.0
 41
8.0
 42
8.0
 43
8.0
 50
270.0
  0
MTEXT
  5
10EA
330
F0A
100
AcDbEntity
  8
Dims
  6
HIDDEN2
 62
     0
100
AcDbMText
 10
0.7471641034992091
 20
1705.392105100158
 30
0.0
 40
8.0
 41
0.0
 71
     5
 72
     1
  1
\A1;Ｄ
 11
0.9999999998476914
 21
0.0000174532925191
 31
0.0
 73
     1
 44
1.0
1001
ACAD
1000
MTEXTBEGIN
1070
    73
1070
     1
1070
    44
1040
1.0
1070
    74
1070
     0
1000
MTEXTEND
  0
POINT
  5
10EB
330
F0A
100
AcDbEntity
  8
Defpoints
  6
HIDDEN2
 62
     0
100
AcDbPoint
 10
-18.9990628697104
 20
1683.224592409803
 30
0.0
  0
POINT
  5
10EC
330
F0A
100
AcDbEntity
  8
Defpoints
  6
HIDDEN2
 62
     0
100
AcDbPoint
 10
-18.9990628697104
 20
1680.024592409802
 30
0.0
  0
POINT
  5
10ED
330
F0A
100
AcDbEntity
  8
Defpoints
  6
HIDDEN2
 62
     0
100
AcDbPoint
 10
-6.252835897566682
 20
1680.024592409802
 30
0.0
  0
ENDBLK
  5
F17
330
F0A
100
AcDbEntity
  8
0
100
AcDbBlockEnd
  0
BLOCK
  5
F21
330
F18
100
AcDbEntity
  8
0
100
AcDbBlockBegin
  2
*D11
 70
     1
 10
0.0
 20
0.0
 30
0.0
  3
*D11
  1

  0
LINE
  5
105D
330
F18
100
AcDbEntity
  8
Dims
  6
HIDDEN2
 62
     0
370
    -2
100
AcDbLine
 10
-16.51606679744179
 20
1797.667307933816
 30
0.0
 11
-24.5160667974418
 21
1797.667307933816
 31
0.0
  0
LINE
  5
105E
330
F18
100
AcDbEntity
  8
Dims
  6
HIDDEN2
 62
     0
370
    -2
100
AcDbLine
 10
-24.5160667974418
 20
1797.667307933816
 30
0.0
 11
-29.82644130647543
 21
1791.68400428334
 31
0.0
  0
LINE
  5
105F
330
F18
100
AcDbEntity
  8
Dims
  6
HIDDEN2
 62
     0
370
    -2
100
AcDbLine
 10
-104.1716844329457
 20
1707.917753176669
 30
0.0
 11
-109.4820589419794
 21
1701.934449526192
 31
0.0
  0
MTEXT
  5
1060
330
F18
100
AcDbEntity
  8
Dims
  6
HIDDEN2
 62
     0
100
AcDbMText
 10
-10.24703126444683
 20
1797.667307933817
 30
0.0
 40
8.0
 41
0.0
 71
     5
 72
     1
  1
\A1;Ｂ
 11
0.9999999998476914
 21
0.0000174532925191
 31
0.0
 73
     1
 44
1.0
1001
ACAD
1000
MTEXTBEGIN
1070
    73
1070
     1
1070
    44
1040
1.0
1070
    74
1070
     0
1000
MTEXTEND
  0
LINE
  5
1061
330
F18
100
AcDbEntity
  8
Dims
  6
HIDDEN2
 62
     0
370
    -2
100
AcDbLine
 10
-98.86130992391215
 20
1713.901056827145
 30
0.0
 11
-35.13681581550895
 21
1785.700700632864
 31
0.0
  0
INSERT
  5
1062
330
F18
100
AcDbEntity
  8
Dims
  6
HIDDEN2
 62
     0
370
    -2
100
AcDbBlockReference
  2
_Open30
 10
-98.86130992391215
 20
1713.901056827145
 30
0.0
 41
8.0
 42
8.0
 43
8.0
 50
48.40991370343965
  0
INSERT
  5
1063
330
F18
100
AcDbEntity
  8
Dims
  6
HIDDEN2
 62
     0
370
    -2
100
AcDbBlockReference
  2
_Open30
 10
-35.13681581550895
 20
1785.700700632864
 30
0.0
 41
8.0
 42
8.0
 43
8.0
 50
228.4099137034397
  0
POINT
  5
1064
330
F18
100
AcDbEntity
  8
Defpoints
  6
HIDDEN2
 62
     0
100
AcDbPoint
 10
-35.13681581550895
 20
1785.700700632864
 30
0.0
  0
POINT
  5
1065
330
F18
100
AcDbEntity
  8
Defpoints
  6
HIDDEN2
 62
     0
100
AcDbPoint
 10
-98.86130992391215
 20
1713.901056827145
 30
0.0
  0
ENDBLK
  5
F22
330
F18
100
AcDbEntity
  8
0
100
AcDbBlockEnd
  0
BLOCK
  5
F2D
330
F23
100
AcDbEntity
  8
0
100
AcDbBlockBegin
  2
*D12
 70
     1
 10
0.0
 20
0.0
 30
0.0
  3
*D12
  1

  0
LINE
  5
1104
330
F23
100
AcDbEntity
  8
Dims
  6
HIDDEN2
 62
     0
370
    -2
100
AcDbLine
 10
-25.9990628697104
 20
1652.024592409803
 30
0.0
 11
4.368486273183173
 21
1652.024592409803
 31
0.0
  0
LINE
  5
1105
330
F23
100
AcDbEntity
  8
Dims
  6
HIDDEN2
 62
     0
370
    -2
100
AcDbLine
 10
-17.9990628697104
 20
1680.024592409802
 30
0.0
 11
4.368486273183179
 21
1680.024592409802
 31
0.0
  0
LINE
  5
1106
330
F23
100
AcDbEntity
  8
Dims
  6
HIDDEN2
 62
     0
370
    -2
100
AcDbLine
 10
3.368486273183171
 20
1644.024592409802
 30
0.0
 11
3.36848627318317
 21
1636.024592409803
 31
0.0
  0
LINE
  5
1107
330
F23
100
AcDbEntity
  8
Dims
  6
HIDDEN2
 62
     0
370
    -2
100
AcDbLine
 10
3.368486273183181
 20
1688.024592409802
 30
0.0
 11
3.368486273183183
 21
1696.024592409802
 31
0.0
  0
MTEXT
  5
1108
330
F23
100
AcDbEntity
  8
Dims
  6
HIDDEN2
 62
     0
100
AcDbMText
 10
8.229784191040153
 20
1666.61713014533
 30
0.0
 40
8.0
 41
0.0
 71
     5
 72
     1
  1
\A1;Ｃ
 11
0.9999999998476914
 21
0.0000174532925191
 31
0.0
 73
     1
 44
1.0
1001
ACAD
1000
MTEXTBEGIN
1070
    73
1070
     1
1070
    44
1040
1.0
1070
    74
1070
     0
1000
MTEXTEND
  0
LINE
  5
1109
330
F23
100
AcDbEntity
  8
Dims
  6
HIDDEN2
 62
     0
370
    -2
100
AcDbLine
 10
3.368486273183173
 20
1652.024592409803
 30
0.0
 11
3.368486273183179
 21
1680.024592409802
 31
0.0
  0
INSERT
  5
110A
330
F23
100
AcDbEntity
  8
Dims
  6
HIDDEN2
 62
     0
370
    -2
100
AcDbBlockReference
  2
_Open30
 10
3.368486273183173
 20
1652.024592409803
 30
0.0
 41
8.0
 42
8.0
 43
8.0
 50
90.0
  0
INSERT
  5
110B
330
F23
100
AcDbEntity
  8
Dims
  6
HIDDEN2
 62
     0
370
    -2
100
AcDbBlockReference
  2
_Open30
 10
3.368486273183179
 20
1680.024592409802
 30
0.0
 41
8.0
 42
8.0
 43
8.0
 50
270.0
  0
POINT
  5
110C
330
F23
100
AcDbEntity
  8
Defpoints
  6
HIDDEN2
 62
     0
100
AcDbPoint
 10
-26.9990628697104
 20
1652.024592409803
 30
0.0
  0
POINT
  5
110D
330
F23
100
AcDbEntity
  8
Defpoints
  6
HIDDEN2
 62
     0
100
AcDbPoint
 10
-18.9990628697104
 20
1680.024592409802
 30
0.0
  0
POINT
  5
110E
330
F23
100
AcDbEntity
  8
Defpoints
  6
HIDDEN2
 62
     0
100
AcDbPoint
 10
3.368486273183179
 20
1680.024592409802
 30
0.0
  0
ENDBLK
  5
F2E
330
F23
100
AcDbEntity
  8
0
100
AcDbBlockEnd
  0
BLOCK
  5
F39
330
F2F
100
AcDbEntity
  8
0
100
AcDbBlockBegin
  2
*D13
 70
     1
 10
0.0
 20
0.0
 30
0.0
  3
*D13
  1

  0
LINE
  5
1054
330
F2F
100
AcDbEntity
  8
Dims
  6
HIDDEN2
 62
     0
370
    -2
100
AcDbLine
 10
-106.9990628697104
 20
1651.024592409802
 30
0.0
 11
-106.9990628697104
 21
1621.323418465012
 31
0.0
  0
LINE
  5
1055
330
F2F
100
AcDbEntity
  8
Dims
  6
HIDDEN2
 62
     0
370
    -2
100
AcDbLine
 10
-26.9990628697104
 20
1651.024592409802
 30
0.0
 11
-26.99906286971041
 21
1621.323418465012
 31
0.0
  0
LINE
  5
1056
330
F2F
100
AcDbEntity
  8
Dims
  6
HIDDEN2
 62
     0
370
    -2
100
AcDbLine
 10
-98.99906286971045
 20
1622.323418465013
 30
0.0
 11
-34.9990628697104
 21
1622.323418465013
 31
0.0
  0
INSERT
  5
1057
330
F2F
100
AcDbEntity
  8
Dims
  6
HIDDEN2
 62
     0
370
    -2
100
AcDbBlockReference
  2
_Open30
 10
-106.9990628697104
 20
1622.323418465013
 30
0.0
 41
8.0
 42
8.0
 43
8.0
 50
180.0
  0
INSERT
  5
1058
330
F2F
100
AcDbEntity
  8
Dims
  6
HIDDEN2
 62
     0
370
    -2
100
AcDbBlockReference
  2
_Open30
 10
-26.99906286971041
 20
1622.323418465013
 30
0.0
 41
8.0
 42
8.0
 43
8.0
  0
MTEXT
  5
1059
330
F2F
100
AcDbEntity
  8
Dims
  6
HIDDEN2
 62
     0
100
AcDbMText
 10
-66.99906286971042
 20
1629.323418465013
 30
0.0
 40
8.0
 41
0.0
 71
     5
 72
     1
  1
\A1;Ａ
 73
     1
 44
1.0
1001
ACAD
1000
MTEXTBEGIN
1070
    73
1070
     1
1070
    44
1040
1.0
1070
    74
1070
     0
1000
MTEXTEND
  0
POINT
  5
105A
330
F2F
100
AcDbEntity
  8
Defpoints
  6
HIDDEN2
 62
     0
100
AcDbPoint
 10
-106.9990628697104
 20
1652.024592409803
 30
0.0
  0
POINT
  5
105B
330
F2F
100
AcDbEntity
  8
Defpoints
  6
HIDDEN2
 62
     0
100
AcDbPoint
 10
-26.9990628697104
 20
1652.024592409803
 30
0.0
  0
POINT
  5
105C
330
F2F
100
AcDbEntity
  8
Defpoints
  6
HIDDEN2
 62
     0
100
AcDbPoint
 10
-26.99906286971041
 20
1622.323418465013
 30
0.0
  0
ENDBLK
  5
F3A
330
F2F
100
AcDbEntity
  8
0
100
AcDbBlockEnd
  0
BLOCK
  5
109F
330
109D
100
AcDbEntity
  8
0
100
AcDbBlockBegin
  2
_DotSmall
 70
     0
 10
0.0
 20
0.0
 30
0.0
  3
_DotSmall
  1

  0
LWPOLYLINE
  5
109E
330
109D
100
AcDbEntity
  8
0
  6
ByBlock
 62
     0
100
AcDbPolyline
 90
        2
 70
     1
 43
0.5
 10
-0.0625
 20
0.0
 42
1.0
 10
0.0625
 20
0.0
 42
1.0
  0
ENDBLK
  5
10A0
330
109D
100
AcDbEntity
  8
0
100
AcDbBlockEnd
  0
BLOCK
  5
1158
330
1157
100
AcDbEntity
  8
0
100
AcDbBlockBegin
  2
*D15
 70
     1
 10
0.0
 20
0.0
 30
0.0
  3
*D15
  1

  0
LINE
  5
1159
330
1157
100
AcDbEntity
  8
Dims
 62
     0
370
    -2
100
AcDbLine
 10
263.7449730192475
 20
129.4911222994873
 30
0.0
 11
285.5614108803739
 21
129.4911222994873
 31
0.0
  0
LINE
  5
115A
330
1157
100
AcDbEntity
  8
Dims
 62
     0
370
    -2
100
AcDbLine
 10
263.7449730192476
 20
94.49112229948742
 30
0.0
 11
285.5614108803738
 21
94.49112229948742
 31
0.0
  0
LINE
  5
115B
330
1157
100
AcDbEntity
  8
Dims
 62
     0
370
    -2
100
AcDbLine
 10
284.5614108803738
 20
126.9911222994873
 30
0.0
 11
284.5614108803738
 21
96.99112229948742
 31
0.0
  0
SOLID
  5
115C
330
1157
100
AcDbEntity
  8
Dims
 62
     0
100
AcDbTrace
 10
284.1447442137071
 20
126.9911222994873
 30
0.0
 11
284.9780775470405
 21
126.9911222994873
 31
0.0
 12
284.5614108803739
 22
129.4911222994873
 32
0.0
 13
284.5614108803739
 23
129.4911222994873
 33
0.0
  0
SOLID
  5
115D
330
1157
100
AcDbEntity
  8
Dims
 62
     0
100
AcDbTrace
 10
284.1447442137071
 20
96.99112229948742
 30
0.0
 11
284.9780775470405
 21
96.99112229948742
 31
0.0
 12
284.5614108803738
 22
94.49112229948742
 32
0.0
 13
284.5614108803738
 23
94.49112229948742
 33
0.0
  0
MTEXT
  5
115E
330
1157
100
AcDbEntity
  8
Dims
 62
     0
100
AcDbMText
 10
282.0614108803738
 20
111.9911222994874
 30
0.0
 40
5.0
 41
0.0
 71
     5
 72
     1
  1
\A1;{\fﾂlﾂr ﾂoﾃSﾃVﾃbﾃN|b0|i0|c128|p50;C}
 11
0.0000000000000001
 21
1.0
 31
0.0
 73
     1
 44
1.0
1001
ACAD
1000
MTEXTBEGIN
1070
    73
1070
     1
1070
    44
1040
1.0
1070
    74
1070
     0
1000
MTEXTEND
  0
POINT
  5
115F
330
1157
100
AcDbEntity
  8
Defpoints
 62
     0
100
AcDbPoint
 10
263.2449730192476
 20
129.4911222994873
 30
0.0
  0
POINT
  5
1160
330
1157
100
AcDbEntity
  8
Defpoints
 62
     0
100
AcDbPoint
 10
263.2449730192476
 20
94.49112229948742
 30
0.0
  0
POINT
  5
1161
330
1157
100
AcDbEntity
  8
Defpoints
 62
     0
100
AcDbPoint
 10
284.5614108803738
 20
94.49112229948742
 30
0.0
  0
ENDBLK
  5
1162
330
1157
100
AcDbEntity
  8
0
100
AcDbBlockEnd
  0
BLOCK
  5
1164
330
1163
100
AcDbEntity
  8
0
100
AcDbBlockBegin
  2
*D16
 70
     1
 10
0.0
 20
0.0
 30
0.0
  3
*D16
  1

  0
LINE
  5
1165
330
1163
100
AcDbEntity
  8
Dims
 62
     0
370
    -2
100
AcDbLine
 10
247.7097892607595
 20
92.9911222994874
 30
0.0
 11
247.7097892607595
 21
69.51582326028983
 31
0.0
  0
LINE
  5
1166
330
1163
100
AcDbEntity
  8
Dims
 62
     0
370
    -2
100
AcDbLine
 10
262.7097892607596
 20
92.9911222994874
 30
0.0
 11
262.7097892607596
 21
69.51582326028983
 31
0.0
  0
LINE
  5
1167
330
1163
100
AcDbEntity
  8
Dims
 62
     0
370
    -2
100
AcDbLine
 10
250.2097892607595
 20
70.51582326028984
 30
0.0
 11
260.2097892607596
 21
70.51582326028984
 31
0.0
  0
SOLID
  5
1168
330
1163
100
AcDbEntity
  8
Dims
 62
     0
100
AcDbTrace
 10
250.2097892607595
 20
70.93248992695652
 30
0.0
 11
250.2097892607595
 21
70.09915659362317
 31
0.0
 12
247.7097892607595
 22
70.51582326028984
 32
0.0
 13
247.7097892607595
 23
70.51582326028984
 33
0.0
  0
SOLID
  5
1169
330
1163
100
AcDbEntity
  8
Dims
 62
     0
100
AcDbTrace
 10
260.2097892607596
 20
70.93248992695652
 30
0.0
 11
260.2097892607596
 21
70.09915659362317
 31
0.0
 12
262.7097892607596
 22
70.51582326028984
 32
0.0
 13
262.7097892607596
 23
70.51582326028984
 33
0.0
  0
MTEXT
  5
116A
330
1163
100
AcDbEntity
  8
Dims
 62
     0
100
AcDbMText
 10
254.791574534334
 20
73.01582326028984
 30
0.0
 40
5.0
 41
0.0
 71
     5
 72
     1
  1
\A1;{\fﾂlﾂr ﾂoﾃSﾃVﾃbﾃN|b0|i0|c128|p50;E}
 73
     1
 44
1.0
1001
ACAD
1000
MTEXTBEGIN
1070
    73
1070
     1
1070
    44
1040
1.0
1070
    74
1070
     0
1000
MTEXTEND
  0
POINT
  5
116B
330
1163
100
AcDbEntity
  8
Defpoints
 62
     0
100
AcDbPoint
 10
247.7097892607595
 20
93.49112229948742
 30
0.0
  0
POINT
  5
116C
330
1163
100
AcDbEntity
  8
Defpoints
 62
     0
100
AcDbPoint
 10
262.7097892607596
 20
93.49112229948742
 30
0.0
  0
POINT
  5
116D
330
1163
100
AcDbEntity
  8
Defpoints
 62
     0
100
AcDbPoint
 10
262.7097892607596
 20
70.51582326028984
 30
0.0
  0
ENDBLK
  5
116E
330
1163
100
AcDbEntity
  8
0
100
AcDbBlockEnd
  0
BLOCK
  5
1170
330
116F
100
AcDbEntity
  8
0
100
AcDbBlockBegin
  2
*D17
 70
     1
 10
0.0
 20
0.0
 30
0.0
  3
*D17
  1

  0
LINE
  5
1171
330
116F
100
AcDbEntity
  8
Dims
 62
     0
370
    -2
100
AcDbLine
 10
247.2097892607595
 20
130.4911222994875
 30
0.0
 11
232.0610074439543
 21
130.4911222994875
 31
0.0
  0
LINE
  5
1172
330
116F
100
AcDbEntity
  8
Dims
 62
     0
370
    -2
100
AcDbLine
 10
247.2097892607595
 20
93.49112229948742
 30
0.0
 11
232.0610074439543
 21
93.49112229948742
 31
0.0
  0
LINE
  5
1173
330
116F
100
AcDbEntity
  8
Dims
 62
     0
370
    -2
100
AcDbLine
 10
233.0610074439543
 20
127.9911222994875
 30
0.0
 11
233.0610074439543
 21
95.99112229948742
 31
0.0
  0
SOLID
  5
1174
330
116F
100
AcDbEntity
  8
Dims
 62
     0
100
AcDbTrace
 10
232.6443407772876
 20
127.9911222994875
 30
0.0
 11
233.4776741106209
 21
127.9911222994875
 31
0.0
 12
233.0610074439543
 22
130.4911222994875
 32
0.0
 13
233.0610074439543
 23
130.4911222994875
 33
0.0
  0
SOLID
  5
1175
330
116F
100
AcDbEntity
  8
Dims
 62
     0
100
AcDbTrace
 10
232.6443407772876
 20
95.99112229948742
 30
0.0
 11
233.4776741106209
 21
95.99112229948742
 31
0.0
 12
233.0610074439543
 22
93.49112229948742
 32
0.0
 13
233.0610074439543
 23
93.49112229948742
 33
0.0
  0
MTEXT
  5
1176
330
116F
100
AcDbEntity
  8
Dims
 62
     0
100
AcDbMText
 10
230.5610074439543
 20
111.9911222994875
 30
0.0
 40
5.0
 41
0.0
 71
     5
 72
     1
  1
\A1;{\fﾂlﾂr ﾂoﾃSﾃVﾃbﾃN|b0|i0|c128|p50;A}
 11
0.0000000000000001
 21
1.0
 31
0.0
 73
     1
 44
1.0
1001
ACAD
1000
MTEXTBEGIN
1070
    73
1070
     1
1070
    44
1040
1.0
1070
    74
1070
     0
1000
MTEXTEND
  0
POINT
  5
1177
330
116F
100
AcDbEntity
  8
Defpoints
 62
     0
100
AcDbPoint
 10
247.7097892607595
 20
130.4911222994875
 30
0.0
  0
POINT
  5
1178
330
116F
100
AcDbEntity
  8
Defpoints
 62
     0
100
AcDbPoint
 10
247.7097892607595
 20
93.49112229948742
 30
0.0
  0
POINT
  5
1179
330
116F
100
AcDbEntity
  8
Defpoints
 62
     0
100
AcDbPoint
 10
233.0610074439543
 20
93.49112229948742
 30
0.0
  0
ENDBLK
  5
117A
330
116F
100
AcDbEntity
  8
0
100
AcDbBlockEnd
  0
BLOCK
  5
117C
330
117B
100
AcDbEntity
  8
0
100
AcDbBlockBegin
  2
*D18
 70
     1
 10
0.0
 20
0.0
 30
0.0
  3
*D18
  1

  0
LINE
  5
117D
330
117B
100
AcDbEntity
  8
Dims
 62
     0
370
    -2
100
AcDbLine
 10
267.7097892607597
 20
85.49112229948741
 30
0.0
 11
267.7097892607597
 21
69.51582326028983
 31
0.0
  0
LINE
  5
117E
330
117B
100
AcDbEntity
  8
Dims
 62
     0
370
    -2
100
AcDbLine
 10
262.7097892607596
 20
92.49112229948741
 30
0.0
 11
262.7097892607596
 21
69.51582326028983
 31
0.0
  0
LINE
  5
117F
330
117B
100
AcDbEntity
  8
Dims
 62
     0
370
    -2
100
AcDbLine
 10
270.2097892607596
 20
70.51582326028984
 30
0.0
 11
272.7097892607596
 21
70.51582326028984
 31
0.0
  0
LINE
  5
1180
330
117B
100
AcDbEntity
  8
Dims
 62
     0
370
    -2
100
AcDbLine
 10
260.2097892607596
 20
70.51582326028984
 30
0.0
 11
257.7097892607596
 21
70.51582326028984
 31
0.0
  0
LINE
  5
1181
330
117B
100
AcDbEntity
  8
Dims
 62
     0
370
    -2
100
AcDbLine
 10
267.7097892607597
 20
70.51582326028984
 30
0.0
 11
262.7097892607596
 21
70.51582326028984
 31
0.0
  0
SOLID
  5
1182
330
117B
100
AcDbEntity
  8
Dims
 62
     0
100
AcDbTrace
 10
270.2097892607596
 20
70.93248992695652
 30
0.0
 11
270.2097892607596
 21
70.09915659362317
 31
0.0
 12
267.7097892607597
 22
70.51582326028984
 32
0.0
 13
267.7097892607597
 23
70.51582326028984
 33
0.0
  0
SOLID
  5
1183
330
117B
100
AcDbEntity
  8
Dims
 62
     0
100
AcDbTrace
 10
260.2097892607596
 20
70.93248992695652
 30
0.0
 11
260.2097892607596
 21
70.09915659362317
 31
0.0
 12
262.7097892607596
 22
70.51582326028984
 32
0.0
 13
262.7097892607596
 23
70.51582326028984
 33
0.0
  0
MTEXT
  5
1184
330
117B
100
AcDbEntity
  8
Dims
 62
     0
100
AcDbMText
 10
265.2097892607596
 20
73.01582326028984
 30
0.0
 40
5.0
 41
0.0
 71
     5
 72
     1
  1
\A1;{\fﾂlﾂr ﾂoﾃSﾃVﾃbﾃN|b0|i0|c128|p50;F}
 73
     1
 44
1.0
1001
ACAD
1000
MTEXTBEGIN
1070
    73
1070
     1
1070
    44
1040
1.0
1070
    74
1070
     0
1000
MTEXTEND
  0
POINT
  5
1185
330
117B
100
AcDbEntity
  8
Defpoints
 62
     0
100
AcDbPoint
 10
267.7097892607597
 20
85.99112229948742
 30
0.0
  0
POINT
  5
1186
330
117B
100
AcDbEntity
  8
Defpoints
 62
     0
100
AcDbPoint
 10
262.7097892607596
 20
92.9911222994874
 30
0.0
  0
POINT
  5
1187
330
117B
100
AcDbEntity
  8
Defpoints
 62
     0
100
AcDbPoint
 10
262.7097892607596
 20
70.51582326028984
 30
0.0
  0
ENDBLK
  5
1188
330
117B
100
AcDbEntity
  8
0
100
AcDbBlockEnd
  0
BLOCK
  5
118A
330
1189
100
AcDbEntity
  8
0
100
AcDbBlockBegin
  2
*D19
 70
     1
 10
0.0
 20
0.0
 30
0.0
  3
*D19
  1

  0
LINE
  5
118B
330
1189
100
AcDbEntity
  8
Dims
 62
     0
370
    -2
100
AcDbLine
 10
267.7097892607597
 20
85.49112229948741
 30
0.0
 11
267.7097892607597
 21
59.506604148341
 31
0.0
  0
LINE
  5
118C
330
1189
100
AcDbEntity
  8
Dims
 62
     0
370
    -2
100
AcDbLine
 10
247.7097892607595
 20
92.9911222994874
 30
0.0
 11
247.7097892607595
 21
59.506604148341
 31
0.0
  0
LINE
  5
118D
330
1189
100
AcDbEntity
  8
Dims
 62
     0
370
    -2
100
AcDbLine
 10
265.2097892607596
 20
60.506604148341
 30
0.0
 11
250.2097892607595
 21
60.506604148341
 31
0.0
  0
SOLID
  5
118E
330
1189
100
AcDbEntity
  8
Dims
 62
     0
100
AcDbTrace
 10
265.2097892607596
 20
60.92327081500767
 30
0.0
 11
265.2097892607596
 21
60.08993748167434
 31
0.0
 12
267.7097892607597
 22
60.506604148341
 32
0.0
 13
267.7097892607597
 23
60.506604148341
 33
0.0
  0
SOLID
  5
118F
330
1189
100
AcDbEntity
  8
Dims
 62
     0
100
AcDbTrace
 10
250.2097892607595
 20
60.92327081500767
 30
0.0
 11
250.2097892607595
 21
60.08993748167434
 31
0.0
 12
247.7097892607595
 22
60.506604148341
 32
0.0
 13
247.7097892607595
 23
60.506604148341
 33
0.0
  0
MTEXT
  5
1190
330
1189
100
AcDbEntity
  8
Dims
 62
     0
100
AcDbMText
 10
257.7097892607596
 20
63.006604148341
 30
0.0
 40
5.0
 41
0.0
 71
     5
 72
     1
  1
\A1;{\fﾂlﾂr ﾂoﾃSﾃVﾃbﾃN|b0|i0|c128|p50;G}
 73
     1
 44
1.0
1001
ACAD
1000
MTEXTBEGIN
1070
    73
1070
     1
1070
    44
1040
1.0
1070
    74
1070
     0
1000
MTEXTEND
  0
POINT
  5
1191
330
1189
100
AcDbEntity
  8
Defpoints
 62
     0
100
AcDbPoint
 10
267.7097892607597
 20
85.99112229948742
 30
0.0
  0
POINT
  5
1192
330
1189
100
AcDbEntity
  8
Defpoints
 62
     0
100
AcDbPoint
 10
247.7097892607595
 20
93.49112229948742
 30
0.0
  0
POINT
  5
1193
330
1189
100
AcDbEntity
  8
Defpoints
 62
     0
100
AcDbPoint
 10
247.7097892607595
 20
60.506604148341
 30
0.0
  0
ENDBLK
  5
1194
330
1189
100
AcDbEntity
  8
0
100
AcDbBlockEnd
  0
BLOCK
  5
1196
330
1195
100
AcDbEntity
  8
0
100
AcDbBlockBegin
  2
*D20
 70
     1
 10
0.0
 20
0.0
 30
0.0
  3
*D20
  1

  0
LINE
  5
1197
330
1195
100
AcDbEntity
  8
Dims
 62
     0
370
    -2
100
AcDbLine
 10
268.2097892607595
 20
85.99112229948753
 30
0.0
 11
295.9179639833111
 21
85.99112229948751
 31
0.0
  0
LINE
  5
1198
330
1195
100
AcDbEntity
  8
Dims
 62
     0
370
    -2
100
AcDbLine
 10
268.2097892607596
 20
137.9911222994876
 30
0.0
 11
295.9179639833111
 21
137.9911222994876
 31
0.0
  0
LINE
  5
1199
330
1195
100
AcDbEntity
  8
Dims
 62
     0
370
    -2
100
AcDbLine
 10
294.9179639833111
 20
88.49112229948751
 30
0.0
 11
294.9179639833111
 21
135.4911222994876
 31
0.0
  0
SOLID
  5
119A
330
1195
100
AcDbEntity
  8
Dims
 62
     0
100
AcDbTrace
 10
294.5012973166443
 20
88.49112229948751
 30
0.0
 11
295.3346306499778
 21
88.49112229948751
 31
0.0
 12
294.9179639833111
 22
85.99112229948751
 32
0.0
 13
294.9179639833111
 23
85.99112229948751
 33
0.0
  0
SOLID
  5
119B
330
1195
100
AcDbEntity
  8
Dims
 62
     0
100
AcDbTrace
 10
294.5012973166445
 20
135.4911222994876
 30
0.0
 11
295.3346306499778
 21
135.4911222994876
 31
0.0
 12
294.9179639833111
 22
137.9911222994876
 32
0.0
 13
294.9179639833111
 23
137.9911222994876
 33
0.0
  0
MTEXT
  5
119C
330
1195
100
AcDbEntity
  8
Dims
 62
     0
100
AcDbMText
 10
292.4179639833111
 20
111.9911222994875
 30
0.0
 40
5.0
 41
0.0
 71
     5
 72
     1
  1
\A1;{\fﾂlﾂr ﾂoﾃSﾃVﾃbﾃN|b0|i0|c128|p50;B}
 11
0.0000000000000001
 21
1.0
 31
0.0
 73
     1
 44
1.0
1001
ACAD
1000
MTEXTBEGIN
1070
    73
1070
     1
1070
    44
1040
1.0
1070
    74
1070
     0
1000
MTEXTEND
  0
POINT
  5
119D
330
1195
100
AcDbEntity
  8
Defpoints
 62
     0
100
AcDbPoint
 10
267.7097892607595
 20
85.99112229948753
 30
0.0
  0
POINT
  5
119E
330
1195
100
AcDbEntity
  8
Defpoints
 62
     0
100
AcDbPoint
 10
267.7097892607597
 20
137.9911222994876
 30
0.0
  0
POINT
  5
119F
330
1195
100
AcDbEntity
  8
Defpoints
 62
     0
100
AcDbPoint
 10
294.9179639833111
 20
137.9911222994876
 30
0.0
  0
ENDBLK
  5
11A0
330
1195
100
AcDbEntity
  8
0
100
AcDbBlockEnd
  0
BLOCK
  5
137A
330
1370
100
AcDbEntity
  8
0
100
AcDbBlockBegin
  2
*D21
 70
     1
 10
0.0
 20
0.0
 30
0.0
  3
*D21
  1

  0
LINE
  5
1E09
330
1370
100
AcDbEntity
  8
Object
  6
HIDDEN2
 62
     0
370
    -2
100
AcDbLine
 10
197.702572854878
 20
1677.267682157031
 30
0.0
 11
197.702572854878
 21
1648.359341315376
 31
0.0
  0
LINE
  5
1E0A
330
1370
100
AcDbEntity
  8
Object
  6
HIDDEN2
 62
     0
370
    -2
100
AcDbLine
 10
130.5025728548784
 20
1677.267682157031
 30
0.0
 11
130.5025728548784
 21
1648.359341315376
 31
0.0
  0
LINE
  5
1E0B
330
1370
100
AcDbEntity
  8
Object
  6
HIDDEN2
 62
     0
370
    -2
100
AcDbLine
 10
189.702572854878
 20
1649.359341315376
 30
0.0
 11
138.5025728548784
 21
1649.359341315376
 31
0.0
  0
INSERT
  5
1E0C
330
1370
100
AcDbEntity
  8
Object
  6
HIDDEN2
 62
     0
370
    -2
100
AcDbBlockReference
  2
_Open30
 10
197.702572854878
 20
1649.359341315376
 30
0.0
 41
8.0
 42
8.0
 43
8.0
  0
INSERT
  5
1E0D
330
1370
100
AcDbEntity
  8
Object
  6
HIDDEN2
 62
     0
370
    -2
100
AcDbBlockReference
  2
_Open30
 10
130.5025728548784
 20
1649.359341315376
 30
0.0
 41
8.0
 42
8.0
 43
8.0
 50
180.0
  0
MTEXT
  5
1E0E
330
1370
100
AcDbEntity
  8
Object
  6
HIDDEN2
 62
     0
100
AcDbMText
 10
164.1025728548782
 20
1656.359341315376
 30
0.0
 40
8.0
 41
0.0
 71
     5
 72
     1
  1
\A1;{\fＭＳ Ｐゴシック|b0|i0|c128|p50;C}
 73
     1
 44
1.0
1001
ACAD
1000
MTEXTBEGIN
1070
    73
1070
     1
1070
    44
1040
1.0
1070
    74
1070
     0
1000
MTEXTEND
  0
POINT
  5
1E0F
330
1370
100
AcDbEntity
  8
Defpoints
  6
HIDDEN2
 62
     0
100
AcDbPoint
 10
197.702572854878
 20
1678.267682157031
 30
0.0
  0
POINT
  5
1E10
330
1370
100
AcDbEntity
  8
Defpoints
  6
HIDDEN2
 62
     0
100
AcDbPoint
 10
130.5025728548784
 20
1678.267682157031
 30
0.0
  0
POINT
  5
1E11
330
1370
100
AcDbEntity
  8
Defpoints
  6
HIDDEN2
 62
     0
100
AcDbPoint
 10
130.5025728548784
 20
1649.359341315376
 30
0.0
  0
ENDBLK
  5
137B
330
1370
100
AcDbEntity
  8
0
100
AcDbBlockEnd
  0
BLOCK
  5
1386
330
137C
100
AcDbEntity
  8
0
100
AcDbBlockBegin
  2
*D22
 70
     1
 10
0.0
 20
0.0
 30
0.0
  3
*D22
  1

  0
LINE
  5
1E1B
330
137C
100
AcDbEntity
  8
Object
  6
HIDDEN2
 62
     0
370
    -2
100
AcDbLine
 10
127.5825728548784
 20
1708.095234973329
 30
0.0
 11
85.11150606528396
 21
1708.095234973329
 31
0.0
  0
LINE
  5
1E1C
330
137C
100
AcDbEntity
  8
Object
  6
HIDDEN2
 62
     0
370
    -2
100
AcDbLine
 10
127.5825728548784
 20
1679.295234973328
 30
0.0
 11
85.11150606528394
 21
1679.295234973328
 31
0.0
  0
LINE
  5
1E1D
330
137C
100
AcDbEntity
  8
Object
  6
HIDDEN2
 62
     0
370
    -2
100
AcDbLine
 10
86.11150606528395
 20
1716.095234973329
 30
0.0
 11
86.11150606528395
 21
1724.095234973329
 31
0.0
  0
LINE
  5
1E1E
330
137C
100
AcDbEntity
  8
Object
  6
HIDDEN2
 62
     0
370
    -2
100
AcDbLine
 10
86.11150606528395
 20
1671.295234973328
 30
0.0
 11
86.11150606528395
 21
1663.295234973328
 31
0.0
  0
MTEXT
  5
1E1F
330
137C
100
AcDbEntity
  8
Object
  6
HIDDEN2
 62
     0
100
AcDbMText
 10
80.86402325592485
 20
1694.462368248062
 30
0.0
 40
8.0
 41
0.0
 71
     5
 72
     1
  1
\A1;{\fＭＳ Ｐゴシック|b0|i0|c128|p50;E}
 11
0.9999999998476914
 21
0.0000174532925191
 31
0.0
 73
     1
 44
1.0
1001
ACAD
1000
MTEXTBEGIN
1070
    73
1070
     1
1070
    44
1040
1.0
1070
    74
1070
     0
1000
MTEXTEND
  0
LINE
  5
1E20
330
137C
100
AcDbEntity
  8
Object
  6
HIDDEN2
 62
     0
370
    -2
100
AcDbLine
 10
86.11150606528395
 20
1708.095234973329
 30
0.0
 11
86.11150606528395
 21
1679.295234973328
 31
0.0
  0
INSERT
  5
1E21
330
137C
100
AcDbEntity
  8
Object
  6
HIDDEN2
 62
     0
370
    -2
100
AcDbBlockReference
  2
_Open30
 10
86.11150606528395
 20
1708.095234973329
 30
0.0
 41
8.0
 42
8.0
 43
8.0
 50
270.0
  0
INSERT
  5
1E22
330
137C
100
AcDbEntity
  8
Object
  6
HIDDEN2
 62
     0
370
    -2
100
AcDbBlockReference
  2
_Open30
 10
86.11150606528395
 20
1679.295234973328
 30
0.0
 41
8.0
 42
8.0
 43
8.0
 50
90.0
  0
POINT
  5
1E23
330
137C
100
AcDbEntity
  8
Defpoints
  6
HIDDEN2
 62
     0
100
AcDbPoint
 10
128.5825728548784
 20
1708.095234973329
 30
0.0
  0
POINT
  5
1E24
330
137C
100
AcDbEntity
  8
Defpoints
  6
HIDDEN2
 62
     0
100
AcDbPoint
 10
128.5825728548784
 20
1679.295234973328
 30
0.0
  0
POINT
  5
1E25
330
137C
100
AcDbEntity
  8
Defpoints
  6
HIDDEN2
 62
     0
100
AcDbPoint
 10
86.11150606528395
 20
1679.295234973328
 30
0.0
  0
ENDBLK
  5
1387
330
137C
100
AcDbEntity
  8
0
100
AcDbBlockEnd
  0
BLOCK
  5
1392
330
1388
100
AcDbEntity
  8
0
100
AcDbBlockBegin
  2
*D23
 70
     1
 10
0.0
 20
0.0
 30
0.0
  3
*D23
  1

  0
LINE
  5
1E26
330
1388
100
AcDbEntity
  8
Object
  6
HIDDEN2
 62
     0
370
    -2
100
AcDbLine
 10
199.6225728548784
 20
1709.095234973329
 30
0.0
 11
199.6225728548784
 21
1724.441977057164
 31
0.0
  0
LINE
  5
1E27
330
1388
100
AcDbEntity
  8
Object
  6
HIDDEN2
 62
     0
370
    -2
100
AcDbLine
 10
128.5825728548784
 20
1709.095234973329
 30
0.0
 11
128.5825728548784
 21
1724.441977057164
 31
0.0
  0
LINE
  5
1E28
330
1388
100
AcDbEntity
  8
Object
  6
HIDDEN2
 62
     0
370
    -2
100
AcDbLine
 10
191.6225728548784
 20
1723.441977057165
 30
0.0
 11
136.5825728548784
 21
1723.441977057165
 31
0.0
  0
INSERT
  5
1E29
330
1388
100
AcDbEntity
  8
Object
  6
HIDDEN2
 62
     0
370
    -2
100
AcDbBlockReference
  2
_Open30
 10
199.6225728548784
 20
1723.441977057165
 30
0.0
 41
8.0
 42
8.0
 43
8.0
  0
INSERT
  5
1E2A
330
1388
100
AcDbEntity
  8
Object
  6
HIDDEN2
 62
     0
370
    -2
100
AcDbBlockReference
  2
_Open30
 10
128.5825728548784
 20
1723.441977057165
 30
0.0
 41
8.0
 42
8.0
 43
8.0
 50
180.0
  0
MTEXT
  5
1E2B
330
1388
100
AcDbEntity
  8
Object
  6
HIDDEN2
 62
     0
100
AcDbMText
 10
164.1025728548784
 20
1730.441977057165
 30
0.0
 40
8.0
 41
0.0
 71
     5
 72
     1
  1
\A1;{\fＭＳ Ｐゴシック|b0|i0|c128|p50;A}
 73
     1
 44
1.0
1001
ACAD
1000
MTEXTBEGIN
1070
    73
1070
     1
1070
    44
1040
1.0
1070
    74
1070
     0
1000
MTEXTEND
  0
POINT
  5
1E2C
330
1388
100
AcDbEntity
  8
Defpoints
  6
HIDDEN2
 62
     0
100
AcDbPoint
 10
199.6225728548784
 20
1708.095234973329
 30
0.0
  0
POINT
  5
1E2D
330
1388
100
AcDbEntity
  8
Defpoints
  6
HIDDEN2
 62
     0
100
AcDbPoint
 10
128.5825728548784
 20
1708.095234973329
 30
0.0
  0
POINT
  5
1E2E
330
1388
100
AcDbEntity
  8
Defpoints
  6
HIDDEN2
 62
     0
100
AcDbPoint
 10
128.5825728548784
 20
1723.441977057165
 30
0.0
  0
ENDBLK
  5
1393
330
1388
100
AcDbEntity
  8
0
100
AcDbBlockEnd
  0
BLOCK
  5
13A0
330
1394
100
AcDbEntity
  8
0
100
AcDbBlockBegin
  2
*D24
 70
     1
 10
0.0
 20
0.0
 30
0.0
  3
*D24
  1

  0
LINE
  5
1DFE
330
1394
100
AcDbEntity
  8
Object
  6
HIDDEN2
 62
     0
370
    -2
100
AcDbLine
 10
113.1825728548784
 20
1669.695234973328
 30
0.0
 11
93.6903433190867
 21
1669.695234973328
 31
0.0
  0
LINE
  5
1DFF
330
1394
100
AcDbEntity
  8
Object
  6
HIDDEN2
 62
     0
370
    -2
100
AcDbLine
 10
126.6225728548784
 20
1679.295234973328
 30
0.0
 11
93.6903433190867
 21
1679.295234973328
 31
0.0
  0
LINE
  5
1E00
330
1394
100
AcDbEntity
  8
Object
  6
HIDDEN2
 62
     0
370
    -2
100
AcDbLine
 10
94.69034331908671
 20
1687.295234973328
 30
0.0
 11
94.69034331908671
 21
1695.295234973328
 31
0.0
  0
LINE
  5
1E01
330
1394
100
AcDbEntity
  8
Object
  6
HIDDEN2
 62
     0
370
    -2
100
AcDbLine
 10
94.69034331908671
 20
1661.695234973328
 30
0.0
 11
94.69034331908671
 21
1643.943144489344
 31
0.0
  0
LINE
  5
1E02
330
1394
100
AcDbEntity
  8
Object
  6
HIDDEN2
 62
     0
370
    -2
100
AcDbLine
 10
94.69034331908671
 20
1679.295234973328
 30
0.0
 11
94.69034331908671
 21
1669.695234973328
 31
0.0
  0
INSERT
  5
1E03
330
1394
100
AcDbEntity
  8
Object
  6
HIDDEN2
 62
     0
370
    -2
100
AcDbBlockReference
  2
_Open30
 10
94.69034331908671
 20
1679.295234973328
 30
0.0
 41
8.0
 42
8.0
 43
8.0
 50
270.0
  0
INSERT
  5
1E04
330
1394
100
AcDbEntity
  8
Object
  6
HIDDEN2
 62
     0
370
    -2
100
AcDbBlockReference
  2
_Open30
 10
94.69034331908671
 20
1669.695234973328
 30
0.0
 41
8.0
 42
8.0
 43
8.0
 50
90.0
  0
MTEXT
  5
1E05
330
1394
100
AcDbEntity
  8
Object
  6
HIDDEN2
 62
     0
100
AcDbMText
 10
87.69034331802028
 20
1643.943144489344
 30
0.0
 40
8.0
 41
0.0
 71
     5
 72
     1
  1
\A1;{\fＭＳ Ｐゴシック|b0|i0|c128|p50;F}
 11
0.9999999998476914
 21
0.0000174532925191
 31
0.0
 73
     1
 44
1.0
1001
ACAD
1000
MTEXTBEGIN
1070
    73
1070
     1
1070
    44
1040
1.0
1070
    74
1070
     0
1000
MTEXTEND
  0
POINT
  5
1E06
330
1394
100
AcDbEntity
  8
Defpoints
  6
HIDDEN2
 62
     0
100
AcDbPoint
 10
114.1825728548784
 20
1669.695234973328
 30
0.0
  0
POINT
  5
1E07
330
1394
100
AcDbEntity
  8
Defpoints
  6
HIDDEN2
 62
     0
100
AcDbPoint
 10
127.6225728548784
 20
1679.295234973328
 30
0.0
  0
POINT
  5
1E08
330
1394
100
AcDbEntity
  8
Defpoints
  6
HIDDEN2
 62
     0
100
AcDbPoint
 10
94.69034331908671
 20
1679.295234973328
 30
0.0
  0
ENDBLK
  5
13A1
330
1394
100
AcDbEntity
  8
0
100
AcDbBlockEnd
  0
BLOCK
  5
13AC
330
13A2
100
AcDbEntity
  8
0
100
AcDbBlockBegin
  2
*D25
 70
     1
 10
0.0
 20
0.0
 30
0.0
  3
*D25
  1

  0
LINE
  5
1E12
330
13A2
100
AcDbEntity
  8
Object
  6
HIDDEN2
 62
     0
370
    -2
100
AcDbLine
 10
113.1825728548784
 20
1669.695234973328
 30
0.0
 11
69.2232985212788
 21
1669.695234973328
 31
0.0
  0
LINE
  5
1E13
330
13A2
100
AcDbEntity
  8
Object
  6
HIDDEN2
 62
     0
370
    -2
100
AcDbLine
 10
127.5825728548784
 20
1708.095234973329
 30
0.0
 11
69.22329852127882
 21
1708.095234973329
 31
0.0
  0
LINE
  5
1E14
330
13A2
100
AcDbEntity
  8
Object
  6
HIDDEN2
 62
     0
370
    -2
100
AcDbLine
 10
70.22329852127881
 20
1677.695234973328
 30
0.0
 11
70.22329852127882
 21
1700.095234973329
 31
0.0
  0
MTEXT
  5
1E15
330
13A2
100
AcDbEntity
  8
Object
  6
HIDDEN2
 62
     0
100
AcDbMText
 10
63.95547428686111
 20
1690.091379749782
 30
0.0
 40
8.0
 41
0.0
 71
     5
 72
     1
  1
\A1;{\fＭＳ Ｐゴシック|b0|i0|c128|p50;G}
 11
0.9999999998476914
 21
0.0000174532925191
 31
0.0
 73
     1
 44
1.0
1001
ACAD
1000
MTEXTBEGIN
1070
    73
1070
     1
1070
    44
1040
1.0
1070
    74
1070
     0
1000
MTEXTEND
  0
INSERT
  5
1E16
330
13A2
100
AcDbEntity
  8
Object
  6
HIDDEN2
 62
     0
370
    -2
100
AcDbBlockReference
  2
_Open30
 10
70.22329852127881
 20
1669.695234973328
 30
0.0
 41
8.0
 42
8.0
 43
8.0
 50
270.0
  0
INSERT
  5
1E17
330
13A2
100
AcDbEntity
  8
Object
  6
HIDDEN2
 62
     0
370
    -2
100
AcDbBlockReference
  2
_Open30
 10
70.22329852127882
 20
1708.095234973329
 30
0.0
 41
8.0
 42
8.0
 43
8.0
 50
90.0
  0
POINT
  5
1E18
330
13A2
100
AcDbEntity
  8
Defpoints
  6
HIDDEN2
 62
     0
100
AcDbPoint
 10
114.1825728548784
 20
1669.695234973328
 30
0.0
  0
POINT
  5
1E19
330
13A2
100
AcDbEntity
  8
Defpoints
  6
HIDDEN2
 62
     0
100
AcDbPoint
 10
128.5825728548784
 20
1708.095234973329
 30
0.0
  0
POINT
  5
1E1A
330
13A2
100
AcDbEntity
  8
Defpoints
  6
HIDDEN2
 62
     0
100
AcDbPoint
 10
70.22329852127882
 20
1708.095234973329
 30
0.0
  0
ENDBLK
  5
13AD
330
13A2
100
AcDbEntity
  8
0
100
AcDbBlockEnd
  0
BLOCK
  5
13B8
330
13AE
100
AcDbEntity
  8
0
100
AcDbBlockBegin
  2
*D26
 70
     1
 10
0.0
 20
0.0
 30
0.0
  3
*D26
  1

  0
LINE
  5
1DF5
330
13AE
100
AcDbEntity
  8
Object
  6
HIDDEN2
 62
     0
370
    -2
100
AcDbLine
 10
114.1825728548784
 20
1668.695234973329
 30
0.0
 11
114.1825728548784
 21
1631.534042129366
 31
0.0
  0
LINE
  5
1DF6
330
13AE
100
AcDbEntity
  8
Object
  6
HIDDEN2
 62
     0
370
    -2
100
AcDbLine
 10
214.0225728548788
 20
1668.695234973328
 30
0.0
 11
214.0225728548788
 21
1631.534042129366
 31
0.0
  0
LINE
  5
1DF7
330
13AE
100
AcDbEntity
  8
Object
  6
HIDDEN2
 62
     0
370
    -2
100
AcDbLine
 10
122.1825728548784
 20
1632.534042129366
 30
0.0
 11
206.0225728548788
 21
1632.534042129366
 31
0.0
  0
INSERT
  5
1DF8
330
13AE
100
AcDbEntity
  8
Object
  6
HIDDEN2
 62
     0
370
    -2
100
AcDbBlockReference
  2
_Open30
 10
114.1825728548784
 20
1632.534042129366
 30
0.0
 41
8.0
 42
8.0
 43
8.0
 50
180.0
  0
INSERT
  5
1DF9
330
13AE
100
AcDbEntity
  8
Object
  6
HIDDEN2
 62
     0
370
    -2
100
AcDbBlockReference
  2
_Open30
 10
214.0225728548788
 20
1632.534042129366
 30
0.0
 41
8.0
 42
8.0
 43
8.0
  0
MTEXT
  5
1DFA
330
13AE
100
AcDbEntity
  8
Object
  6
HIDDEN2
 62
     0
100
AcDbMText
 10
164.1025728548786
 20
1639.534042129366
 30
0.0
 40
8.0
 41
0.0
 71
     5
 72
     1
  1
\A1;{\fＭＳ Ｐゴシック|b0|i0|c128|p50;B}
 73
     1
 44
1.0
1001
ACAD
1000
MTEXTBEGIN
1070
    73
1070
     1
1070
    44
1040
1.0
1070
    74
1070
     0
1000
MTEXTEND
  0
POINT
  5
1DFB
330
13AE
100
AcDbEntity
  8
Defpoints
  6
HIDDEN2
 62
     0
100
AcDbPoint
 10
114.1825728548784
 20
1669.695234973328
 30
0.0
  0
POINT
  5
1DFC
330
13AE
100
AcDbEntity
  8
Defpoints
  6
HIDDEN2
 62
     0
100
AcDbPoint
 10
214.0225728548788
 20
1669.695234973328
 30
0.0
  0
POINT
  5
1DFD
330
13AE
100
AcDbEntity
  8
Defpoints
  6
HIDDEN2
 62
     0
100
AcDbPoint
 10
214.0225728548788
 20
1632.534042129366
 30
0.0
  0
ENDBLK
  5
13B9
330
13AE
100
AcDbEntity
  8
0
100
AcDbBlockEnd
  0
BLOCK
  5
1463
330
1462
100
AcDbEntity
  8
0
100
AcDbBlockBegin
  2
*D27
 70
     1
 10
0.0
 20
0.0
 30
0.0
  3
*D27
  1

  0
LINE
  5
1464
330
1462
100
AcDbEntity
  8
Dims
 62
     0
370
    -2
100
AcDbLine
 10
234.4902587084715
 20
15.86419662820998
 30
0.0
 11
246.8286657010501
 21
15.86419662820998
 31
0.0
  0
LINE
  5
1465
330
1462
100
AcDbEntity
  8
Dims
 62
     0
370
    -2
100
AcDbLine
 10
234.4902587084715
 20
13.86419662820998
 30
0.0
 11
246.8286657010501
 21
13.86419662820997
 31
0.0
  0
LINE
  5
1466
330
1462
100
AcDbEntity
  8
Dims
 62
     0
370
    -2
100
AcDbLine
 10
245.8286657010501
 20
11.36419662820997
 30
0.0
 11
245.8286657010501
 21
8.864196628209978
 31
0.0
  0
LINE
  5
1467
330
1462
100
AcDbEntity
  8
Dims
 62
     0
370
    -2
100
AcDbLine
 10
245.8286657010501
 20
18.36419662820998
 30
0.0
 11
245.8286657010501
 21
28.53607162820998
 31
0.0
  0
LINE
  5
1468
330
1462
100
AcDbEntity
  8
Dims
 62
     0
370
    -2
100
AcDbLine
 10
245.8286657010501
 20
13.86419662820997
 30
0.0
 11
245.8286657010501
 21
15.86419662820998
 31
0.0
  0
SOLID
  5
1469
330
1462
100
AcDbEntity
  8
Dims
 62
     0
100
AcDbTrace
 10
245.4119990343834
 20
11.36419662820997
 30
0.0
 11
246.2453323677168
 21
11.36419662820997
 31
0.0
 12
245.8286657010501
 22
13.86419662820997
 32
0.0
 13
245.8286657010501
 23
13.86419662820997
 33
0.0
  0
SOLID
  5
146A
330
1462
100
AcDbEntity
  8
Dims
 62
     0
100
AcDbTrace
 10
245.4119990343834
 20
18.36419662820998
 30
0.0
 11
246.2453323677168
 21
18.36419662820998
 31
0.0
 12
245.8286657010501
 22
15.86419662820998
 32
0.0
 13
245.8286657010501
 23
15.86419662820998
 33
0.0
  0
MTEXT
  5
146B
330
1462
100
AcDbEntity
  8
Dims
 62
     0
100
AcDbMText
 10
241.3286657010501
 20
24.94232162821002
 30
0.0
 40
5.0
 41
0.0
 71
     5
 72
     1
  1
\A1;2
 11
0.0000000000000001
 21
1.0
 31
0.0
 73
     1
 44
1.0
1001
ACAD
1000
MTEXTBEGIN
1070
    73
1070
     1
1070
    44
1040
1.0
1070
    74
1070
     0
1000
MTEXTEND
  0
POINT
  5
146C
330
1462
100
AcDbEntity
  8
Defpoints
 62
     0
100
AcDbPoint
 10
233.9902587084715
 20
15.86419662820998
 30
0.0
  0
POINT
  5
146D
330
1462
100
AcDbEntity
  8
Defpoints
 62
     0
100
AcDbPoint
 10
233.9902587084715
 20
13.86419662820998
 30
0.0
  0
POINT
  5
146E
330
1462
100
AcDbEntity
  8
Defpoints
 62
     0
100
AcDbPoint
 10
245.8286657010501
 20
13.86419662820997
 30
0.0
  0
ENDBLK
  5
146F
330
1462
100
AcDbEntity
  8
0
100
AcDbBlockEnd
  0
BLOCK
  5
1471
330
1470
100
AcDbEntity
  8
0
100
AcDbBlockBegin
  2
*D28
 70
     1
 10
0.0
 20
0.0
 30
0.0
  3
*D28
  1

  0
LINE
  5
1472
330
1470
100
AcDbEntity
  8
Dims
 62
     0
370
    -2
100
AcDbLine
 10
243.3444189541624
 20
81.88948826712945
 30
0.0
 11
231.607213266851
 21
74.60778799152445
 31
0.0
  0
LINE
  5
1473
330
1470
100
AcDbEntity
  8
Dims
 62
     0
370
    -2
100
AcDbLine
 10
176.3733041500918
 20
40.340963165148
 30
0.0
 11
174.2489230302165
 21
39.02300836413353
 31
0.0
  0
MTEXT
  5
1474
330
1470
100
AcDbEntity
  8
Dims
 62
     0
100
AcDbMText
 10
236.1656880286183
 20
82.73150154560983
 30
0.0
 40
5.0
 41
0.0
 71
     5
 72
     1
  1
\A1;50
 11
0.8497524479501434
 21
0.5271819204057922
 31
0.0
 73
     1
 44
1.0
1001
ACAD
1000
MTEXTBEGIN
1070
    73
1070
     1
1070
    44
1040
1.0
1070
    74
1070
     0
1000
MTEXTEND
  0
LINE
  5
1475
330
1470
100
AcDbEntity
  8
Dims
 62
     0
370
    -2
100
AcDbLine
 10
178.4976852699672
 20
41.65891796616249
 30
0.0
 11
229.4828321469757
 21
73.28983319050997
 31
0.0
  0
SOLID
  5
1476
330
1470
100
AcDbEntity
  8
Dims
 62
     0
100
AcDbTrace
 10
176.1536450165894
 20
40.69502668512721
 30
0.0
 11
176.5929632835941
 21
39.98689964516879
 31
0.0
 12
178.4976852699672
 22
41.65891796616249
 32
0.0
 13
178.4976852699672
 23
41.65891796616249
 33
0.0
  0
SOLID
  5
1477
330
1470
100
AcDbEntity
  8
Dims
 62
     0
100
AcDbTrace
 10
231.3875541333486
 20
74.96185151150368
 30
0.0
 11
231.8268724003534
 21
74.25372447154519
 31
0.0
 12
229.4828321469757
 22
73.28983319050997
 32
0.0
 13
229.4828321469757
 23
73.28983319050997
 33
0.0
  0
POINT
  5
1478
330
1470
100
AcDbEntity
  8
Defpoints
 62
     0
100
AcDbPoint
 10
229.4828321469757
 20
73.28983319050997
 30
0.0
  0
POINT
  5
1479
330
1470
100
AcDbEntity
  8
Defpoints
 62
     0
100
AcDbPoint
 10
178.4976852699672
 20
41.65891796616249
 30
0.0
  0
ENDBLK
  5
147A
330
1470
100
AcDbEntity
  8
0
100
AcDbBlockEnd
  0
BLOCK
  5
147C
330
147B
100
AcDbEntity
  8
0
100
AcDbBlockBegin
  2
*D29
 70
     1
 10
0.0
 20
0.0
 30
0.0
  3
*D29
  1

  0
LINE
  5
147D
330
147B
100
AcDbEntity
  8
Dims
 62
     0
370
    -2
100
AcDbLine
 10
229.4902587084715
 20
-3.635803371790018
 30
0.0
 11
246.8783278499604
 21
-3.635803371790022
 31
0.0
  0
LINE
  5
147E
330
147B
100
AcDbEntity
  8
Dims
 62
     0
370
    -2
100
AcDbLine
 10
234.4902587084715
 20
13.86419662820998
 30
0.0
 11
246.8783278499604
 21
13.86419662820997
 31
0.0
  0
LINE
  5
147F
330
147B
100
AcDbEntity
  8
Dims
 62
     0
370
    -2
100
AcDbLine
 10
245.8783278499605
 20
-1.135803371790021
 30
0.0
 11
245.8783278499605
 21
11.36419662820997
 31
0.0
  0
SOLID
  5
1480
330
147B
100
AcDbEntity
  8
Dims
 62
     0
100
AcDbTrace
 10
245.4616611832938
 20
-1.135803371790021
 30
0.0
 11
246.2949945166271
 21
-1.135803371790021
 31
0.0
 12
245.8783278499605
 22
-3.635803371790022
 32
0.0
 13
245.8783278499605
 23
-3.635803371790022
 33
0.0
  0
SOLID
  5
1481
330
147B
100
AcDbEntity
  8
Dims
 62
     0
100
AcDbTrace
 10
245.4616611832938
 20
11.36419662820997
 30
0.0
 11
246.2949945166271
 21
11.36419662820997
 31
0.0
 12
245.8783278499605
 22
13.86419662820997
 32
0.0
 13
245.8783278499605
 23
13.86419662820997
 33
0.0
  0
MTEXT
  5
1482
330
147B
100
AcDbEntity
  8
Dims
 62
     0
100
AcDbMText
 10
241.3783278499604
 20
5.114196628210016
 30
0.0
 40
5.0
 41
0.0
 71
     5
 72
     1
  1
\A1;18
 11
0.0000000000000001
 21
1.0
 31
0.0
 73
     1
 44
1.0
1001
ACAD
1000
MTEXTBEGIN
1070
    73
1070
     1
1070
    44
1040
1.0
1070
    74
1070
     0
1000
MTEXTEND
  0
POINT
  5
1483
330
147B
100
AcDbEntity
  8
Defpoints
 62
     0
100
AcDbPoint
 10
228.9902587084715
 20
-3.635803371790018
 30
0.0
  0
POINT
  5
1484
330
147B
100
AcDbEntity
  8
Defpoints
 62
     0
100
AcDbPoint
 10
233.9902587084715
 20
13.86419662820998
 30
0.0
  0
POINT
  5
1485
330
147B
100
AcDbEntity
  8
Defpoints
 62
     0
100
AcDbPoint
 10
245.8783278499605
 20
13.86419662820997
 30
0.0
  0
ENDBLK
  5
1486
330
147B
100
AcDbEntity
  8
0
100
AcDbBlockEnd
  0
BLOCK
  5
1488
330
1487
100
AcDbEntity
  8
0
100
AcDbBlockBegin
  2
*D30
 70
     1
 10
0.0
 20
0.0
 30
0.0
  3
*D30
  1

  0
LINE
  5
1489
330
1487
100
AcDbEntity
  8
Dims
 62
     0
370
    -2
100
AcDbLine
 10
178.9902587084715
 20
-4.135803371790018
 30
0.0
 11
178.9902587084715
 21
-23.19903708728373
 31
0.0
  0
LINE
  5
148A
330
1487
100
AcDbEntity
  8
Dims
 62
     0
370
    -2
100
AcDbLine
 10
228.9902587084715
 20
-4.135803371790018
 30
0.0
 11
228.9902587084715
 21
-23.19903708728373
 31
0.0
  0
LINE
  5
148B
330
1487
100
AcDbEntity
  8
Dims
 62
     0
370
    -2
100
AcDbLine
 10
181.4902587084715
 20
-22.19903708728373
 30
0.0
 11
226.4902587084715
 21
-22.19903708728373
 31
0.0
  0
SOLID
  5
148C
330
1487
100
AcDbEntity
  8
Dims
 62
     0
100
AcDbTrace
 10
181.4902587084715
 20
-21.78237042061706
 30
0.0
 11
181.4902587084715
 21
-22.6157037539504
 31
0.0
 12
178.9902587084715
 22
-22.19903708728373
 32
0.0
 13
178.9902587084715
 23
-22.19903708728373
 33
0.0
  0
SOLID
  5
148D
330
1487
100
AcDbEntity
  8
Dims
 62
     0
100
AcDbTrace
 10
226.4902587084715
 20
-21.78237042061706
 30
0.0
 11
226.4902587084715
 21
-22.6157037539504
 31
0.0
 12
228.9902587084715
 22
-22.19903708728373
 32
0.0
 13
228.9902587084715
 23
-22.19903708728373
 33
0.0
  0
MTEXT
  5
148E
330
1487
100
AcDbEntity
  8
Dims
 62
     0
100
AcDbMText
 10
203.9902587084715
 20
-17.69903708728373
 30
0.0
 40
5.0
 41
0.0
 71
     5
 72
     1
  1
\A1;40
 73
     1
 44
1.0
1001
ACAD
1000
MTEXTBEGIN
1070
    73
1070
     1
1070
    44
1040
1.0
1070
    74
1070
     0
1000
MTEXTEND
  0
POINT
  5
148F
330
1487
100
AcDbEntity
  8
Defpoints
 62
     0
100
AcDbPoint
 10
178.9902587084715
 20
-3.635803371790018
 30
0.0
  0
POINT
  5
1490
330
1487
100
AcDbEntity
  8
Defpoints
 62
     0
100
AcDbPoint
 10
228.9902587084715
 20
-3.635803371790018
 30
0.0
  0
POINT
  5
1491
330
1487
100
AcDbEntity
  8
Defpoints
 62
     0
100
AcDbPoint
 10
228.9902587084715
 20
-22.19903708728373
 30
0.0
  0
ENDBLK
  5
1492
330
1487
100
AcDbEntity
  8
0
100
AcDbBlockEnd
  0
BLOCK
  5
175F
330
1753
100
AcDbEntity
  8
0
100
AcDbBlockBegin
  2
*D31
 70
     1
 10
0.0
 20
0.0
 30
0.0
  3
*D31
  1

  0
LINE
  5
1F09
330
1753
100
AcDbEntity
  8
Object
  6
HIDDEN2
 62
     0
370
    -2
100
AcDbLine
 10
-199.2687431844311
 20
1702.065234973328
 30
0.0
 11
-211.6972829576589
 21
1702.065234973328
 31
0.0
  0
LINE
  5
1F0A
330
1753
100
AcDbEntity
  8
Object
  6
HIDDEN2
 62
     0
370
    -2
100
AcDbLine
 10
-199.2687431844311
 20
1698.745234973329
 30
0.0
 11
-211.6972829576589
 21
1698.745234973329
 31
0.0
  0
LINE
  5
1F0B
330
1753
100
AcDbEntity
  8
Object
  6
HIDDEN2
 62
     0
370
    -2
100
AcDbLine
 10
-210.6972829576589
 20
1710.065234973328
 30
0.0
 11
-210.6972829576589
 21
1718.065234973328
 31
0.0
  0
LINE
  5
1F0C
330
1753
100
AcDbEntity
  8
Object
  6
HIDDEN2
 62
     0
370
    -2
100
AcDbLine
 10
-210.6972829576589
 20
1690.745234973329
 30
0.0
 11
-210.6972829576589
 21
1682.745234973329
 31
0.0
  0
MTEXT
  5
1F0D
330
1753
100
AcDbEntity
  8
Object
  6
HIDDEN2
 62
     0
100
AcDbMText
 10
-215.2788705972453
 20
1716.12765614863
 30
0.0
 40
8.0
 41
0.0
 71
     5
 72
     1
  1
\A1;Ｄ
 11
0.9999999998476914
 21
0.0000174532925191
 31
0.0
 73
     1
 44
1.0
1001
ACAD
1000
MTEXTBEGIN
1070
    73
1070
     1
1070
    44
1040
1.0
1070
    74
1070
     0
1000
MTEXTEND
  0
LINE
  5
1F0E
330
1753
100
AcDbEntity
  8
Object
  6
HIDDEN2
 62
     0
370
    -2
100
AcDbLine
 10
-210.6972829576589
 20
1702.065234973328
 30
0.0
 11
-210.6972829576589
 21
1698.745234973329
 31
0.0
  0
INSERT
  5
1F0F
330
1753
100
AcDbEntity
  8
Object
  6
HIDDEN2
 62
     0
370
    -2
100
AcDbBlockReference
  2
_Open30
 10
-210.6972829576589
 20
1702.065234973328
 30
0.0
 41
8.0
 42
8.0
 43
8.0
 50
270.0
  0
INSERT
  5
1F10
330
1753
100
AcDbEntity
  8
Object
  6
HIDDEN2
 62
     0
370
    -2
100
AcDbBlockReference
  2
_Open30
 10
-210.6972829576589
 20
1698.745234973329
 30
0.0
 41
8.0
 42
8.0
 43
8.0
 50
90.0
  0
POINT
  5
1F11
330
1753
100
AcDbEntity
  8
Defpoints
  6
HIDDEN2
 62
     0
100
AcDbPoint
 10
-198.2687431844311
 20
1702.065234973328
 30
0.0
  0
POINT
  5
1F12
330
1753
100
AcDbEntity
  8
Defpoints
  6
HIDDEN2
 62
     0
100
AcDbPoint
 10
-198.2687431844311
 20
1698.745234973329
 30
0.0
  0
POINT
  5
1F13
330
1753
100
AcDbEntity
  8
Defpoints
  6
HIDDEN2
 62
     0
100
AcDbPoint
 10
-210.6972829576589
 20
1698.745234973329
 30
0.0
  0
ENDBLK
  5
1760
330
1753
100
AcDbEntity
  8
0
100
AcDbBlockEnd
  0
BLOCK
  5
176A
330
1761
100
AcDbEntity
  8
0
100
AcDbBlockBegin
  2
*D32
 70
     1
 10
0.0
 20
0.0
 30
0.0
  3
*D32
  1

  0
LINE
  5
1987
330
1761
100
AcDbEntity
  8
Dims
 62
     0
370
    -2
100
AcDbLine
 10
-90.8857214628315
 20
1843.819436824339
 30
0.0
 11
-102.752061484714
 21
1836.45762229116
 31
0.0
  0
LINE
  5
1988
330
1761
100
AcDbEntity
  8
Dims
 62
     0
370
    -2
100
AcDbLine
 10
-194.1854248841491
 20
1779.732847655497
 30
0.0
 11
-197.5844346759496
 21
1777.624119973873
 31
0.0
  0
MTEXT
  5
1989
330
1761
100
AcDbEntity
  8
Dims
 62
     0
100
AcDbMText
 10
-97.49170521969858
 20
1845.016779414337
 30
0.0
 40
5.0
 41
0.0
 71
     5
 72
     1
  1
\A1;50
 11
0.8497524479501457
 21
0.5271819204057882
 31
0.0
 73
     1
 44
1.0
1001
ACAD
1000
MTEXTBEGIN
1070
    73
1070
     1
1070
    44
1040
1.0
1070
    74
1070
     0
1000
MTEXTEND
  0
LINE
  5
198A
330
1761
100
AcDbEntity
  8
Dims
 62
     0
370
    -2
100
AcDbLine
 10
-190.7864150923485
 20
1781.84157533712
 30
0.0
 11
-106.1510712765146
 21
1834.348894609536
 31
0.0
  0
INSERT
  5
198B
330
1761
100
AcDbEntity
  8
Dims
 62
     0
370
    -2
100
AcDbBlockReference
  2
_Open30
 10
-190.7864150923485
 20
1781.84157533712
 30
0.0
 41
4.0
 42
4.0
 43
4.0
 50
31.81524553866728
  0
INSERT
  5
198C
330
1761
100
AcDbEntity
  8
Dims
 62
     0
370
    -2
100
AcDbBlockReference
  2
_Open30
 10
-106.1510712765146
 20
1834.348894609536
 30
0.0
 41
4.0
 42
4.0
 43
4.0
 50
211.8152455386672
  0
POINT
  5
198D
330
1761
100
AcDbEntity
  8
Defpoints
 62
     0
100
AcDbPoint
 10
-106.1510712765146
 20
1834.348894609536
 30
0.0
  0
POINT
  5
198E
330
1761
100
AcDbEntity
  8
Defpoints
 62
     0
100
AcDbPoint
 10
-190.7864150923485
 20
1781.84157533712
 30
0.0
  0
ENDBLK
  5
176B
330
1761
100
AcDbEntity
  8
0
100
AcDbBlockEnd
  0
BLOCK
  5
1776
330
176C
100
AcDbEntity
  8
0
100
AcDbBlockBegin
  2
*D33
 70
     1
 10
0.0
 20
0.0
 30
0.0
  3
*D33
  1

  0
LINE
  5
1EF3
330
176C
100
AcDbEntity
  8
Object
  6
HIDDEN2
 62
     0
370
    -2
100
AcDbLine
 10
-107.9687431844311
 20
1669.695234973328
 30
0.0
 11
-225.0217433588914
 21
1669.695234973328
 31
0.0
  0
LINE
  5
1EF4
330
176C
100
AcDbEntity
  8
Object
  6
HIDDEN2
 62
     0
370
    -2
100
AcDbLine
 10
-99.66874318443109
 20
1698.745234973329
 30
0.0
 11
-225.0217433588914
 21
1698.745234973329
 31
0.0
  0
LINE
  5
1EF5
330
176C
100
AcDbEntity
  8
Object
  6
HIDDEN2
 62
     0
370
    -2
100
AcDbLine
 10
-224.0217433588914
 20
1661.695234973328
 30
0.0
 11
-224.0217433588914
 21
1653.695234973328
 31
0.0
  0
LINE
  5
1EF6
330
176C
100
AcDbEntity
  8
Object
  6
HIDDEN2
 62
     0
370
    -2
100
AcDbLine
 10
-224.0217433588914
 20
1706.745234973329
 30
0.0
 11
-224.0217433588914
 21
1714.745234973329
 31
0.0
  0
MTEXT
  5
1EF7
330
176C
100
AcDbEntity
  8
Object
  6
HIDDEN2
 62
     0
100
AcDbMText
 10
-228.9395892542889
 20
1684.038997185188
 30
0.0
 40
8.0
 41
0.0
 71
     5
 72
     1
  1
\A1;Ｃ
 11
0.9999999998476914
 21
0.0000174532925191
 31
0.0
 73
     1
 44
1.0
1001
ACAD
1000
MTEXTBEGIN
1070
    73
1070
     1
1070
    44
1040
1.0
1070
    74
1070
     0
1000
MTEXTEND
  0
LINE
  5
1EF8
330
176C
100
AcDbEntity
  8
Object
  6
HIDDEN2
 62
     0
370
    -2
100
AcDbLine
 10
-224.0217433588914
 20
1669.695234973328
 30
0.0
 11
-224.0217433588914
 21
1698.745234973329
 31
0.0
  0
INSERT
  5
1EF9
330
176C
100
AcDbEntity
  8
Object
  6
HIDDEN2
 62
     0
370
    -2
100
AcDbBlockReference
  2
_Open30
 10
-224.0217433588914
 20
1669.695234973328
 30
0.0
 41
8.0
 42
8.0
 43
8.0
 50
90.0
  0
INSERT
  5
1EFA
330
176C
100
AcDbEntity
  8
Object
  6
HIDDEN2
 62
     0
370
    -2
100
AcDbBlockReference
  2
_Open30
 10
-224.0217433588914
 20
1698.745234973329
 30
0.0
 41
8.0
 42
8.0
 43
8.0
 50
270.0
  0
POINT
  5
1EFB
330
176C
100
AcDbEntity
  8
Defpoints
  6
HIDDEN2
 62
     0
100
AcDbPoint
 10
-106.9687431844311
 20
1669.695234973328
 30
0.0
  0
POINT
  5
1EFC
330
176C
100
AcDbEntity
  8
Defpoints
  6
HIDDEN2
 62
     0
100
AcDbPoint
 10
-98.66874318443109
 20
1698.745234973329
 30
0.0
  0
POINT
  5
1EFD
330
176C
100
AcDbEntity
  8
Defpoints
  6
HIDDEN2
 62
     0
100
AcDbPoint
 10
-224.0217433588914
 20
1698.745234973329
 30
0.0
  0
ENDBLK
  5
1777
330
176C
100
AcDbEntity
  8
0
100
AcDbBlockEnd
  0
BLOCK
  5
1782
330
1778
100
AcDbEntity
  8
0
100
AcDbBlockBegin
  2
*D34
 70
     1
 10
0.0
 20
0.0
 30
0.0
  3
*D34
  1

  0
LINE
  5
1DE3
330
1778
100
AcDbEntity
  8
Object
  6
HIDDEN2
 62
     0
370
    -2
100
AcDbLine
 10
-189.9687431844311
 20
1668.695234973329
 30
0.0
 11
-189.9687431844311
 21
1647.359341315376
 31
0.0
  0
LINE
  5
1DE4
330
1778
100
AcDbEntity
  8
Object
  6
HIDDEN2
 62
     0
370
    -2
100
AcDbLine
 10
-106.9687431844311
 20
1668.695234973329
 30
0.0
 11
-106.9687431844311
 21
1647.359341315376
 31
0.0
  0
LINE
  5
1DE5
330
1778
100
AcDbEntity
  8
Object
  6
HIDDEN2
 62
     0
370
    -2
100
AcDbLine
 10
-181.9687431844311
 20
1648.359341315376
 30
0.0
 11
-114.9687431844311
 21
1648.359341315376
 31
0.0
  0
INSERT
  5
1DE6
330
1778
100
AcDbEntity
  8
Object
  6
HIDDEN2
 62
     0
370
    -2
100
AcDbBlockReference
  2
_Open30
 10
-189.9687431844311
 20
1648.359341315376
 30
0.0
 41
8.0
 42
8.0
 43
8.0
 50
180.0
  0
INSERT
  5
1DE7
330
1778
100
AcDbEntity
  8
Object
  6
HIDDEN2
 62
     0
370
    -2
100
AcDbBlockReference
  2
_Open30
 10
-106.9687431844311
 20
1648.359341315376
 30
0.0
 41
8.0
 42
8.0
 43
8.0
  0
MTEXT
  5
1DE8
330
1778
100
AcDbEntity
  8
Object
  6
HIDDEN2
 62
     0
100
AcDbMText
 10
-148.4687431844311
 20
1655.359341315376
 30
0.0
 40
8.0
 41
0.0
 71
     5
 72
     1
  1
\A1;Ａ
 73
     1
 44
1.0
1001
ACAD
1000
MTEXTBEGIN
1070
    73
1070
     1
1070
    44
1040
1.0
1070
    74
1070
     0
1000
MTEXTEND
  0
POINT
  5
1DE9
330
1778
100
AcDbEntity
  8
Defpoints
  6
HIDDEN2
 62
     0
100
AcDbPoint
 10
-189.9687431844311
 20
1669.695234973328
 30
0.0
  0
POINT
  5
1DEA
330
1778
100
AcDbEntity
  8
Defpoints
  6
HIDDEN2
 62
     0
100
AcDbPoint
 10
-106.9687431844311
 20
1669.695234973328
 30
0.0
  0
POINT
  5
1DEB
330
1778
100
AcDbEntity
  8
Defpoints
  6
HIDDEN2
 62
     0
100
AcDbPoint
 10
-106.9687431844311
 20
1648.359341315376
 30
0.0
  0
ENDBLK
  5
1783
330
1778
100
AcDbEntity
  8
0
100
AcDbBlockEnd
  0
BLOCK
  5
186F
330
1866
100
AcDbEntity
  8
0
100
AcDbBlockBegin
  2
*D35
 70
     1
 10
0.0
 20
0.0
 30
0.0
  3
*D35
  1

  0
LINE
  5
1901
330
1866
100
AcDbEntity
  8
作図線
 62
     0
370
    -2
100
AcDbLine
 10
105.6122797551712
 20
1861.370517588344
 30
0.0
 11
124.1844714916382
 21
1844.431058615735
 31
0.0
  0
LINE
  5
1902
330
1866
100
AcDbEntity
  8
作図線
 62
     0
370
    -2
100
AcDbLine
 10
203.8606742181201
 20
1771.75941133092
 30
0.0
 11
206.8160229839392
 21
1769.063875452404
 31
0.0
  0
MTEXT
  5
1903
330
1866
100
AcDbEntity
  8
作図線
 62
     0
100
AcDbMText
 10
115.7792951341974
 20
1856.83448621139
 30
0.0
 40
5.0
 41
0.0
 71
     5
 72
     1
  1
\A1;\U+220599.84
 11
0.7388371914547665
 21
-0.6738839696292182
 31
0.0
 73
     1
 44
1.0
1001
ACAD
1000
MTEXTBEGIN
1070
    73
1070
     1
1070
    44
1040
1.0
1070
    74
1070
     0
1000
MTEXTEND
  0
LINE
  5
1904
330
1866
100
AcDbEntity
  8
作図線
 62
     0
370
    -2
100
AcDbLine
 10
200.9053254523011
 20
1774.454947209437
 30
0.0
 11
127.1398202574572
 21
1841.735522737218
 31
0.0
  0
INSERT
  5
1905
330
1866
100
AcDbEntity
  8
作図線
 62
     0
370
    -2
100
AcDbBlockReference
  2
_Open30
 10
200.9053254523011
 20
1774.454947209437
 30
0.0
 41
4.0
 42
4.0
 43
4.0
 50
137.6324561069713
  0
INSERT
  5
1906
330
1866
100
AcDbEntity
  8
作図線
 62
     0
370
    -2
100
AcDbBlockReference
  2
_Open30
 10
127.1398202574572
 20
1841.735522737218
 30
0.0
 41
4.0
 42
4.0
 43
4.0
 50
317.6324561069713
  0
POINT
  5
1907
330
1866
100
AcDbEntity
  8
Defpoints
 62
     0
100
AcDbPoint
 10
127.1398202574572
 20
1841.735522737218
 30
0.0
  0
POINT
  5
1908
330
1866
100
AcDbEntity
  8
Defpoints
 62
     0
100
AcDbPoint
 10
200.9053254523011
 20
1774.454947209437
 30
0.0
  0
ENDBLK
  5
1870
330
1866
100
AcDbEntity
  8
0
100
AcDbBlockEnd
  0
BLOCK
  5
1BCC
330
1BC2
100
AcDbEntity
  8
0
100
AcDbBlockBegin
  2
*D36
 70
     1
 10
0.0
 20
0.0
 30
0.0
  3
*D36
  1

  0
LINE
  5
1DEC
330
1BC2
100
AcDbEntity
  8
Object
  6
HIDDEN2
 62
     0
370
    -2
100
AcDbLine
 10
-97.66874318443107
 20
1703.065234973329
 30
0.0
 11
-97.66874318443107
 21
1724.441977057164
 31
0.0
  0
LINE
  5
1DED
330
1BC2
100
AcDbEntity
  8
Object
  6
HIDDEN2
 62
     0
370
    -2
100
AcDbLine
 10
-198.2687431844311
 20
1703.065234973329
 30
0.0
 11
-198.2687431844311
 21
1724.441977057164
 31
0.0
  0
LINE
  5
1DEE
330
1BC2
100
AcDbEntity
  8
Object
  6
HIDDEN2
 62
     0
370
    -2
100
AcDbLine
 10
-105.6687431844311
 20
1723.441977057165
 30
0.0
 11
-190.2687431844311
 21
1723.441977057165
 31
0.0
  0
INSERT
  5
1DEF
330
1BC2
100
AcDbEntity
  8
Object
  6
HIDDEN2
 62
     0
370
    -2
100
AcDbBlockReference
  2
_Open30
 10
-97.66874318443107
 20
1723.441977057165
 30
0.0
 41
8.0
 42
8.0
 43
8.0
  0
INSERT
  5
1DF0
330
1BC2
100
AcDbEntity
  8
Object
  6
HIDDEN2
 62
     0
370
    -2
100
AcDbBlockReference
  2
_Open30
 10
-198.2687431844311
 20
1723.441977057165
 30
0.0
 41
8.0
 42
8.0
 43
8.0
 50
180.0
  0
MTEXT
  5
1DF1
330
1BC2
100
AcDbEntity
  8
Object
  6
HIDDEN2
 62
     0
100
AcDbMText
 10
-147.9687431844311
 20
1730.441977057165
 30
0.0
 40
8.0
 41
0.0
 71
     5
 72
     1
  1
\A1;Ｂ
 73
     1
 44
1.0
1001
ACAD
1000
MTEXTBEGIN
1070
    73
1070
     1
1070
    44
1040
1.0
1070
    74
1070
     0
1000
MTEXTEND
  0
POINT
  5
1DF2
330
1BC2
100
AcDbEntity
  8
Defpoints
  6
HIDDEN2
 62
     0
100
AcDbPoint
 10
-97.66874318443107
 20
1702.065234973328
 30
0.0
  0
POINT
  5
1DF3
330
1BC2
100
AcDbEntity
  8
Defpoints
  6
HIDDEN2
 62
     0
100
AcDbPoint
 10
-198.2687431844311
 20
1702.065234973328
 30
0.0
  0
POINT
  5
1DF4
330
1BC2
100
AcDbEntity
  8
Defpoints
  6
HIDDEN2
 62
     0
100
AcDbPoint
 10
-198.2687431844311
 20
1723.441977057165
 30
0.0
  0
ENDBLK
  5
1BCD
330
1BC2
100
AcDbEntity
  8
0
100
AcDbBlockEnd
  0
BLOCK
  5
1C47
330
1C3C
100
AcDbEntity
  8
0
100
AcDbBlockBegin
  2
*D37
 70
     1
 10
0.0
 20
0.0
 30
0.0
  3
*D37
  1

  0
LINE
  5
1C4A
330
1C3C
100
AcDbEntity
  8
作図線
 62
     0
370
    -2
100
AcDbLine
 10
177.4825728548782
 20
1784.78183110345
 30
0.0
 11
183.0141070116544
 21
1775.20093290011
 31
0.0
  0
ARC
  5
1C4B
330
1C3C
100
AcDbEntity
  8
作図線
 62
     0
370
    -2
100
AcDbCircle
 10
164.0225728548793
 20
1808.095234973328
 30
0.0
 40
36.98306831355331
100
AcDbArc
 50
276.1999986503945
 51
293.8000013496029
  0
INSERT
  5
1C4C
330
1C3C
100
AcDbEntity
  8
作図線
 62
     0
370
    -2
100
AcDbBlockReference
  2
_Open30
 10
164.0225728548793
 20
1771.112166659775
 30
0.0
 41
4.0
 42
4.0
 43
4.0
 50
183.0999993251971
  0
INSERT
  5
1C4D
330
1C3C
100
AcDbEntity
  8
作図線
 62
     0
370
    -2
100
AcDbBlockReference
  2
_Open30
 10
182.5141070116544
 20
1776.066958303895
 30
0.0
 41
4.0
 42
4.0
 43
4.0
 50
26.9000006748001
  0
MTEXT
  5
1C4E
330
1C3C
100
AcDbEntity
  8
作図線
 62
     0
100
AcDbMText
 10
172.6886286228949
 20
1775.753074545865
 30
0.0
 40
5.0
 41
0.0
 71
     5
 72
     1
  1
\A1;30°
 11
0.9659258262890741
 21
0.258819045102499
 31
0.0
 73
     1
 44
1.0
1001
ACAD
1000
MTEXTBEGIN
1070
    73
1070
     1
1070
    44
1040
1.0
1070
    74
1070
     0
1000
MTEXTEND
  0
POINT
  5
1C4F
330
1C3C
100
AcDbEntity
  8
Defpoints
 62
     0
100
AcDbPoint
 10
170.4446152720588
 20
1771.67402256796
 30
0.0
  0
POINT
  5
1C50
330
1C3C
100
AcDbEntity
  8
Defpoints
 62
     0
100
AcDbPoint
 10
164.0225728548793
 20
1808.095234973328
 30
0.0
  0
POINT
  5
1C51
330
1C3C
100
AcDbEntity
  8
Defpoints
 62
     0
100
AcDbPoint
 10
164.0225728548793
 20
1858.015234973328
 30
0.0
  0
POINT
  5
1C52
330
1C3C
100
AcDbEntity
  8
Defpoints
 62
     0
100
AcDbPoint
 10
164.0225728548793
 20
1758.175234973328
 30
0.0
  0
POINT
  5
1C53
330
1C3C
100
AcDbEntity
  8
Defpoints
 62
     0
100
AcDbPoint
 10
176.9825728548782
 20
1785.647856507235
 30
0.0
  0
ENDBLK
  5
1C48
330
1C3C
100
AcDbEntity
  8
0
100
AcDbBlockEnd
  0
ENDSEC
  0
SECTION
  2
ENTITIES
  0
LINE
  5
15F7
330
1F
100
AcDbEntity
  8
Bracket
 62
     0
100
AcDbLine
 10
-145.4807431844316
 20
1805.107234973329
 30
0.0
 11
-151.4567431844318
 21
1805.107234973329
 31
0.0
  0
LINE
  5
15F8
330
1F
100
AcDbEntity
  8
Bracket
 62
     0
100
AcDbLine
 10
-145.4807431844316
 20
1811.083234973328
 30
0.0
 11
-151.4567431844318
 21
1811.083234973328
 31
0.0
  0
LINE
  5
15F9
330
1F
100
AcDbEntity
  8
Bracket
 62
     0
100
AcDbLine
 10
-151.4567431844318
 20
1805.107234973329
 30
0.0
 11
-151.4567431844318
 21
1811.083234973328
 31
0.0
  0
LINE
  5
15FA
330
1F
100
AcDbEntity
  8
Bracket
 62
     0
100
AcDbLine
 10
-145.4807431844316
 20
1805.107234973329
 30
0.0
 11
-145.4807431844315
 21
1811.083234973328
 31
0.0
  0
CIRCLE
  5
15FB
330
1F
100
AcDbEntity
  8
Bracket
 62
     0
100
AcDbCircle
 10
-148.4687431844317
 20
1808.095234973329
 30
0.0
 40
49.8
  0
LINE
  5
15FC
330
1F
100
AcDbEntity
  8
Bracket
 62
     0
100
AcDbLine
 10
-142.9907431844316
 20
1805.107234973329
 30
0.0
 11
-142.9907431844315
 21
1811.083234973328
 31
0.0
  0
LINE
  5
15FD
330
1F
100
AcDbEntity
  8
Bracket
 62
     0
100
AcDbLine
 10
-137.0147431844315
 20
1805.107234973329
 30
0.0
 11
-137.0147431844315
 21
1811.083234973328
 31
0.0
  0
LINE
  5
15FE
330
1F
100
AcDbEntity
  8
Bracket
 62
     0
100
AcDbLine
 10
-142.9907431844316
 20
1805.107234973329
 30
0.0
 11
-142.9907431844316
 21
1811.083234973328
 31
0.0
  0
LINE
  5
15FF
330
1F
100
AcDbEntity
  8
Bracket
 62
     0
100
AcDbLine
 10
-137.0147431844315
 20
1805.107234973329
 30
0.0
 11
-142.9907431844316
 21
1805.107234973329
 31
0.0
  0
LINE
  5
1600
330
1F
100
AcDbEntity
  8
Bracket
 62
     0
100
AcDbLine
 10
-137.0147431844315
 20
1811.083234973328
 30
0.0
 11
-142.9907431844316
 21
1811.083234973328
 31
0.0
  0
LINE
  5
1601
330
1F
100
AcDbEntity
  8
Bracket
 62
     0
100
AcDbLine
 10
-153.9467431844318
 20
1805.107234973329
 30
0.0
 11
-153.9467431844318
 21
1811.083234973328
 31
0.0
  0
LINE
  5
1602
330
1F
100
AcDbEntity
  8
Bracket
 62
     0
100
AcDbLine
 10
-145.4807431844316
 20
1813.573234973329
 30
0.0
 11
-151.4567431844318
 21
1813.573234973329
 31
0.0
  0
LINE
  5
1603
330
1F
100
AcDbEntity
  8
Bracket
 62
     0
100
AcDbLine
 10
-120.0827431844313
 20
1811.083234973328
 30
0.0
 11
-126.0587431844315
 21
1811.083234973328
 31
0.0
  0
LINE
  5
1604
330
1F
100
AcDbEntity
  8
Bracket
 62
     0
100
AcDbLine
 10
-120.0827431844313
 20
1805.107234973329
 30
0.0
 11
-126.0587431844315
 21
1805.107234973329
 31
0.0
  0
LINE
  5
1605
330
1F
100
AcDbEntity
  8
Bracket
 62
     0
100
AcDbLine
 10
-126.0587431844315
 20
1805.107234973329
 30
0.0
 11
-126.0587431844315
 21
1811.083234973328
 31
0.0
  0
LINE
  5
1606
330
1F
100
AcDbEntity
  8
Bracket
 62
     0
100
AcDbLine
 10
-126.0587431844315
 20
1805.107234973329
 30
0.0
 11
-126.0587431844314
 21
1811.083234973328
 31
0.0
  0
LINE
  5
1607
330
1F
100
AcDbEntity
  8
Bracket
 62
     0
100
AcDbLine
 10
-128.5487431844315
 20
1805.107234973329
 30
0.0
 11
-128.5487431844314
 21
1811.083234973328
 31
0.0
  0
LINE
  5
1608
330
1F
100
AcDbEntity
  8
Bracket
 62
     0
100
AcDbLine
 10
-134.5247431844315
 20
1805.107234973329
 30
0.0
 11
-134.5247431844315
 21
1811.083234973328
 31
0.0
  0
LINE
  5
1609
330
1F
100
AcDbEntity
  8
Bracket
 62
     0
100
AcDbLine
 10
-128.5487431844315
 20
1805.107234973329
 30
0.0
 11
-134.5247431844315
 21
1805.107234973329
 31
0.0
  0
LINE
  5
160A
330
1F
100
AcDbEntity
  8
Bracket
 62
     0
100
AcDbLine
 10
-128.5487431844315
 20
1811.083234973328
 30
0.0
 11
-134.5247431844315
 21
1811.083234973328
 31
0.0
  0
LINE
  5
160B
330
1F
100
AcDbEntity
  8
Bracket
 62
     0
100
AcDbLine
 10
-120.0827431844313
 20
1805.107234973329
 30
0.0
 11
-120.0827431844312
 21
1811.083234973328
 31
0.0
  0
LINE
  5
160C
330
1F
100
AcDbEntity
  8
Bracket
 62
     0
100
AcDbLine
 10
-111.6167431844312
 20
1805.107234973329
 30
0.0
 11
-111.6167431844312
 21
1811.083234973328
 31
0.0
  0
LINE
  5
160D
330
1F
100
AcDbEntity
  8
Bracket
 62
     0
100
AcDbLine
 10
-117.5927431844313
 20
1805.107234973329
 30
0.0
 11
-117.5927431844313
 21
1811.083234973328
 31
0.0
  0
LINE
  5
160E
330
1F
100
AcDbEntity
  8
Bracket
 62
     0
100
AcDbLine
 10
-111.6167431844312
 20
1805.107234973329
 30
0.0
 11
-117.5927431844313
 21
1805.107234973329
 31
0.0
  0
LINE
  5
160F
330
1F
100
AcDbEntity
  8
Bracket
 62
     0
100
AcDbLine
 10
-111.6167431844312
 20
1811.083234973328
 30
0.0
 11
-117.5927431844313
 21
1811.083234973328
 31
0.0
  0
LINE
  5
1610
330
1F
100
AcDbEntity
  8
Bracket
 62
     0
100
AcDbLine
 10
-137.0147431844315
 20
1819.549234973329
 30
0.0
 11
-142.9907431844316
 21
1819.549234973329
 31
0.0
  0
LINE
  5
1611
330
1F
100
AcDbEntity
  8
Bracket
 62
     0
100
AcDbLine
 10
-137.0147431844315
 20
1813.573234973329
 30
0.0
 11
-142.9907431844316
 21
1813.573234973329
 31
0.0
  0
LINE
  5
1612
330
1F
100
AcDbEntity
  8
Bracket
 62
     0
100
AcDbLine
 10
-142.9907431844316
 20
1813.573234973329
 30
0.0
 11
-142.9907431844316
 21
1819.549234973329
 31
0.0
  0
LINE
  5
1613
330
1F
100
AcDbEntity
  8
Bracket
 62
     0
100
AcDbLine
 10
-142.9907431844316
 20
1813.573234973329
 30
0.0
 11
-142.9907431844315
 21
1819.549234973328
 31
0.0
  0
LINE
  5
1614
330
1F
100
AcDbEntity
  8
Bracket
 62
     0
100
AcDbLine
 10
-145.4807431844316
 20
1813.573234973329
 30
0.0
 11
-145.4807431844315
 21
1819.549234973329
 31
0.0
  0
LINE
  5
1615
330
1F
100
AcDbEntity
  8
Bracket
 62
     0
100
AcDbLine
 10
-151.4567431844318
 20
1813.573234973329
 30
0.0
 11
-151.4567431844318
 21
1819.549234973329
 31
0.0
  0
LINE
  5
1616
330
1F
100
AcDbEntity
  8
Bracket
 62
     0
100
AcDbLine
 10
-145.4807431844316
 20
1813.573234973329
 30
0.0
 11
-151.4567431844318
 21
1813.573234973329
 31
0.0
  0
LINE
  5
1617
330
1F
100
AcDbEntity
  8
Bracket
 62
     0
100
AcDbLine
 10
-145.4807431844316
 20
1819.549234973329
 30
0.0
 11
-151.4567431844318
 21
1819.549234973329
 31
0.0
  0
LINE
  5
1618
330
1F
100
AcDbEntity
  8
Bracket
 62
     0
100
AcDbLine
 10
-120.0827431844313
 20
1813.573234973329
 30
0.0
 11
-126.0587431844315
 21
1813.573234973329
 31
0.0
  0
LINE
  5
1619
330
1F
100
AcDbEntity
  8
Bracket
 62
     0
100
AcDbLine
 10
-120.0827431844313
 20
1819.549234973329
 30
0.0
 11
-126.0587431844315
 21
1819.549234973329
 31
0.0
  0
LINE
  5
161A
330
1F
100
AcDbEntity
  8
Bracket
 62
     0
100
AcDbLine
 10
-134.5247431844315
 20
1813.573234973329
 30
0.0
 11
-134.5247431844315
 21
1819.549234973329
 31
0.0
  0
LINE
  5
161B
330
1F
100
AcDbEntity
  8
Bracket
 62
     0
100
AcDbLine
 10
-128.5487431844315
 20
1813.573234973329
 30
0.0
 11
-128.5487431844314
 21
1819.549234973329
 31
0.0
  0
LINE
  5
161C
330
1F
100
AcDbEntity
  8
Bracket
 62
     0
100
AcDbLine
 10
-126.0587431844315
 20
1813.573234973329
 30
0.0
 11
-126.0587431844314
 21
1819.549234973328
 31
0.0
  0
LINE
  5
161D
330
1F
100
AcDbEntity
  8
Bracket
 62
     0
100
AcDbLine
 10
-126.0587431844315
 20
1813.573234973329
 30
0.0
 11
-126.0587431844315
 21
1819.549234973329
 31
0.0
  0
LINE
  5
161E
330
1F
100
AcDbEntity
  8
Bracket
 62
     0
100
AcDbLine
 10
-137.0147431844315
 20
1813.573234973329
 30
0.0
 11
-137.0147431844315
 21
1819.549234973329
 31
0.0
  0
LINE
  5
161F
330
1F
100
AcDbEntity
  8
Bracket
 62
     0
100
AcDbLine
 10
-128.5487431844315
 20
1813.573234973329
 30
0.0
 11
-134.5247431844315
 21
1813.573234973329
 31
0.0
  0
LINE
  5
1620
330
1F
100
AcDbEntity
  8
Bracket
 62
     0
100
AcDbLine
 10
-128.5487431844315
 20
1819.549234973329
 30
0.0
 11
-134.5247431844315
 21
1819.549234973329
 31
0.0
  0
LINE
  5
1621
330
1F
100
AcDbEntity
  8
Bracket
 62
     0
100
AcDbLine
 10
-117.5927431844313
 20
1813.573234973329
 30
0.0
 11
-117.5927431844313
 21
1819.549234973329
 31
0.0
  0
LINE
  5
1622
330
1F
100
AcDbEntity
  8
Bracket
 62
     0
100
AcDbLine
 10
-111.6167431844312
 20
1813.573234973329
 30
0.0
 11
-111.6167431844312
 21
1818.077343768567
 31
0.0
  0
LINE
  5
1623
330
1F
100
AcDbEntity
  8
Bracket
 62
     0
100
AcDbLine
 10
-120.0827431844313
 20
1813.573234973329
 30
0.0
 11
-120.0827431844312
 21
1819.549234973329
 31
0.0
  0
LINE
  5
1624
330
1F
100
AcDbEntity
  8
Bracket
 62
     0
100
AcDbLine
 10
-111.6167431844312
 20
1813.573234973329
 30
0.0
 11
-117.5927431844313
 21
1813.573234973329
 31
0.0
  0
LINE
  5
1625
330
1F
100
AcDbEntity
  8
Bracket
 62
     0
100
AcDbLine
 10
-112.0473444743327
 20
1819.549234973329
 30
0.0
 11
-117.5927431844313
 21
1819.549234973329
 31
0.0
  0
LINE
  5
1626
330
1F
100
AcDbEntity
  8
Bracket
 62
     0
100
AcDbLine
 10
-137.0147431844316
 20
1822.039234973329
 30
0.0
 11
-142.9907431844317
 21
1822.039234973329
 31
0.0
  0
LINE
  5
1627
330
1F
100
AcDbEntity
  8
Bracket
 62
     0
100
AcDbLine
 10
-137.0147431844316
 20
1828.015234973329
 30
0.0
 11
-142.9907431844317
 21
1828.015234973329
 31
0.0
  0
LINE
  5
1628
330
1F
100
AcDbEntity
  8
Bracket
 62
     0
100
AcDbLine
 10
-151.4567431844318
 20
1822.039234973329
 30
0.0
 11
-151.4567431844318
 21
1828.015234973329
 31
0.0
  0
LINE
  5
1629
330
1F
100
AcDbEntity
  8
Bracket
 62
     0
100
AcDbLine
 10
-145.4807431844316
 20
1822.039234973329
 30
0.0
 11
-145.4807431844316
 21
1828.015234973329
 31
0.0
  0
LINE
  5
162A
330
1F
100
AcDbEntity
  8
Bracket
 62
     0
100
AcDbLine
 10
-142.9907431844317
 20
1822.039234973329
 30
0.0
 11
-142.9907431844316
 21
1828.015234973329
 31
0.0
  0
LINE
  5
162B
330
1F
100
AcDbEntity
  8
Bracket
 62
     0
100
AcDbLine
 10
-142.9907431844317
 20
1822.039234973329
 30
0.0
 11
-142.9907431844317
 21
1828.015234973329
 31
0.0
  0
LINE
  5
162C
330
1F
100
AcDbEntity
  8
Bracket
 62
     0
100
AcDbLine
 10
-145.4807431844316
 20
1822.039234973329
 30
0.0
 11
-151.4567431844318
 21
1822.039234973329
 31
0.0
  0
LINE
  5
162D
330
1F
100
AcDbEntity
  8
Bracket
 62
     0
100
AcDbLine
 10
-145.4807431844316
 20
1822.039234973329
 30
0.0
 11
-151.4567431844318
 21
1822.039234973329
 31
0.0
  0
LINE
  5
162E
330
1F
100
AcDbEntity
  8
Bracket
 62
     0
100
AcDbLine
 10
-145.4807431844316
 20
1828.015234973329
 30
0.0
 11
-151.4567431844318
 21
1828.015234973329
 31
0.0
  0
LINE
  5
162F
330
1F
100
AcDbEntity
  8
Bracket
 62
     0
100
AcDbLine
 10
-120.0827431844314
 20
1822.039234973329
 30
0.0
 11
-120.0827431844313
 21
1828.015234973329
 31
0.0
  0
LINE
  5
1630
330
1F
100
AcDbEntity
  8
Bracket
 62
     0
100
AcDbLine
 10
-117.5927431844314
 20
1822.039234973329
 30
0.0
 11
-117.5927431844314
 21
1828.015234973329
 31
0.0
  0
LINE
  5
1631
330
1F
100
AcDbEntity
  8
Bracket
 62
     0
100
AcDbLine
 10
-137.0147431844316
 20
1822.039234973329
 30
0.0
 11
-137.0147431844315
 21
1828.015234973329
 31
0.0
  0
LINE
  5
1632
330
1F
100
AcDbEntity
  8
Bracket
 62
     0
100
AcDbLine
 10
-126.0587431844315
 20
1822.039234973329
 30
0.0
 11
-126.0587431844315
 21
1828.015234973329
 31
0.0
  0
LINE
  5
1633
330
1F
100
AcDbEntity
  8
Bracket
 62
     0
100
AcDbLine
 10
-126.0587431844315
 20
1822.039234973329
 30
0.0
 11
-126.0587431844315
 21
1828.015234973329
 31
0.0
  0
LINE
  5
1634
330
1F
100
AcDbEntity
  8
Bracket
 62
     0
100
AcDbLine
 10
-128.5487431844315
 20
1822.039234973329
 30
0.0
 11
-128.5487431844315
 21
1828.015234973329
 31
0.0
  0
LINE
  5
1635
330
1F
100
AcDbEntity
  8
Bracket
 62
     0
100
AcDbLine
 10
-134.5247431844315
 20
1822.039234973329
 30
0.0
 11
-134.5247431844315
 21
1828.015234973329
 31
0.0
  0
LINE
  5
1636
330
1F
100
AcDbEntity
  8
Bracket
 62
     0
100
AcDbLine
 10
-120.0827431844314
 20
1822.039234973329
 30
0.0
 11
-126.0587431844315
 21
1822.039234973329
 31
0.0
  0
LINE
  5
1637
330
1F
100
AcDbEntity
  8
Bracket
 62
     0
100
AcDbLine
 10
-128.5487431844315
 20
1822.039234973329
 30
0.0
 11
-134.5247431844315
 21
1822.039234973329
 31
0.0
  0
LINE
  5
1638
330
1F
100
AcDbEntity
  8
Bracket
 62
     0
100
AcDbLine
 10
-112.9261312376431
 20
1822.039234973329
 30
0.0
 11
-117.5927431844314
 21
1822.039234973329
 31
0.0
  0
LINE
  5
1639
330
1F
100
AcDbEntity
  8
Bracket
 62
     0
100
AcDbLine
 10
-120.0827431844314
 20
1828.015234973329
 30
0.0
 11
-126.0587431844315
 21
1828.015234973329
 31
0.0
  0
LINE
  5
163A
330
1F
100
AcDbEntity
  8
Bracket
 62
     0
100
AcDbLine
 10
-128.5487431844315
 20
1828.015234973329
 30
0.0
 11
-134.5247431844315
 21
1828.015234973329
 31
0.0
  0
LINE
  5
163B
330
1F
100
AcDbEntity
  8
Bracket
 62
     0
100
AcDbLine
 10
-115.897191179653
 20
1828.015234973329
 30
0.0
 11
-117.5927431844314
 21
1828.015234973329
 31
0.0
  0
LINE
  5
163C
330
1F
100
AcDbEntity
  8
Bracket
 62
     0
100
AcDbLine
 10
-138.4866343891919
 20
1844.947234973329
 30
0.0
 11
-142.9907431844317
 21
1844.947234973329
 31
0.0
  0
LINE
  5
163D
330
1F
100
AcDbEntity
  8
Bracket
 62
     0
100
AcDbLine
 10
-137.0147431844316
 20
1838.971234973328
 30
0.0
 11
-142.9907431844317
 21
1838.971234973328
 31
0.0
  0
LINE
  5
163E
330
1F
100
AcDbEntity
  8
Bracket
 62
     0
100
AcDbLine
 10
-137.0147431844315
 20
1830.505234973329
 30
0.0
 11
-142.9907431844316
 21
1830.505234973329
 31
0.0
  0
LINE
  5
163F
330
1F
100
AcDbEntity
  8
Bracket
 62
     0
100
AcDbLine
 10
-137.0147431844315
 20
1836.481234973329
 30
0.0
 11
-142.9907431844316
 21
1836.481234973329
 31
0.0
  0
LINE
  5
1640
330
1F
100
AcDbEntity
  8
Bracket
 62
     0
100
AcDbLine
 10
-151.4567431844318
 20
1830.505234973329
 30
0.0
 11
-151.4567431844318
 21
1836.481234973329
 31
0.0
  0
LINE
  5
1641
330
1F
100
AcDbEntity
  8
Bracket
 62
     0
100
AcDbLine
 10
-145.4807431844316
 20
1830.505234973329
 30
0.0
 11
-145.4807431844315
 21
1836.481234973329
 31
0.0
  0
LINE
  5
1642
330
1F
100
AcDbEntity
  8
Bracket
 62
     0
100
AcDbLine
 10
-142.9907431844316
 20
1830.505234973329
 30
0.0
 11
-142.9907431844315
 21
1836.481234973329
 31
0.0
  0
LINE
  5
1643
330
1F
100
AcDbEntity
  8
Bracket
 62
     0
100
AcDbLine
 10
-142.9907431844316
 20
1830.505234973329
 30
0.0
 11
-142.9907431844316
 21
1836.481234973329
 31
0.0
  0
LINE
  5
1644
330
1F
100
AcDbEntity
  8
Bracket
 62
     0
100
AcDbLine
 10
-145.4807431844316
 20
1830.505234973329
 30
0.0
 11
-151.4567431844318
 21
1830.505234973329
 31
0.0
  0
LINE
  5
1645
330
1F
100
AcDbEntity
  8
Bracket
 62
     0
100
AcDbLine
 10
-145.4807431844316
 20
1830.505234973329
 30
0.0
 11
-151.4567431844318
 21
1830.505234973329
 31
0.0
  0
LINE
  5
1646
330
1F
100
AcDbEntity
  8
Bracket
 62
     0
100
AcDbLine
 10
-142.9907431844317
 20
1838.971234973328
 30
0.0
 11
-142.9907431844317
 21
1844.947234973329
 31
0.0
  0
LINE
  5
1647
330
1F
100
AcDbEntity
  8
Bracket
 62
     0
100
AcDbLine
 10
-142.9907431844317
 20
1838.971234973328
 30
0.0
 11
-142.9907431844316
 21
1844.947234973329
 31
0.0
  0
LINE
  5
1648
330
1F
100
AcDbEntity
  8
Bracket
 62
     0
100
AcDbLine
 10
-145.4807431844316
 20
1838.971234973328
 30
0.0
 11
-145.4807431844316
 21
1844.947234973329
 31
0.0
  0
LINE
  5
1649
330
1F
100
AcDbEntity
  8
Bracket
 62
     0
100
AcDbLine
 10
-151.4567431844318
 20
1838.971234973328
 30
0.0
 11
-151.4567431844318
 21
1844.947234973329
 31
0.0
  0
LINE
  5
164A
330
1F
100
AcDbEntity
  8
Bracket
 62
     0
100
AcDbLine
 10
-145.4807431844316
 20
1838.971234973328
 30
0.0
 11
-151.4567431844318
 21
1838.971234973328
 31
0.0
  0
LINE
  5
164B
330
1F
100
AcDbEntity
  8
Bracket
 62
     0
100
AcDbLine
 10
-145.4807431844316
 20
1838.971234973328
 30
0.0
 11
-151.4567431844318
 21
1838.971234973328
 31
0.0
  0
LINE
  5
164C
330
1F
100
AcDbEntity
  8
Bracket
 62
     0
100
AcDbLine
 10
-145.4807431844316
 20
1836.481234973329
 30
0.0
 11
-151.4567431844318
 21
1836.481234973329
 31
0.0
  0
LINE
  5
164D
330
1F
100
AcDbEntity
  8
Bracket
 62
     0
100
AcDbLine
 10
-145.4807431844316
 20
1844.947234973329
 30
0.0
 11
-151.4567431844318
 21
1844.947234973329
 31
0.0
  0
LINE
  5
164E
330
1F
100
AcDbEntity
  8
Bracket
 62
     0
100
AcDbLine
 10
-120.0827431844313
 20
1830.505234973329
 30
0.0
 11
-120.0827431844313
 21
1833.628495712999
 31
0.0
  0
LINE
  5
164F
330
1F
100
AcDbEntity
  8
Bracket
 62
     0
100
AcDbLine
 10
-137.0147431844315
 20
1830.505234973329
 30
0.0
 11
-137.0147431844315
 21
1836.481234973329
 31
0.0
  0
LINE
  5
1650
330
1F
100
AcDbEntity
  8
Bracket
 62
     0
100
AcDbLine
 10
-126.0587431844315
 20
1830.505234973329
 30
0.0
 11
-126.0587431844315
 21
1836.481234973329
 31
0.0
  0
LINE
  5
1651
330
1F
100
AcDbEntity
  8
Bracket
 62
     0
100
AcDbLine
 10
-126.0587431844315
 20
1830.505234973329
 30
0.0
 11
-126.0587431844314
 21
1836.481234973329
 31
0.0
  0
LINE
  5
1652
330
1F
100
AcDbEntity
  8
Bracket
 62
     0
100
AcDbLine
 10
-128.5487431844315
 20
1830.505234973329
 30
0.0
 11
-128.5487431844314
 21
1836.481234973329
 31
0.0
  0
LINE
  5
1653
330
1F
100
AcDbEntity
  8
Bracket
 62
     0
100
AcDbLine
 10
-134.5247431844315
 20
1830.505234973329
 30
0.0
 11
-134.5247431844315
 21
1836.481234973329
 31
0.0
  0
LINE
  5
1654
330
1F
100
AcDbEntity
  8
Bracket
 62
     0
100
AcDbLine
 10
-120.0827431844313
 20
1830.505234973329
 30
0.0
 11
-126.0587431844315
 21
1830.505234973329
 31
0.0
  0
LINE
  5
1655
330
1F
100
AcDbEntity
  8
Bracket
 62
     0
100
AcDbLine
 10
-128.5487431844315
 20
1830.505234973329
 30
0.0
 11
-134.5247431844315
 21
1830.505234973329
 31
0.0
  0
LINE
  5
1656
330
1F
100
AcDbEntity
  8
Bracket
 62
     0
100
AcDbLine
 10
-122.9354824447611
 20
1836.481234973329
 30
0.0
 11
-126.0587431844315
 21
1836.481234973329
 31
0.0
  0
LINE
  5
1657
330
1F
100
AcDbEntity
  8
Bracket
 62
     0
100
AcDbLine
 10
-134.5247431844315
 20
1838.971234973328
 30
0.0
 11
-134.5247431844316
 21
1843.637846920117
 31
0.0
  0
LINE
  5
1658
330
1F
100
AcDbEntity
  8
Bracket
 62
     0
100
AcDbLine
 10
-128.5487431844315
 20
1838.971234973328
 30
0.0
 11
-128.5487431844315
 21
1840.666786978108
 31
0.0
  0
LINE
  5
1659
330
1F
100
AcDbEntity
  8
Bracket
 62
     0
100
AcDbLine
 10
-137.0147431844316
 20
1838.971234973328
 30
0.0
 11
-137.0147431844316
 21
1844.516633683427
 31
0.0
  0
LINE
  5
165A
330
1F
100
AcDbEntity
  8
Bracket
 62
     0
100
AcDbLine
 10
-128.5487431844315
 20
1838.971234973328
 30
0.0
 11
-134.5247431844315
 21
1838.971234973328
 31
0.0
  0
LINE
  5
165B
330
1F
100
AcDbEntity
  8
Bracket
 62
     0
100
AcDbLine
 10
-128.5487431844315
 20
1836.481234973329
 30
0.0
 11
-134.5247431844315
 21
1836.481234973329
 31
0.0
  0
ARC
  5
165C
330
1F
100
AcDbEntity
  8
Bracket
 62
     0
100
AcDbCircle
 10
-148.4687431844317
 20
1808.095234973329
 30
0.0
 40
38.18
100
AcDbArc
 50
58.55101861061945
 51
68.57903805454475
  0
LINE
  5
165D
330
1F
100
AcDbEntity
  8
Bracket
 62
     0
100
AcDbLine
 10
-159.9227431844318
 20
1836.481234973329
 30
0.0
 11
-153.9467431844318
 21
1836.481234973329
 31
0.0
  0
LINE
  5
165E
330
1F
100
AcDbEntity
  8
Bracket
 62
     0
100
AcDbLine
 10
-159.9227431844318
 20
1830.505234973329
 30
0.0
 11
-153.9467431844318
 21
1830.505234973329
 31
0.0
  0
LINE
  5
165F
330
1F
100
AcDbEntity
  8
Bracket
 62
     0
100
AcDbLine
 10
-159.9227431844318
 20
1838.971234973328
 30
0.0
 11
-153.9467431844318
 21
1838.971234973328
 31
0.0
  0
LINE
  5
1660
330
1F
100
AcDbEntity
  8
Bracket
 62
     0
100
AcDbLine
 10
-158.4508519796715
 20
1844.947234973329
 30
0.0
 11
-153.9467431844318
 21
1844.947234973329
 31
0.0
  0
LINE
  5
1661
330
1F
100
AcDbEntity
  8
Bracket
 62
     0
100
AcDbLine
 10
-159.9227431844318
 20
1828.015234973329
 30
0.0
 11
-153.9467431844317
 21
1828.015234973329
 31
0.0
  0
LINE
  5
1662
330
1F
100
AcDbEntity
  8
Bracket
 62
     0
100
AcDbLine
 10
-159.9227431844318
 20
1822.039234973329
 30
0.0
 11
-153.9467431844317
 21
1822.039234973329
 31
0.0
  0
LINE
  5
1663
330
1F
100
AcDbEntity
  8
Bracket
 62
     0
100
AcDbLine
 10
-159.9227431844318
 20
1813.573234973329
 30
0.0
 11
-153.9467431844318
 21
1813.573234973329
 31
0.0
  0
LINE
  5
1664
330
1F
100
AcDbEntity
  8
Bracket
 62
     0
100
AcDbLine
 10
-159.9227431844318
 20
1819.549234973329
 30
0.0
 11
-153.9467431844318
 21
1819.549234973329
 31
0.0
  0
LINE
  5
1665
330
1F
100
AcDbEntity
  8
Bracket
 62
     0
100
AcDbLine
 10
-159.9227431844318
 20
1811.083234973328
 30
0.0
 11
-153.9467431844318
 21
1811.083234973328
 31
0.0
  0
LINE
  5
1666
330
1F
100
AcDbEntity
  8
Bracket
 62
     0
100
AcDbLine
 10
-159.9227431844318
 20
1805.107234973329
 30
0.0
 11
-153.9467431844318
 21
1805.107234973329
 31
0.0
  0
LINE
  5
1667
330
1F
100
AcDbEntity
  8
Bracket
 62
     0
100
AcDbLine
 10
-153.9467431844318
 20
1813.573234973329
 30
0.0
 11
-153.9467431844318
 21
1819.549234973328
 31
0.0
  0
LINE
  5
1668
330
1F
100
AcDbEntity
  8
Bracket
 62
     0
100
AcDbLine
 10
-153.9467431844318
 20
1813.573234973329
 30
0.0
 11
-153.9467431844318
 21
1819.549234973329
 31
0.0
  0
LINE
  5
1669
330
1F
100
AcDbEntity
  8
Bracket
 62
     0
100
AcDbLine
 10
-153.9467431844318
 20
1805.107234973329
 30
0.0
 11
-153.9467431844318
 21
1811.083234973328
 31
0.0
  0
LINE
  5
166A
330
1F
100
AcDbEntity
  8
Bracket
 62
     0
100
AcDbLine
 10
-153.9467431844318
 20
1805.107234973329
 30
0.0
 11
-153.9467431844318
 21
1811.083234973328
 31
0.0
  0
LINE
  5
166B
330
1F
100
AcDbEntity
  8
Bracket
 62
     0
100
AcDbLine
 10
-153.9467431844317
 20
1822.039234973329
 30
0.0
 11
-153.9467431844317
 21
1828.015234973329
 31
0.0
  0
LINE
  5
166C
330
1F
100
AcDbEntity
  8
Bracket
 62
     0
100
AcDbLine
 10
-153.9467431844317
 20
1822.039234973329
 30
0.0
 11
-153.9467431844318
 21
1828.015234973329
 31
0.0
  0
LINE
  5
166D
330
1F
100
AcDbEntity
  8
Bracket
 62
     0
100
AcDbLine
 10
-153.9467431844318
 20
1830.505234973329
 30
0.0
 11
-153.9467431844318
 21
1836.481234973329
 31
0.0
  0
LINE
  5
166E
330
1F
100
AcDbEntity
  8
Bracket
 62
     0
100
AcDbLine
 10
-153.9467431844318
 20
1830.505234973329
 30
0.0
 11
-153.9467431844318
 21
1836.481234973329
 31
0.0
  0
LINE
  5
166F
330
1F
100
AcDbEntity
  8
Bracket
 62
     0
100
AcDbLine
 10
-153.9467431844318
 20
1838.971234973328
 30
0.0
 11
-153.9467431844318
 21
1844.947234973329
 31
0.0
  0
LINE
  5
1670
330
1F
100
AcDbEntity
  8
Bracket
 62
     0
100
AcDbLine
 10
-153.9467431844318
 20
1838.971234973328
 30
0.0
 11
-153.9467431844318
 21
1844.947234973329
 31
0.0
  0
LINE
  5
1671
330
1F
100
AcDbEntity
  8
Bracket
 62
     0
100
AcDbLine
 10
-176.8547431844321
 20
1813.573234973329
 30
0.0
 11
-176.8547431844321
 21
1819.549234973328
 31
0.0
  0
LINE
  5
1672
330
1F
100
AcDbEntity
  8
Bracket
 62
     0
100
AcDbLine
 10
-185.3207431844321
 20
1813.573234973329
 30
0.0
 11
-185.3207431844321
 21
1818.077343768567
 31
0.0
  0
LINE
  5
1673
330
1F
100
AcDbEntity
  8
Bracket
 62
     0
100
AcDbLine
 10
-179.344743184432
 20
1813.573234973329
 30
0.0
 11
-179.344743184432
 21
1819.549234973328
 31
0.0
  0
LINE
  5
1674
330
1F
100
AcDbEntity
  8
Bracket
 62
     0
100
AcDbLine
 10
-159.9227431844318
 20
1813.573234973329
 30
0.0
 11
-159.9227431844318
 21
1819.549234973328
 31
0.0
  0
LINE
  5
1675
330
1F
100
AcDbEntity
  8
Bracket
 62
     0
100
AcDbLine
 10
-170.8787431844319
 20
1813.573234973329
 30
0.0
 11
-170.8787431844319
 21
1819.549234973328
 31
0.0
  0
LINE
  5
1676
330
1F
100
AcDbEntity
  8
Bracket
 62
     0
100
AcDbLine
 10
-170.8787431844319
 20
1813.573234973329
 30
0.0
 11
-170.878743184432
 21
1819.549234973328
 31
0.0
  0
LINE
  5
1677
330
1F
100
AcDbEntity
  8
Bracket
 62
     0
100
AcDbLine
 10
-168.3887431844319
 20
1813.573234973329
 30
0.0
 11
-168.388743184432
 21
1819.549234973328
 31
0.0
  0
LINE
  5
1678
330
1F
100
AcDbEntity
  8
Bracket
 62
     0
100
AcDbLine
 10
-162.4127431844318
 20
1813.573234973329
 30
0.0
 11
-162.4127431844318
 21
1819.549234973328
 31
0.0
  0
LINE
  5
1679
330
1F
100
AcDbEntity
  8
Bracket
 62
     0
100
AcDbLine
 10
-176.8547431844321
 20
1813.573234973329
 30
0.0
 11
-170.8787431844319
 21
1813.573234973329
 31
0.0
  0
LINE
  5
167A
330
1F
100
AcDbEntity
  8
Bracket
 62
     0
100
AcDbLine
 10
-176.8547431844321
 20
1805.107234973329
 30
0.0
 11
-170.8787431844319
 21
1805.107234973329
 31
0.0
  0
LINE
  5
167B
330
1F
100
AcDbEntity
  8
Bracket
 62
     0
100
AcDbLine
 10
-176.8547431844321
 20
1811.083234973328
 30
0.0
 11
-170.8787431844319
 21
1811.083234973328
 31
0.0
  0
LINE
  5
167C
330
1F
100
AcDbEntity
  8
Bracket
 62
     0
100
AcDbLine
 10
-162.4127431844318
 20
1805.107234973329
 30
0.0
 11
-162.4127431844318
 21
1811.083234973328
 31
0.0
  0
LINE
  5
167D
330
1F
100
AcDbEntity
  8
Bracket
 62
     0
100
AcDbLine
 10
-168.3887431844319
 20
1805.107234973329
 30
0.0
 11
-168.388743184432
 21
1811.083234973328
 31
0.0
  0
LINE
  5
167E
330
1F
100
AcDbEntity
  8
Bracket
 62
     0
100
AcDbLine
 10
-170.8787431844319
 20
1805.107234973329
 30
0.0
 11
-170.878743184432
 21
1811.083234973328
 31
0.0
  0
LINE
  5
167F
330
1F
100
AcDbEntity
  8
Bracket
 62
     0
100
AcDbLine
 10
-170.8787431844319
 20
1805.107234973329
 30
0.0
 11
-170.8787431844319
 21
1811.083234973328
 31
0.0
  0
LINE
  5
1680
330
1F
100
AcDbEntity
  8
Bracket
 62
     0
100
AcDbLine
 10
-159.9227431844318
 20
1805.107234973329
 30
0.0
 11
-159.9227431844318
 21
1811.083234973328
 31
0.0
  0
LINE
  5
1681
330
1F
100
AcDbEntity
  8
Bracket
 62
     0
100
AcDbLine
 10
-168.3887431844319
 20
1805.107234973329
 30
0.0
 11
-162.4127431844318
 21
1805.107234973329
 31
0.0
  0
LINE
  5
1682
330
1F
100
AcDbEntity
  8
Bracket
 62
     0
100
AcDbLine
 10
-168.3887431844319
 20
1813.573234973329
 30
0.0
 11
-162.4127431844318
 21
1813.573234973329
 31
0.0
  0
LINE
  5
1683
330
1F
100
AcDbEntity
  8
Bracket
 62
     0
100
AcDbLine
 10
-168.3887431844319
 20
1811.083234973328
 30
0.0
 11
-162.4127431844318
 21
1811.083234973328
 31
0.0
  0
LINE
  5
1684
330
1F
100
AcDbEntity
  8
Bracket
 62
     0
100
AcDbLine
 10
-179.344743184432
 20
1805.107234973329
 30
0.0
 11
-179.344743184432
 21
1811.083234973328
 31
0.0
  0
LINE
  5
1685
330
1F
100
AcDbEntity
  8
Bracket
 62
     0
100
AcDbLine
 10
-185.3207431844321
 20
1805.107234973329
 30
0.0
 11
-185.3207431844321
 21
1811.083234973328
 31
0.0
  0
LINE
  5
1686
330
1F
100
AcDbEntity
  8
Bracket
 62
     0
100
AcDbLine
 10
-176.8547431844321
 20
1805.107234973329
 30
0.0
 11
-176.8547431844321
 21
1811.083234973328
 31
0.0
  0
LINE
  5
1687
330
1F
100
AcDbEntity
  8
Bracket
 62
     0
100
AcDbLine
 10
-185.3207431844321
 20
1805.107234973329
 30
0.0
 11
-179.344743184432
 21
1805.107234973329
 31
0.0
  0
LINE
  5
1688
330
1F
100
AcDbEntity
  8
Bracket
 62
     0
100
AcDbLine
 10
-185.3207431844321
 20
1813.573234973329
 30
0.0
 11
-179.344743184432
 21
1813.573234973329
 31
0.0
  0
LINE
  5
1689
330
1F
100
AcDbEntity
  8
Bracket
 62
     0
100
AcDbLine
 10
-185.3207431844321
 20
1811.083234973328
 30
0.0
 11
-179.344743184432
 21
1811.083234973328
 31
0.0
  0
LINE
  5
168A
330
1F
100
AcDbEntity
  8
Bracket
 62
     0
100
AcDbLine
 10
-174.0020039241022
 20
1836.481234973329
 30
0.0
 11
-170.878743184432
 21
1836.481234973329
 31
0.0
  0
LINE
  5
168B
330
1F
100
AcDbEntity
  8
Bracket
 62
     0
100
AcDbLine
 10
-176.8547431844321
 20
1830.505234973329
 30
0.0
 11
-170.8787431844319
 21
1830.505234973329
 31
0.0
  0
LINE
  5
168C
330
1F
100
AcDbEntity
  8
Bracket
 62
     0
100
AcDbLine
 10
-176.854743184432
 20
1828.015234973329
 30
0.0
 11
-170.8787431844319
 21
1828.015234973329
 31
0.0
  0
LINE
  5
168D
330
1F
100
AcDbEntity
  8
Bracket
 62
     0
100
AcDbLine
 10
-176.854743184432
 20
1822.039234973329
 30
0.0
 11
-170.8787431844319
 21
1822.039234973329
 31
0.0
  0
LINE
  5
168E
330
1F
100
AcDbEntity
  8
Bracket
 62
     0
100
AcDbLine
 10
-176.8547431844321
 20
1819.549234973329
 30
0.0
 11
-170.8787431844319
 21
1819.549234973329
 31
0.0
  0
LINE
  5
168F
330
1F
100
AcDbEntity
  8
Bracket
 62
     0
100
AcDbLine
 10
-162.4127431844318
 20
1822.039234973329
 30
0.0
 11
-162.4127431844318
 21
1828.015234973329
 31
0.0
  0
LINE
  5
1690
330
1F
100
AcDbEntity
  8
Bracket
 62
     0
100
AcDbLine
 10
-168.3887431844318
 20
1822.039234973329
 30
0.0
 11
-168.3887431844319
 21
1828.015234973329
 31
0.0
  0
LINE
  5
1691
330
1F
100
AcDbEntity
  8
Bracket
 62
     0
100
AcDbLine
 10
-170.8787431844319
 20
1822.039234973329
 30
0.0
 11
-170.8787431844319
 21
1828.015234973329
 31
0.0
  0
LINE
  5
1692
330
1F
100
AcDbEntity
  8
Bracket
 62
     0
100
AcDbLine
 10
-170.8787431844319
 20
1822.039234973329
 30
0.0
 11
-170.8787431844319
 21
1828.015234973329
 31
0.0
  0
LINE
  5
1693
330
1F
100
AcDbEntity
  8
Bracket
 62
     0
100
AcDbLine
 10
-159.9227431844318
 20
1822.039234973329
 30
0.0
 11
-159.9227431844318
 21
1828.015234973329
 31
0.0
  0
LINE
  5
1694
330
1F
100
AcDbEntity
  8
Bracket
 62
     0
100
AcDbLine
 10
-168.3887431844318
 20
1822.039234973329
 30
0.0
 11
-162.4127431844318
 21
1822.039234973329
 31
0.0
  0
LINE
  5
1695
330
1F
100
AcDbEntity
  8
Bracket
 62
     0
100
AcDbLine
 10
-168.3887431844319
 20
1819.549234973329
 30
0.0
 11
-162.4127431844318
 21
1819.549234973329
 31
0.0
  0
LINE
  5
1696
330
1F
100
AcDbEntity
  8
Bracket
 62
     0
100
AcDbLine
 10
-168.388743184432
 20
1836.481234973329
 30
0.0
 11
-162.4127431844319
 21
1836.481234973329
 31
0.0
  0
LINE
  5
1697
330
1F
100
AcDbEntity
  8
Bracket
 62
     0
100
AcDbLine
 10
-168.3887431844319
 20
1830.505234973329
 30
0.0
 11
-162.4127431844318
 21
1830.505234973329
 31
0.0
  0
LINE
  5
1698
330
1F
100
AcDbEntity
  8
Bracket
 62
     0
100
AcDbLine
 10
-168.3887431844318
 20
1828.015234973329
 30
0.0
 11
-162.4127431844318
 21
1828.015234973329
 31
0.0
  0
LINE
  5
1699
330
1F
100
AcDbEntity
  8
Bracket
 62
     0
100
AcDbLine
 10
-162.4127431844318
 20
1830.505234973329
 30
0.0
 11
-162.4127431844319
 21
1836.481234973329
 31
0.0
  0
LINE
  5
169A
330
1F
100
AcDbEntity
  8
Bracket
 62
     0
100
AcDbLine
 10
-159.9227431844318
 20
1830.505234973329
 30
0.0
 11
-159.9227431844319
 21
1836.481234973329
 31
0.0
  0
LINE
  5
169B
330
1F
100
AcDbEntity
  8
Bracket
 62
     0
100
AcDbLine
 10
-168.3887431844319
 20
1830.505234973329
 30
0.0
 11
-168.388743184432
 21
1836.481234973329
 31
0.0
  0
LINE
  5
169C
330
1F
100
AcDbEntity
  8
Bracket
 62
     0
100
AcDbLine
 10
-170.8787431844319
 20
1830.505234973329
 30
0.0
 11
-170.878743184432
 21
1836.481234973329
 31
0.0
  0
LINE
  5
169D
330
1F
100
AcDbEntity
  8
Bracket
 62
     0
100
AcDbLine
 10
-170.8787431844319
 20
1830.505234973329
 30
0.0
 11
-170.878743184432
 21
1836.481234973329
 31
0.0
  0
LINE
  5
169E
330
1F
100
AcDbEntity
  8
Bracket
 62
     0
100
AcDbLine
 10
-179.344743184432
 20
1822.039234973329
 30
0.0
 11
-179.344743184432
 21
1828.015234973329
 31
0.0
  0
LINE
  5
169F
330
1F
100
AcDbEntity
  8
Bracket
 62
     0
100
AcDbLine
 10
-176.854743184432
 20
1822.039234973329
 30
0.0
 11
-176.8547431844321
 21
1828.015234973329
 31
0.0
  0
LINE
  5
16A0
330
1F
100
AcDbEntity
  8
Bracket
 62
     0
100
AcDbLine
 10
-184.0113551312201
 20
1822.039234973329
 30
0.0
 11
-179.344743184432
 21
1822.039234973329
 31
0.0
  0
LINE
  5
16A1
330
1F
100
AcDbEntity
  8
Bracket
 62
     0
100
AcDbLine
 10
-184.8901418945306
 20
1819.549234973328
 30
0.0
 11
-179.344743184432
 21
1819.549234973329
 31
0.0
  0
LINE
  5
16A2
330
1F
100
AcDbEntity
  8
Bracket
 62
     0
100
AcDbLine
 10
-176.8547431844321
 20
1830.505234973329
 30
0.0
 11
-176.8547431844321
 21
1833.628495712998
 31
0.0
  0
LINE
  5
16A3
330
1F
100
AcDbEntity
  8
Bracket
 62
     0
100
AcDbLine
 10
-181.0402951892103
 20
1828.015234973329
 30
0.0
 11
-179.344743184432
 21
1828.015234973329
 31
0.0
  0
LINE
  5
16A4
330
1F
100
AcDbEntity
  8
Bracket
 62
     0
100
AcDbLine
 10
-168.3887431844319
 20
1838.971234973328
 30
0.0
 11
-162.4127431844318
 21
1838.971234973328
 31
0.0
  0
LINE
  5
16A5
330
1F
100
AcDbEntity
  8
Bracket
 62
     0
100
AcDbLine
 10
-159.9227431844318
 20
1838.971234973328
 30
0.0
 11
-159.9227431844318
 21
1844.516633683427
 31
0.0
  0
LINE
  5
16A6
330
1F
100
AcDbEntity
  8
Bracket
 62
     0
100
AcDbLine
 10
-162.4127431844318
 20
1838.971234973328
 30
0.0
 11
-162.4127431844318
 21
1843.637846920117
 31
0.0
  0
LINE
  5
16A7
330
1F
100
AcDbEntity
  8
Bracket
 62
     0
100
AcDbLine
 10
-168.3887431844319
 20
1838.971234973328
 30
0.0
 11
-168.3887431844319
 21
1840.666786978107
 31
0.0
  0
ARC
  5
16A8
330
1F
100
AcDbEntity
  8
Bracket
 62
     0
100
AcDbCircle
 10
-148.4687431844317
 20
1808.095234973329
 30
0.0
 40
38.18
100
AcDbArc
 50
72.54239687627642
 51
74.8439637466209
  0
ARC
  5
16A9
330
1F
100
AcDbEntity
  8
Bracket
 62
     0
100
AcDbCircle
 10
-148.4687431844317
 20
1808.095234973329
 30
0.0
 40
38.18
100
AcDbArc
 50
41.97144095526009
 51
48.02855904474442
  0
ARC
  5
16AA
330
1F
100
AcDbEntity
  8
Bracket
 62
     0
100
AcDbCircle
 10
-148.4687431844317
 20
1808.095234973329
 30
0.0
 40
38.18
100
AcDbArc
 50
21.42096194546132
 51
31.44898138937866
  0
ARC
  5
16AB
330
1F
100
AcDbEntity
  8
Bracket
 62
     0
100
AcDbCircle
 10
-148.4687431844317
 20
1808.095234973329
 30
0.0
 40
38.18
100
AcDbArc
 50
15.15603625337151
 51
17.45760312371603
  0
ARC
  5
16AC
330
1F
100
AcDbEntity
  8
Bracket
 62
     0
100
AcDbCircle
 10
-148.4687431844317
 20
1808.095234973329
 30
0.0
 40
38.18
100
AcDbArc
 50
105.1560362533816
 51
107.4576031237236
  0
ARC
  5
16AD
330
1F
100
AcDbEntity
  8
Bracket
 62
     0
100
AcDbCircle
 10
-148.4687431844317
 20
1808.095234973329
 30
0.0
 40
38.18
100
AcDbArc
 50
111.4209619454552
 51
121.4489813893805
  0
ARC
  5
16AE
330
1F
100
AcDbEntity
  8
Bracket
 62
     0
100
AcDbCircle
 10
-148.4687431844317
 20
1808.095234973329
 30
0.0
 40
38.18
100
AcDbArc
 50
131.9714409552556
 51
138.0285590447399
  0
ARC
  5
16AF
330
1F
100
AcDbEntity
  8
Bracket
 62
     0
100
AcDbCircle
 10
-148.4687431844317
 20
1808.095234973329
 30
0.0
 40
38.17999999999995
100
AcDbArc
 50
148.5510186106212
 51
158.5790380545387
  0
ARC
  5
16B0
330
1F
100
AcDbEntity
  8
Bracket
 62
     0
100
AcDbCircle
 10
-148.4687431844317
 20
1808.095234973329
 30
0.0
 40
38.17999999999995
100
AcDbArc
 50
162.5423968762839
 51
164.8439637466285
  0
LINE
  5
16B1
330
1F
100
AcDbEntity
  8
Bracket
 62
     0
100
AcDbLine
 10
-138.4866343891919
 20
1771.243234973329
 30
0.0
 11
-142.9907431844317
 21
1771.243234973329
 31
0.0
  0
LINE
  5
16B2
330
1F
100
AcDbEntity
  8
Bracket
 62
     0
100
AcDbLine
 10
-137.0147431844315
 20
1779.709234973329
 30
0.0
 11
-142.9907431844316
 21
1779.709234973329
 31
0.0
  0
LINE
  5
16B3
330
1F
100
AcDbEntity
  8
Bracket
 62
     0
100
AcDbLine
 10
-137.0147431844315
 20
1785.685234973328
 30
0.0
 11
-142.9907431844316
 21
1785.685234973328
 31
0.0
  0
LINE
  5
16B4
330
1F
100
AcDbEntity
  8
Bracket
 62
     0
100
AcDbLine
 10
-137.0147431844316
 20
1777.219234973329
 30
0.0
 11
-142.9907431844317
 21
1777.219234973329
 31
0.0
  0
LINE
  5
16B5
330
1F
100
AcDbEntity
  8
Bracket
 62
     0
100
AcDbLine
 10
-137.0147431844316
 20
1788.175234973328
 30
0.0
 11
-142.9907431844317
 21
1788.175234973328
 31
0.0
  0
LINE
  5
16B6
330
1F
100
AcDbEntity
  8
Bracket
 62
     0
100
AcDbLine
 10
-137.0147431844316
 20
1794.151234973329
 30
0.0
 11
-142.9907431844317
 21
1794.151234973329
 31
0.0
  0
LINE
  5
16B7
330
1F
100
AcDbEntity
  8
Bracket
 62
     0
100
AcDbLine
 10
-137.0147431844315
 20
1802.617234973329
 30
0.0
 11
-142.9907431844316
 21
1802.617234973329
 31
0.0
  0
LINE
  5
16B8
330
1F
100
AcDbEntity
  8
Bracket
 62
     0
100
AcDbLine
 10
-137.0147431844315
 20
1796.641234973328
 30
0.0
 11
-142.9907431844316
 21
1796.641234973328
 31
0.0
  0
LINE
  5
16B9
330
1F
100
AcDbEntity
  8
Bracket
 62
     0
100
AcDbLine
 10
-185.3207431844321
 20
1802.617234973329
 30
0.0
 11
-185.3207431844321
 21
1798.11312617809
 31
0.0
  0
LINE
  5
16BA
330
1F
100
AcDbEntity
  8
Bracket
 62
     0
100
AcDbLine
 10
-162.4127431844318
 20
1802.617234973329
 30
0.0
 11
-162.4127431844318
 21
1796.641234973329
 31
0.0
  0
LINE
  5
16BB
330
1F
100
AcDbEntity
  8
Bracket
 62
     0
100
AcDbLine
 10
-168.3887431844319
 20
1802.617234973329
 30
0.0
 11
-168.388743184432
 21
1796.641234973329
 31
0.0
  0
LINE
  5
16BC
330
1F
100
AcDbEntity
  8
Bracket
 62
     0
100
AcDbLine
 10
-170.8787431844319
 20
1802.617234973329
 30
0.0
 11
-170.878743184432
 21
1796.641234973329
 31
0.0
  0
LINE
  5
16BD
330
1F
100
AcDbEntity
  8
Bracket
 62
     0
100
AcDbLine
 10
-170.8787431844319
 20
1802.617234973329
 30
0.0
 11
-170.8787431844319
 21
1796.641234973329
 31
0.0
  0
LINE
  5
16BE
330
1F
100
AcDbEntity
  8
Bracket
 62
     0
100
AcDbLine
 10
-159.9227431844318
 20
1802.617234973329
 30
0.0
 11
-159.9227431844318
 21
1796.641234973329
 31
0.0
  0
LINE
  5
16BF
330
1F
100
AcDbEntity
  8
Bracket
 62
     0
100
AcDbLine
 10
-179.344743184432
 20
1802.617234973329
 30
0.0
 11
-179.344743184432
 21
1796.641234973329
 31
0.0
  0
LINE
  5
16C0
330
1F
100
AcDbEntity
  8
Bracket
 62
     0
100
AcDbLine
 10
-176.8547431844321
 20
1802.617234973329
 30
0.0
 11
-176.8547431844321
 21
1796.641234973329
 31
0.0
  0
LINE
  5
16C1
330
1F
100
AcDbEntity
  8
Bracket
 62
     0
100
AcDbLine
 10
-153.9467431844318
 20
1802.617234973329
 30
0.0
 11
-153.9467431844318
 21
1796.641234973328
 31
0.0
  0
LINE
  5
16C2
330
1F
100
AcDbEntity
  8
Bracket
 62
     0
100
AcDbLine
 10
-153.9467431844318
 20
1802.617234973329
 30
0.0
 11
-153.9467431844318
 21
1796.641234973329
 31
0.0
  0
LINE
  5
16C3
330
1F
100
AcDbEntity
  8
Bracket
 62
     0
100
AcDbLine
 10
-151.4567431844318
 20
1802.617234973329
 30
0.0
 11
-151.4567431844318
 21
1796.641234973328
 31
0.0
  0
LINE
  5
16C4
330
1F
100
AcDbEntity
  8
Bracket
 62
     0
100
AcDbLine
 10
-145.4807431844316
 20
1802.617234973329
 30
0.0
 11
-145.4807431844315
 21
1796.641234973328
 31
0.0
  0
LINE
  5
16C5
330
1F
100
AcDbEntity
  8
Bracket
 62
     0
100
AcDbLine
 10
-142.9907431844316
 20
1802.617234973329
 30
0.0
 11
-142.9907431844315
 21
1796.641234973329
 31
0.0
  0
LINE
  5
16C6
330
1F
100
AcDbEntity
  8
Bracket
 62
     0
100
AcDbLine
 10
-142.9907431844316
 20
1802.617234973329
 30
0.0
 11
-142.9907431844316
 21
1796.641234973328
 31
0.0
  0
LINE
  5
16C7
330
1F
100
AcDbEntity
  8
Bracket
 62
     0
100
AcDbLine
 10
-168.3887431844319
 20
1802.617234973329
 30
0.0
 11
-162.4127431844318
 21
1802.617234973329
 31
0.0
  0
LINE
  5
16C8
330
1F
100
AcDbEntity
  8
Bracket
 62
     0
100
AcDbLine
 10
-185.3207431844321
 20
1802.617234973329
 30
0.0
 11
-179.344743184432
 21
1802.617234973329
 31
0.0
  0
LINE
  5
16C9
330
1F
100
AcDbEntity
  8
Bracket
 62
     0
100
AcDbLine
 10
-176.8547431844321
 20
1802.617234973329
 30
0.0
 11
-170.8787431844319
 21
1802.617234973329
 31
0.0
  0
LINE
  5
16CA
330
1F
100
AcDbEntity
  8
Bracket
 62
     0
100
AcDbLine
 10
-159.9227431844318
 20
1802.617234973329
 30
0.0
 11
-153.9467431844318
 21
1802.617234973329
 31
0.0
  0
LINE
  5
16CB
330
1F
100
AcDbEntity
  8
Bracket
 62
     0
100
AcDbLine
 10
-145.4807431844316
 20
1802.617234973329
 30
0.0
 11
-151.4567431844318
 21
1802.617234973329
 31
0.0
  0
LINE
  5
16CC
330
1F
100
AcDbEntity
  8
Bracket
 62
     0
100
AcDbLine
 10
-145.4807431844316
 20
1802.617234973329
 30
0.0
 11
-151.4567431844318
 21
1802.617234973329
 31
0.0
  0
ARC
  5
16CD
330
1F
100
AcDbEntity
  8
Bracket
 62
     0
100
AcDbCircle
 10
-148.4687431844317
 20
1808.095234973329
 30
0.0
 40
38.18
100
AcDbArc
 50
238.5510186106194
 51
248.5790380545449
  0
LINE
  5
16CE
330
1F
100
AcDbEntity
  8
Bracket
 62
     0
100
AcDbLine
 10
-168.3887431844319
 20
1777.219234973329
 30
0.0
 11
-162.4127431844318
 21
1777.219234973329
 31
0.0
  0
LINE
  5
16CF
330
1F
100
AcDbEntity
  8
Bracket
 62
     0
100
AcDbLine
 10
-168.3887431844318
 20
1788.175234973328
 30
0.0
 11
-162.4127431844318
 21
1788.175234973328
 31
0.0
  0
LINE
  5
16D0
330
1F
100
AcDbEntity
  8
Bracket
 62
     0
100
AcDbLine
 10
-168.3887431844319
 20
1785.685234973328
 30
0.0
 11
-162.4127431844318
 21
1785.685234973328
 31
0.0
  0
LINE
  5
16D1
330
1F
100
AcDbEntity
  8
Bracket
 62
     0
100
AcDbLine
 10
-168.388743184432
 20
1779.709234973329
 30
0.0
 11
-162.4127431844319
 21
1779.709234973329
 31
0.0
  0
LINE
  5
16D2
330
1F
100
AcDbEntity
  8
Bracket
 62
     0
100
AcDbLine
 10
-168.3887431844319
 20
1796.641234973328
 30
0.0
 11
-162.4127431844318
 21
1796.641234973328
 31
0.0
  0
LINE
  5
16D3
330
1F
100
AcDbEntity
  8
Bracket
 62
     0
100
AcDbLine
 10
-168.3887431844318
 20
1794.151234973329
 30
0.0
 11
-162.4127431844318
 21
1794.151234973329
 31
0.0
  0
ARC
  5
16D4
330
1F
100
AcDbEntity
  8
Bracket
 62
     0
100
AcDbCircle
 10
-148.4687431844317
 20
1808.095234973329
 30
0.0
 40
38.17999999999995
100
AcDbArc
 50
201.4209619454613
 51
211.4489813893786
  0
LINE
  5
16D5
330
1F
100
AcDbEntity
  8
Bracket
 62
     0
100
AcDbLine
 10
-179.344743184432
 20
1794.151234973329
 30
0.0
 11
-179.344743184432
 21
1788.175234973328
 31
0.0
  0
ARC
  5
16D6
330
1F
100
AcDbEntity
  8
Bracket
 62
     0
100
AcDbCircle
 10
-148.4687431844317
 20
1808.095234973329
 30
0.0
 40
38.17999999999995
100
AcDbArc
 50
195.1560362533715
 51
197.4576031237159
  0
LINE
  5
16D7
330
1F
100
AcDbEntity
  8
Bracket
 62
     0
100
AcDbLine
 10
-184.0113551312201
 20
1794.151234973329
 30
0.0
 11
-179.344743184432
 21
1794.151234973329
 31
0.0
  0
LINE
  5
16D8
330
1F
100
AcDbEntity
  8
Bracket
 62
     0
100
AcDbLine
 10
-184.8901418945306
 20
1796.641234973329
 30
0.0
 11
-179.344743184432
 21
1796.641234973328
 31
0.0
  0
LINE
  5
16D9
330
1F
100
AcDbEntity
  8
Bracket
 62
     0
100
AcDbLine
 10
-181.0402951892103
 20
1788.175234973328
 30
0.0
 11
-179.344743184432
 21
1788.175234973328
 31
0.0
  0
LINE
  5
16DA
330
1F
100
AcDbEntity
  8
Bracket
 62
     0
100
AcDbLine
 10
-176.854743184432
 20
1794.151234973329
 30
0.0
 11
-176.8547431844321
 21
1788.175234973328
 31
0.0
  0
LINE
  5
16DB
330
1F
100
AcDbEntity
  8
Bracket
 62
     0
100
AcDbLine
 10
-170.8787431844319
 20
1794.151234973329
 30
0.0
 11
-170.8787431844319
 21
1788.175234973328
 31
0.0
  0
LINE
  5
16DC
330
1F
100
AcDbEntity
  8
Bracket
 62
     0
100
AcDbLine
 10
-170.8787431844319
 20
1794.151234973329
 30
0.0
 11
-170.8787431844319
 21
1788.175234973328
 31
0.0
  0
LINE
  5
16DD
330
1F
100
AcDbEntity
  8
Bracket
 62
     0
100
AcDbLine
 10
-168.3887431844318
 20
1794.151234973329
 30
0.0
 11
-168.3887431844319
 21
1788.175234973328
 31
0.0
  0
LINE
  5
16DE
330
1F
100
AcDbEntity
  8
Bracket
 62
     0
100
AcDbLine
 10
-176.8547431844321
 20
1796.641234973328
 30
0.0
 11
-170.8787431844319
 21
1796.641234973328
 31
0.0
  0
LINE
  5
16DF
330
1F
100
AcDbEntity
  8
Bracket
 62
     0
100
AcDbLine
 10
-176.854743184432
 20
1794.151234973329
 30
0.0
 11
-170.8787431844319
 21
1794.151234973329
 31
0.0
  0
LINE
  5
16E0
330
1F
100
AcDbEntity
  8
Bracket
 62
     0
100
AcDbLine
 10
-174.0020039241022
 20
1779.709234973329
 30
0.0
 11
-170.878743184432
 21
1779.709234973329
 31
0.0
  0
LINE
  5
16E1
330
1F
100
AcDbEntity
  8
Bracket
 62
     0
100
AcDbLine
 10
-176.854743184432
 20
1788.175234973328
 30
0.0
 11
-170.8787431844319
 21
1788.175234973328
 31
0.0
  0
LINE
  5
16E2
330
1F
100
AcDbEntity
  8
Bracket
 62
     0
100
AcDbLine
 10
-176.8547431844321
 20
1785.685234973328
 30
0.0
 11
-170.8787431844319
 21
1785.685234973328
 31
0.0
  0
LINE
  5
16E3
330
1F
100
AcDbEntity
  8
Bracket
 62
     0
100
AcDbLine
 10
-176.8547431844321
 20
1785.685234973328
 30
0.0
 11
-176.8547431844321
 21
1782.561974233659
 31
0.0
  0
ARC
  5
16E4
330
1F
100
AcDbEntity
  8
Bracket
 62
     0
100
AcDbCircle
 10
-148.4687431844317
 20
1808.095234973329
 30
0.0
 40
38.18
100
AcDbArc
 50
221.9714409552601
 51
228.0285590447444
  0
LINE
  5
16E5
330
1F
100
AcDbEntity
  8
Bracket
 62
     0
100
AcDbLine
 10
-170.8787431844319
 20
1785.685234973328
 30
0.0
 11
-170.878743184432
 21
1779.709234973329
 31
0.0
  0
LINE
  5
16E6
330
1F
100
AcDbEntity
  8
Bracket
 62
     0
100
AcDbLine
 10
-170.8787431844319
 20
1785.685234973328
 30
0.0
 11
-170.878743184432
 21
1779.709234973329
 31
0.0
  0
LINE
  5
16E7
330
1F
100
AcDbEntity
  8
Bracket
 62
     0
100
AcDbLine
 10
-168.3887431844319
 20
1785.685234973328
 30
0.0
 11
-168.388743184432
 21
1779.709234973329
 31
0.0
  0
LINE
  5
16E8
330
1F
100
AcDbEntity
  8
Bracket
 62
     0
100
AcDbLine
 10
-168.3887431844319
 20
1777.219234973329
 30
0.0
 11
-168.3887431844319
 21
1775.52368296855
 31
0.0
  0
LINE
  5
16E9
330
1F
100
AcDbEntity
  8
Bracket
 62
     0
100
AcDbLine
 10
-159.9227431844318
 20
1794.151234973329
 30
0.0
 11
-159.9227431844318
 21
1788.175234973328
 31
0.0
  0
LINE
  5
16EA
330
1F
100
AcDbEntity
  8
Bracket
 62
     0
100
AcDbLine
 10
-162.4127431844318
 20
1794.151234973329
 30
0.0
 11
-162.4127431844318
 21
1788.175234973328
 31
0.0
  0
LINE
  5
16EB
330
1F
100
AcDbEntity
  8
Bracket
 62
     0
100
AcDbLine
 10
-153.9467431844317
 20
1794.151234973329
 30
0.0
 11
-153.9467431844318
 21
1788.175234973328
 31
0.0
  0
LINE
  5
16EC
330
1F
100
AcDbEntity
  8
Bracket
 62
     0
100
AcDbLine
 10
-153.9467431844317
 20
1794.151234973329
 30
0.0
 11
-153.9467431844317
 21
1788.175234973328
 31
0.0
  0
LINE
  5
16ED
330
1F
100
AcDbEntity
  8
Bracket
 62
     0
100
AcDbLine
 10
-159.9227431844318
 20
1796.641234973328
 30
0.0
 11
-153.9467431844318
 21
1796.641234973328
 31
0.0
  0
LINE
  5
16EE
330
1F
100
AcDbEntity
  8
Bracket
 62
     0
100
AcDbLine
 10
-159.9227431844318
 20
1794.151234973329
 30
0.0
 11
-153.9467431844317
 21
1794.151234973329
 31
0.0
  0
LINE
  5
16EF
330
1F
100
AcDbEntity
  8
Bracket
 62
     0
100
AcDbLine
 10
-159.9227431844318
 20
1788.175234973328
 30
0.0
 11
-153.9467431844317
 21
1788.175234973328
 31
0.0
  0
LINE
  5
16F0
330
1F
100
AcDbEntity
  8
Bracket
 62
     0
100
AcDbLine
 10
-159.9227431844318
 20
1785.685234973328
 30
0.0
 11
-153.9467431844318
 21
1785.685234973328
 31
0.0
  0
LINE
  5
16F1
330
1F
100
AcDbEntity
  8
Bracket
 62
     0
100
AcDbLine
 10
-159.9227431844318
 20
1779.709234973329
 30
0.0
 11
-153.9467431844318
 21
1779.709234973329
 31
0.0
  0
LINE
  5
16F2
330
1F
100
AcDbEntity
  8
Bracket
 62
     0
100
AcDbLine
 10
-159.9227431844318
 20
1785.685234973328
 30
0.0
 11
-159.9227431844319
 21
1779.709234973329
 31
0.0
  0
LINE
  5
16F3
330
1F
100
AcDbEntity
  8
Bracket
 62
     0
100
AcDbLine
 10
-162.4127431844318
 20
1785.685234973328
 30
0.0
 11
-162.4127431844319
 21
1779.709234973329
 31
0.0
  0
LINE
  5
16F4
330
1F
100
AcDbEntity
  8
Bracket
 62
     0
100
AcDbLine
 10
-153.9467431844318
 20
1785.685234973328
 30
0.0
 11
-153.9467431844318
 21
1779.709234973329
 31
0.0
  0
LINE
  5
16F5
330
1F
100
AcDbEntity
  8
Bracket
 62
     0
100
AcDbLine
 10
-153.9467431844318
 20
1785.685234973328
 30
0.0
 11
-153.9467431844318
 21
1779.709234973329
 31
0.0
  0
LINE
  5
16F6
330
1F
100
AcDbEntity
  8
Bracket
 62
     0
100
AcDbLine
 10
-142.9907431844317
 20
1794.151234973329
 30
0.0
 11
-142.9907431844317
 21
1788.175234973328
 31
0.0
  0
LINE
  5
16F7
330
1F
100
AcDbEntity
  8
Bracket
 62
     0
100
AcDbLine
 10
-142.9907431844317
 20
1794.151234973329
 30
0.0
 11
-142.9907431844316
 21
1788.175234973328
 31
0.0
  0
LINE
  5
16F8
330
1F
100
AcDbEntity
  8
Bracket
 62
     0
100
AcDbLine
 10
-145.4807431844316
 20
1794.151234973329
 30
0.0
 11
-145.4807431844316
 21
1788.175234973328
 31
0.0
  0
LINE
  5
16F9
330
1F
100
AcDbEntity
  8
Bracket
 62
     0
100
AcDbLine
 10
-151.4567431844318
 20
1794.151234973329
 30
0.0
 11
-151.4567431844318
 21
1788.175234973328
 31
0.0
  0
LINE
  5
16FA
330
1F
100
AcDbEntity
  8
Bracket
 62
     0
100
AcDbLine
 10
-145.4807431844316
 20
1794.151234973329
 30
0.0
 11
-151.4567431844318
 21
1794.151234973329
 31
0.0
  0
LINE
  5
16FB
330
1F
100
AcDbEntity
  8
Bracket
 62
     0
100
AcDbLine
 10
-145.4807431844316
 20
1794.151234973329
 30
0.0
 11
-151.4567431844318
 21
1794.151234973329
 31
0.0
  0
LINE
  5
16FC
330
1F
100
AcDbEntity
  8
Bracket
 62
     0
100
AcDbLine
 10
-145.4807431844316
 20
1796.641234973328
 30
0.0
 11
-151.4567431844318
 21
1796.641234973328
 31
0.0
  0
LINE
  5
16FD
330
1F
100
AcDbEntity
  8
Bracket
 62
     0
100
AcDbLine
 10
-145.4807431844316
 20
1779.709234973329
 30
0.0
 11
-151.4567431844318
 21
1779.709234973329
 31
0.0
  0
LINE
  5
16FE
330
1F
100
AcDbEntity
  8
Bracket
 62
     0
100
AcDbLine
 10
-145.4807431844316
 20
1785.685234973328
 30
0.0
 11
-151.4567431844318
 21
1785.685234973328
 31
0.0
  0
LINE
  5
16FF
330
1F
100
AcDbEntity
  8
Bracket
 62
     0
100
AcDbLine
 10
-145.4807431844316
 20
1785.685234973328
 30
0.0
 11
-151.4567431844318
 21
1785.685234973328
 31
0.0
  0
LINE
  5
1700
330
1F
100
AcDbEntity
  8
Bracket
 62
     0
100
AcDbLine
 10
-145.4807431844316
 20
1785.685234973328
 30
0.0
 11
-145.4807431844315
 21
1779.709234973329
 31
0.0
  0
LINE
  5
1701
330
1F
100
AcDbEntity
  8
Bracket
 62
     0
100
AcDbLine
 10
-151.4567431844318
 20
1785.685234973328
 30
0.0
 11
-151.4567431844318
 21
1779.709234973329
 31
0.0
  0
LINE
  5
1702
330
1F
100
AcDbEntity
  8
Bracket
 62
     0
100
AcDbLine
 10
-145.4807431844316
 20
1788.175234973328
 30
0.0
 11
-151.4567431844318
 21
1788.175234973328
 31
0.0
  0
LINE
  5
1703
330
1F
100
AcDbEntity
  8
Bracket
 62
     0
100
AcDbLine
 10
-142.9907431844316
 20
1785.685234973328
 30
0.0
 11
-142.9907431844316
 21
1779.709234973329
 31
0.0
  0
LINE
  5
1704
330
1F
100
AcDbEntity
  8
Bracket
 62
     0
100
AcDbLine
 10
-142.9907431844316
 20
1785.685234973328
 30
0.0
 11
-142.9907431844315
 21
1779.709234973329
 31
0.0
  0
ARC
  5
1705
330
1F
100
AcDbEntity
  8
Bracket
 62
     0
100
AcDbCircle
 10
-148.4687431844317
 20
1808.095234973329
 30
0.0
 40
38.18
100
AcDbArc
 50
252.5423968762764
 51
254.8439637466183
  0
LINE
  5
1706
330
1F
100
AcDbEntity
  8
Bracket
 62
     0
100
AcDbLine
 10
-159.9227431844318
 20
1777.219234973329
 30
0.0
 11
-153.9467431844318
 21
1777.219234973329
 31
0.0
  0
LINE
  5
1707
330
1F
100
AcDbEntity
  8
Bracket
 62
     0
100
AcDbLine
 10
-162.4127431844318
 20
1777.219234973329
 30
0.0
 11
-162.4127431844318
 21
1772.55262302654
 31
0.0
  0
LINE
  5
1708
330
1F
100
AcDbEntity
  8
Bracket
 62
     0
100
AcDbLine
 10
-159.9227431844318
 20
1777.219234973329
 30
0.0
 11
-159.9227431844318
 21
1771.67383626323
 31
0.0
  0
LINE
  5
1709
330
1F
100
AcDbEntity
  8
Bracket
 62
     0
100
AcDbLine
 10
-158.4508519796715
 20
1771.243234973329
 30
0.0
 11
-153.9467431844318
 21
1771.243234973329
 31
0.0
  0
LINE
  5
170A
330
1F
100
AcDbEntity
  8
Bracket
 62
     0
100
AcDbLine
 10
-153.9467431844318
 20
1777.219234973329
 30
0.0
 11
-153.9467431844318
 21
1771.243234973329
 31
0.0
  0
LINE
  5
170B
330
1F
100
AcDbEntity
  8
Bracket
 62
     0
100
AcDbLine
 10
-153.9467431844318
 20
1777.219234973329
 30
0.0
 11
-153.9467431844318
 21
1771.243234973329
 31
0.0
  0
LINE
  5
170C
330
1F
100
AcDbEntity
  8
Bracket
 62
     0
100
AcDbLine
 10
-145.4807431844316
 20
1771.243234973329
 30
0.0
 11
-151.4567431844318
 21
1771.243234973329
 31
0.0
  0
LINE
  5
170D
330
1F
100
AcDbEntity
  8
Bracket
 62
     0
100
AcDbLine
 10
-145.4807431844316
 20
1777.219234973329
 30
0.0
 11
-151.4567431844318
 21
1777.219234973329
 31
0.0
  0
LINE
  5
170E
330
1F
100
AcDbEntity
  8
Bracket
 62
     0
100
AcDbLine
 10
-145.4807431844316
 20
1777.219234973329
 30
0.0
 11
-151.4567431844318
 21
1777.219234973329
 31
0.0
  0
LINE
  5
170F
330
1F
100
AcDbEntity
  8
Bracket
 62
     0
100
AcDbLine
 10
-151.4567431844318
 20
1777.219234973329
 30
0.0
 11
-151.4567431844318
 21
1771.243234973329
 31
0.0
  0
LINE
  5
1710
330
1F
100
AcDbEntity
  8
Bracket
 62
     0
100
AcDbLine
 10
-145.4807431844316
 20
1777.219234973329
 30
0.0
 11
-145.4807431844316
 21
1771.243234973329
 31
0.0
  0
LINE
  5
1711
330
1F
100
AcDbEntity
  8
Bracket
 62
     0
100
AcDbLine
 10
-142.9907431844317
 20
1777.219234973329
 30
0.0
 11
-142.9907431844316
 21
1771.243234973329
 31
0.0
  0
LINE
  5
1712
330
1F
100
AcDbEntity
  8
Bracket
 62
     0
100
AcDbLine
 10
-142.9907431844317
 20
1777.219234973329
 30
0.0
 11
-142.9907431844317
 21
1771.243234973329
 31
0.0
  0
LINE
  5
1713
330
1F
100
AcDbEntity
  8
Bracket
 62
     0
100
AcDbLine
 10
-111.6167431844312
 20
1802.617234973329
 30
0.0
 11
-111.6167431844312
 21
1798.11312617809
 31
0.0
  0
LINE
  5
1714
330
1F
100
AcDbEntity
  8
Bracket
 62
     0
100
AcDbLine
 10
-120.0827431844313
 20
1802.617234973329
 30
0.0
 11
-120.0827431844312
 21
1796.641234973328
 31
0.0
  0
LINE
  5
1715
330
1F
100
AcDbEntity
  8
Bracket
 62
     0
100
AcDbLine
 10
-117.5927431844313
 20
1802.617234973329
 30
0.0
 11
-117.5927431844313
 21
1796.641234973328
 31
0.0
  0
LINE
  5
1716
330
1F
100
AcDbEntity
  8
Bracket
 62
     0
100
AcDbLine
 10
-137.0147431844315
 20
1802.617234973329
 30
0.0
 11
-137.0147431844315
 21
1796.641234973328
 31
0.0
  0
LINE
  5
1717
330
1F
100
AcDbEntity
  8
Bracket
 62
     0
100
AcDbLine
 10
-126.0587431844315
 20
1802.617234973329
 30
0.0
 11
-126.0587431844315
 21
1796.641234973328
 31
0.0
  0
LINE
  5
1718
330
1F
100
AcDbEntity
  8
Bracket
 62
     0
100
AcDbLine
 10
-126.0587431844315
 20
1802.617234973329
 30
0.0
 11
-126.0587431844314
 21
1796.641234973329
 31
0.0
  0
LINE
  5
1719
330
1F
100
AcDbEntity
  8
Bracket
 62
     0
100
AcDbLine
 10
-128.5487431844315
 20
1802.617234973329
 30
0.0
 11
-128.5487431844314
 21
1796.641234973328
 31
0.0
  0
LINE
  5
171A
330
1F
100
AcDbEntity
  8
Bracket
 62
     0
100
AcDbLine
 10
-134.5247431844315
 20
1802.617234973329
 30
0.0
 11
-134.5247431844315
 21
1796.641234973328
 31
0.0
  0
LINE
  5
171B
330
1F
100
AcDbEntity
  8
Bracket
 62
     0
100
AcDbLine
 10
-120.0827431844313
 20
1802.617234973329
 30
0.0
 11
-126.0587431844315
 21
1802.617234973329
 31
0.0
  0
LINE
  5
171C
330
1F
100
AcDbEntity
  8
Bracket
 62
     0
100
AcDbLine
 10
-128.5487431844315
 20
1802.617234973329
 30
0.0
 11
-134.5247431844315
 21
1802.617234973329
 31
0.0
  0
LINE
  5
171D
330
1F
100
AcDbEntity
  8
Bracket
 62
     0
100
AcDbLine
 10
-111.6167431844312
 20
1802.617234973329
 30
0.0
 11
-117.5927431844313
 21
1802.617234973329
 31
0.0
  0
LINE
  5
171E
330
1F
100
AcDbEntity
  8
Bracket
 62
     0
100
AcDbLine
 10
-122.9354824447611
 20
1779.709234973329
 30
0.0
 11
-126.0587431844315
 21
1779.709234973329
 31
0.0
  0
LINE
  5
171F
330
1F
100
AcDbEntity
  8
Bracket
 62
     0
100
AcDbLine
 10
-120.0827431844313
 20
1785.685234973328
 30
0.0
 11
-126.0587431844315
 21
1785.685234973328
 31
0.0
  0
LINE
  5
1720
330
1F
100
AcDbEntity
  8
Bracket
 62
     0
100
AcDbLine
 10
-120.0827431844314
 20
1788.175234973328
 30
0.0
 11
-126.0587431844315
 21
1788.175234973328
 31
0.0
  0
LINE
  5
1721
330
1F
100
AcDbEntity
  8
Bracket
 62
     0
100
AcDbLine
 10
-120.0827431844314
 20
1794.151234973329
 30
0.0
 11
-126.0587431844315
 21
1794.151234973329
 31
0.0
  0
LINE
  5
1722
330
1F
100
AcDbEntity
  8
Bracket
 62
     0
100
AcDbLine
 10
-120.0827431844313
 20
1796.641234973328
 30
0.0
 11
-126.0587431844315
 21
1796.641234973328
 31
0.0
  0
LINE
  5
1723
330
1F
100
AcDbEntity
  8
Bracket
 62
     0
100
AcDbLine
 10
-134.5247431844315
 20
1794.151234973329
 30
0.0
 11
-134.5247431844315
 21
1788.175234973328
 31
0.0
  0
LINE
  5
1724
330
1F
100
AcDbEntity
  8
Bracket
 62
     0
100
AcDbLine
 10
-128.5487431844315
 20
1794.151234973329
 30
0.0
 11
-128.5487431844315
 21
1788.175234973328
 31
0.0
  0
LINE
  5
1725
330
1F
100
AcDbEntity
  8
Bracket
 62
     0
100
AcDbLine
 10
-126.0587431844315
 20
1794.151234973329
 30
0.0
 11
-126.0587431844315
 21
1788.175234973328
 31
0.0
  0
LINE
  5
1726
330
1F
100
AcDbEntity
  8
Bracket
 62
     0
100
AcDbLine
 10
-126.0587431844315
 20
1794.151234973329
 30
0.0
 11
-126.0587431844315
 21
1788.175234973328
 31
0.0
  0
LINE
  5
1727
330
1F
100
AcDbEntity
  8
Bracket
 62
     0
100
AcDbLine
 10
-137.0147431844316
 20
1794.151234973329
 30
0.0
 11
-137.0147431844315
 21
1788.175234973328
 31
0.0
  0
LINE
  5
1728
330
1F
100
AcDbEntity
  8
Bracket
 62
     0
100
AcDbLine
 10
-128.5487431844315
 20
1794.151234973329
 30
0.0
 11
-134.5247431844315
 21
1794.151234973329
 31
0.0
  0
LINE
  5
1729
330
1F
100
AcDbEntity
  8
Bracket
 62
     0
100
AcDbLine
 10
-128.5487431844315
 20
1796.641234973328
 30
0.0
 11
-134.5247431844315
 21
1796.641234973328
 31
0.0
  0
LINE
  5
172A
330
1F
100
AcDbEntity
  8
Bracket
 62
     0
100
AcDbLine
 10
-128.5487431844315
 20
1779.709234973329
 30
0.0
 11
-134.5247431844315
 21
1779.709234973329
 31
0.0
  0
LINE
  5
172B
330
1F
100
AcDbEntity
  8
Bracket
 62
     0
100
AcDbLine
 10
-128.5487431844315
 20
1785.685234973328
 30
0.0
 11
-134.5247431844315
 21
1785.685234973328
 31
0.0
  0
LINE
  5
172C
330
1F
100
AcDbEntity
  8
Bracket
 62
     0
100
AcDbLine
 10
-128.5487431844315
 20
1788.175234973328
 30
0.0
 11
-134.5247431844315
 21
1788.175234973328
 31
0.0
  0
LINE
  5
172D
330
1F
100
AcDbEntity
  8
Bracket
 62
     0
100
AcDbLine
 10
-134.5247431844315
 20
1785.685234973328
 30
0.0
 11
-134.5247431844315
 21
1779.709234973329
 31
0.0
  0
LINE
  5
172E
330
1F
100
AcDbEntity
  8
Bracket
 62
     0
100
AcDbLine
 10
-137.0147431844315
 20
1785.685234973328
 30
0.0
 11
-137.0147431844315
 21
1779.709234973329
 31
0.0
  0
LINE
  5
172F
330
1F
100
AcDbEntity
  8
Bracket
 62
     0
100
AcDbLine
 10
-128.5487431844315
 20
1785.685234973328
 30
0.0
 11
-128.5487431844314
 21
1779.709234973329
 31
0.0
  0
LINE
  5
1730
330
1F
100
AcDbEntity
  8
Bracket
 62
     0
100
AcDbLine
 10
-126.0587431844315
 20
1785.685234973328
 30
0.0
 11
-126.0587431844314
 21
1779.709234973329
 31
0.0
  0
LINE
  5
1731
330
1F
100
AcDbEntity
  8
Bracket
 62
     0
100
AcDbLine
 10
-126.0587431844315
 20
1785.685234973328
 30
0.0
 11
-126.0587431844315
 21
1779.709234973329
 31
0.0
  0
ARC
  5
1732
330
1F
100
AcDbEntity
  8
Bracket
 62
     0
100
AcDbCircle
 10
-148.4687431844317
 20
1808.095234973329
 30
0.0
 40
38.18
100
AcDbArc
 50
328.5510186106212
 51
338.5790380545387
  0
LINE
  5
1733
330
1F
100
AcDbEntity
  8
Bracket
 62
     0
100
AcDbLine
 10
-117.5927431844314
 20
1794.151234973329
 30
0.0
 11
-117.5927431844314
 21
1788.175234973328
 31
0.0
  0
LINE
  5
1734
330
1F
100
AcDbEntity
  8
Bracket
 62
     0
100
AcDbLine
 10
-120.0827431844314
 20
1794.151234973329
 30
0.0
 11
-120.0827431844313
 21
1788.175234973328
 31
0.0
  0
ARC
  5
1735
330
1F
100
AcDbEntity
  8
Bracket
 62
     0
100
AcDbCircle
 10
-148.4687431844317
 20
1808.095234973329
 30
0.0
 40
38.18
100
AcDbArc
 50
342.5423968762839
 51
344.8439637466285
  0
LINE
  5
1736
330
1F
100
AcDbEntity
  8
Bracket
 62
     0
100
AcDbLine
 10
-112.0473444743327
 20
1796.641234973328
 30
0.0
 11
-117.5927431844313
 21
1796.641234973328
 31
0.0
  0
LINE
  5
1737
330
1F
100
AcDbEntity
  8
Bracket
 62
     0
100
AcDbLine
 10
-112.9261312376431
 20
1794.151234973329
 30
0.0
 11
-117.5927431844314
 21
1794.151234973329
 31
0.0
  0
LINE
  5
1738
330
1F
100
AcDbEntity
  8
Bracket
 62
     0
100
AcDbLine
 10
-120.0827431844313
 20
1785.685234973328
 30
0.0
 11
-120.0827431844313
 21
1782.561974233658
 31
0.0
  0
ARC
  5
1739
330
1F
100
AcDbEntity
  8
Bracket
 62
     0
100
AcDbCircle
 10
-148.4687431844317
 20
1808.095234973329
 30
0.0
 40
38.18
100
AcDbArc
 50
311.9714409552555
 51
318.0285590447399
  0
LINE
  5
173A
330
1F
100
AcDbEntity
  8
Bracket
 62
     0
100
AcDbLine
 10
-115.897191179653
 20
1788.175234973328
 30
0.0
 11
-117.5927431844314
 21
1788.175234973328
 31
0.0
  0
ARC
  5
173B
330
1F
100
AcDbEntity
  8
Bracket
 62
     0
100
AcDbCircle
 10
-148.4687431844317
 20
1808.095234973329
 30
0.0
 40
38.18
100
AcDbArc
 50
291.4209619454553
 51
301.4489813893805
  0
LINE
  5
173C
330
1F
100
AcDbEntity
  8
Bracket
 62
     0
100
AcDbLine
 10
-128.5487431844315
 20
1777.219234973329
 30
0.0
 11
-134.5247431844315
 21
1777.219234973329
 31
0.0
  0
ARC
  5
173D
330
1F
100
AcDbEntity
  8
Bracket
 62
     0
100
AcDbCircle
 10
-148.4687431844317
 20
1808.095234973329
 30
0.0
 40
38.18
100
AcDbArc
 50
285.1560362533791
 51
287.4576031237236
  0
LINE
  5
173E
330
1F
100
AcDbEntity
  8
Bracket
 62
     0
100
AcDbLine
 10
-137.0147431844316
 20
1777.219234973329
 30
0.0
 11
-137.0147431844316
 21
1771.67383626323
 31
0.0
  0
LINE
  5
173F
330
1F
100
AcDbEntity
  8
Bracket
 62
     0
100
AcDbLine
 10
-134.5247431844315
 20
1777.219234973329
 30
0.0
 11
-134.5247431844316
 21
1772.55262302654
 31
0.0
  0
LINE
  5
1740
330
1F
100
AcDbEntity
  8
Bracket
 62
     0
100
AcDbLine
 10
-128.5487431844315
 20
1777.219234973329
 30
0.0
 11
-128.5487431844315
 21
1775.52368296855
 31
0.0
  0
LINE
  5
1741
330
1F
100
AcDbEntity
  8
Bracket
 62
     0
100
AcDbLine
 10
-198.2687431844311
 20
1702.065234973328
 30
0.0
 11
-98.66874318443109
 21
1702.065234973328
 31
0.0
  0
LINE
  5
1742
330
1F
100
AcDbEntity
  8
Bracket
 62
     0
100
AcDbLine
 10
-189.9687431844311
 20
1669.695234973328
 30
0.0
 11
-106.9687431844311
 21
1669.695234973328
 31
0.0
  0
LINE
  5
1743
102
{ACAD_REACTORS
330
1BD8
102
}
330
1F
100
AcDbEntity
  8
Bracket
 62
     0
100
AcDbLine
 10
-198.2687431844311
 20
1702.065234973328
 30
0.0
 11
-198.2687431844311
 21
1698.745234973329
 31
0.0
  0
LINE
  5
1744
330
1F
100
AcDbEntity
  8
Bracket
 62
     0
100
AcDbLine
 10
-98.66874318443109
 20
1702.065234973328
 30
0.0
 11
-98.66874318443109
 21
1698.745234973329
 31
0.0
  0
LINE
  5
1746
330
1F
100
AcDbEntity
  8
Bracket
 62
     0
100
AcDbLine
 10
-198.2687431844311
 20
1698.745234973329
 30
0.0
 11
-98.66874318443109
 21
1698.745234973329
 31
0.0
  0
LINE
  5
1747
330
1F
100
AcDbEntity
  8
Bracket
 62
     0
100
AcDbLine
 10
-189.9687431844311
 20
1698.745234973329
 30
0.0
 11
-189.9687431844311
 21
1669.695234973328
 31
0.0
  0
LINE
  5
1748
330
1F
100
AcDbEntity
  8
Bracket
 62
     0
100
AcDbLine
 10
-106.9687431844311
 20
1698.745234973329
 30
0.0
 11
-106.9687431844311
 21
1669.695234973328
 31
0.0
  0
LINE
  5
1749
330
1F
100
AcDbEntity
  8
Bracket
 62
     0
100
AcDbLine
 10
-146.3937431844311
 20
1669.695234973328
 30
0.0
 11
-148.4687431844311
 21
1690.445234973329
 31
0.0
  0
LINE
  5
174A
330
1F
100
AcDbEntity
  8
Bracket
 62
     0
100
AcDbLine
 10
-148.4687431844311
 20
1690.445234973329
 30
0.0
 11
-150.5437431844311
 21
1669.695234973328
 31
0.0
  0
DIMENSION
  5
174B
330
1F
100
AcDbEntity
  8
Object
  6
HIDDEN2
100
AcDbDimension
  2
*D31
 10
-210.6972829576589
 20
1698.745234973329
 30
0.0
 11
-215.2788705972453
 21
1716.12765614863
 31
0.0
 70
   160
  1
Ｄ
 71
     5
 42
3.319999999999026
 53
0.001
  3
JIS
100
AcDbAlignedDimension
 13
-198.2687431844311
 23
1702.065234973328
 33
0.0
 14
-198.2687431844311
 24
1698.745234973329
 34
0.0
 50
90.0
100
AcDbRotatedDimension
1001
ACAD
1000
DSTYLE
1002
{
1070
    41
1040
8.0
1070
   140
1040
8.0
1070
   147
1040
3.0
1070
   279
1070
     2
1002
}
  0
LINE
  5
174D
330
1F
100
AcDbEntity
  8
Bracket
 62
     0
100
AcDbLine
 10
-108.9998977581823
 20
1690.445234973329
 30
0.0
 11
-109.6904749519327
 21
1669.695234973328
 31
0.0
  0
LINE
  5
174E
330
1F
100
AcDbEntity
  8
Bracket
 62
     0
100
AcDbLine
 10
-108.9998977581823
 20
1690.445234973329
 30
0.0
 11
-108.4080544252766
 21
1669.695234973328
 31
0.0
  0
LINE
  5
174F
330
1F
100
AcDbEntity
  8
Bracket
 62
     0
100
AcDbLine
 10
-187.9375886106799
 20
1690.445234973329
 30
0.0
 11
-188.5294319435855
 21
1669.695234973328
 31
0.0
  0
LINE
  5
1750
330
1F
100
AcDbEntity
  8
Bracket
 62
     0
100
AcDbLine
 10
-187.9375886106799
 20
1690.445234973329
 30
0.0
 11
-187.2470114169295
 21
1669.695234973328
 31
0.0
  0
DIMENSION
  5
1751
330
1F
100
AcDbEntity
  8
Object
  6
HIDDEN2
100
AcDbDimension
  2
*D33
 10
-224.0217433588914
 20
1698.745234973329
 30
0.0
 11
-228.9395892542889
 21
1684.038997185188
 31
0.0
 70
   160
  1
Ｃ
 71
     5
 42
29.05000000000109
 53
0.001
  3
JIS
100
AcDbAlignedDimension
 13
-106.9687431844311
 23
1669.695234973328
 33
0.0
 14
-98.66874318443109
 24
1698.745234973329
 34
0.0
 50
90.0
100
AcDbRotatedDimension
1001
ACAD
1000
DSTYLE
1002
{
1070
    41
1040
8.0
1070
   140
1040
8.0
1070
   147
1040
3.0
1070
   279
1070
     2
1002
}
  0
DIMENSION
  5
1752
330
1F
100
AcDbEntity
  8
Object
  6
HIDDEN2
100
AcDbDimension
  2
*D34
 10
-106.9687431844311
 20
1648.359341315376
 30
0.0
 11
-148.4687431844311
 21
1655.359341315376
 31
0.0
 70
    32
  1
Ａ
 71
     5
 42
83.00000000000002
  3
JIS
100
AcDbAlignedDimension
 13
-189.9687431844311
 23
1669.695234973328
 33
0.0
 14
-106.9687431844311
 24
1669.695234973328
 34
0.0
100
AcDbRotatedDimension
1001
ACAD
1000
DSTYLE
1002
{
1070
   140
1040
8.0
1070
    41
1040
8.0
1070
   147
1040
3.0
1002
}
  0
DIMENSION
  5
1BC1
102
{ACAD_XDICTIONARY
360
1BCE
102
}
102
{ACAD_REACTORS
330
1BD8
102
}
330
1F
100
AcDbEntity
  8
Object
  6
HIDDEN2
100
AcDbDimension
  2
*D36
 10
-198.2687431844311
 20
1723.441977057165
 30
0.0
 11
-147.9687431844311
 21
1730.441977057165
 31
0.0
 70
    32
  1
Ｂ
 71
     5
 42
100.6
  3
JIS
100
AcDbAlignedDimension
 13
-97.66874318443107
 23
1702.065234973328
 33
0.0
 14
-198.2687431844311
 24
1702.065234973328
 34
0.0
100
AcDbRotatedDimension
1001
ACAD
1000
DSTYLE
1002
{
1070
   147
1040
3.0
1070
   140
1040
8.0
1070
    41
1040
8.0
1002
}
  0
VIEWPORT
  5
1F4A
102
{ACAD_XDICTIONARY
360
1F88
102
}
330
1F49
100
AcDbEntity
 67
     1
  8
0
100
AcDbViewport
 10
147.7425367343597
 20
71.83325631286703
 30
0.0
 40
543.2948675854447
 41
335.8075562657833
 68
     1
 69
     1
 12
147.7425367343597
 22
71.83325631286703
 13
0.0
 23
0.0
 14
10.0
 24
10.0
 15
10.0
 25
10.0
 16
0.0
 26
0.0
 36
1.0
 17
0.0
 27
0.0
 37
0.0
 42
50.0
 43
0.0
 44
0.0
 45
335.8075562657833
 50
0.0
 51
0.0
 72
  1000
 90
   557152
  1

281
     0
 71
     1
 74
     0
110
0.0
120
0.0
130
0.0
111
1.0
121
0.0
131
0.0
112
0.0
122
1.0
132
0.0
 79
     0
146
0.0
  0
LWPOLYLINE
  5
1F4B
102
{ACAD_REACTORS
330
1F4C
102
}
330
1F49
100
AcDbEntity
 67
     1
  8
Viewport
100
AcDbPolyline
 90
        8
 70
     1
 43
0.0
 10
12.5
 20
202.0
 10
284.5
 20
202.0
 10
284.4978723404242
 20
34.0
 10
167.4978723404242
 20
34.0
 10
167.4978723404242
 20
7.0
 10
129.5
 20
7.0
 10
12.5
 20
7.0
 10
12.5
 20
31.0
  0
VIEWPORT
  5
1F4C
102
{ACAD_XDICTIONARY
360
1F8A
102
}
330
1F49
100
AcDbEntity
 67
     1
  8
Viewport
100
AcDbViewport
 10
148.5
 20
104.5
 30
0.0
 40
272.0000000000001
 41
195.0
 68
     2
 69
     2
 12
-147.2123518318303
 22
1745.44881660322
 13
0.0
 23
0.0
 14
10.0
 24
10.0
 15
10.0
 25
10.0
 16
0.0
 26
0.0
 36
1.0
 17
0.0
 27
0.0
 37
0.0
 42
50.0
 43
0.0
 44
0.0
 45
390.0000026328271
 50
0.0
 51
0.0
 72
   100
 90
    98368
340
1F4B
  1

281
     0
 71
     1
 74
     0
110
0.0
120
0.0
130
0.0
111
1.0
121
0.0
131
0.0
112
0.0
122
1.0
132
0.0
 79
     0
146
0.0
  0
MTEXT
  5
1F4D
330
1F49
100
AcDbEntity
 67
     1
  8
Object
370
    -3
100
AcDbMText
 10
227.5506053820893
 20
22.99204596883612
 30
0.0
 40
5.0
 41
77.0
 71
     5
 72
     5
  1
Ｓ型フィルター
 73
     1
 44
1.0
1001
AcDbBlockRepETag
1070
     1
1071
       68
1005
1F4D
1001
ACAD
1000
MTEXTBEGIN
1070
    73
1070
     1
1070
    44
1040
1.0
1070
    74
1070
     0
1000
MTEXTEND
  0
LINE
  5
1F4E
330
1F49
100
AcDbEntity
 67
     1
  8
0
100
AcDbLine
 10
12.5
 20
7.0
 30
0.0
 11
12.5
 21
202.0
 31
0.0
1001
AcDbBlockRepETag
1070
     1
1071
        2
1005
1F4E
  0
LINE
  5
1F4F
330
1F49
100
AcDbEntity
 67
     1
  8
0
100
AcDbLine
 10
25.0
 20
0.0
 30
0.0
 11
0.0
 21
0.0
 31
0.0
1001
AcDbBlockRepETag
1070
     1
1071
        3
1005
1F4F
  0
LINE
  5
1F50
330
1F49
100
AcDbEntity
 67
     1
  8
0
100
AcDbLine
 10
0.0
 20
0.0
 30
0.0
 11
0.0
 21
10.0
 31
0.0
1001
AcDbBlockRepETag
1070
     1
1071
        4
1005
1F50
  0
LINE
  5
1F51
330
1F49
100
AcDbEntity
 67
     1
  8
0
100
AcDbLine
 10
148.5
 20
6.0
 30
0.0
 11
148.5
 21
5.0
 31
0.0
1001
AcDbBlockRepETag
1070
     1
1071
       20
1005
1F51
  0
LINE
  5
1F52
330
1F49
100
AcDbEntity
 67
     1
  8
0
100
AcDbLine
 10
0.0
 20
210.0
 30
0.0
 11
25.0
 21
210.0
 31
0.0
1001
AcDbBlockRepETag
1070
     1
1071
       23
1005
1F52
  0
LINE
  5
1F53
330
1F49
100
AcDbEntity
 67
     1
  8
0
100
AcDbLine
 10
0.0
 20
200.0
 30
0.0
 11
0.0
 21
210.0
 31
0.0
1001
AcDbBlockRepETag
1070
     1
1071
       24
1005
1F53
  0
LINE
  5
1F54
330
1F49
100
AcDbEntity
 67
     1
  8
0
100
AcDbLine
 10
284.5
 20
202.0
 30
0.0
 11
284.5
 21
7.0
 31
0.0
1001
AcDbBlockRepETag
1070
     1
1071
       36
1005
1F54
  0
LINE
  5
1F55
330
1F49
100
AcDbEntity
 67
     1
  8
0
100
AcDbLine
 10
297.0
 20
10.0
 30
0.0
 11
297.0
 21
0.0
 31
0.0
1001
AcDbBlockRepETag
1070
     1
1071
       40
1005
1F55
  0
LINE
  5
1F56
330
1F49
100
AcDbEntity
 67
     1
  8
0
100
AcDbLine
 10
297.0
 20
210.0
 30
0.0
 11
297.0
 21
200.0
 31
0.0
1001
AcDbBlockRepETag
1070
     1
1071
       54
1005
1F56
  0
LINE
  5
1F57
330
1F49
100
AcDbEntity
 67
     1
  8
0
100
AcDbLine
 10
272.0
 20
210.0
 30
0.0
 11
297.0
 21
210.0
 31
0.0
1001
AcDbBlockRepETag
1070
     1
1071
       55
1005
1F57
  0
LINE
  5
1F58
330
1F49
100
AcDbEntity
 67
     1
  8
0
100
AcDbLine
 10
272.0
 20
0.0
 30
0.0
 11
297.0
 21
0.0
 31
0.0
1001
AcDbBlockRepETag
1070
     1
1071
       56
1005
1F58
  0
LINE
  5
1F59
330
1F49
100
AcDbEntity
 67
     1
  8
0
100
AcDbLine
 10
284.5
 20
7.0
 30
0.0
 11
12.5
 21
7.0
 31
0.0
1001
AcDbBlockRepETag
1070
     1
1071
       57
1005
0
  0
LINE
  5
1F5A
330
1F49
100
AcDbEntity
 67
     1
  8
0
100
AcDbLine
 10
12.5
 20
202.0
 30
0.0
 11
284.5
 21
202.0
 31
0.0
1001
AcDbBlockRepETag
1070
     1
1071
       58
1005
0
  0
LINE
  5
1F5B
330
1F49
100
AcDbEntity
 67
     1
  8
0
 62
     0
380
     1
100
AcDbLine
 10
284.5
 20
7.0
 30
0.0
 11
284.5
 21
43.0
 31
0.0
1001
AcDbBlockRepETag
1070
     1
1071
       49
1005
1F5B
  0
LINE
  5
1F5C
330
1F49
100
AcDbEntity
 67
     1
  8
0
100
AcDbLine
 10
284.4978723404242
 20
16.0
 30
0.0
 11
167.4978723404242
 21
16.0
 31
0.0
1001
AcDbBlockRepETag
1070
     1
1071
      166
1005
1F5C
  0
LINE
  5
1F5D
330
1F49
100
AcDbEntity
 67
     1
  8
0
100
AcDbLine
 10
218.4978723404242
 20
7.0
 30
0.0
 11
218.4978723404242
 21
16.0
 31
0.0
1001
AcDbBlockRepETag
1070
     1
1071
      167
1005
1F5D
  0
LINE
  5
1F5E
330
1F49
100
AcDbEntity
 67
     1
  8
0
100
AcDbLine
 10
284.4978723404242
 20
34.0
 30
0.0
 11
167.4978723404242
 21
34.0
 31
0.0
1001
AcDbBlockRepETag
1070
     1
1071
      169
1005
1F5E
  0
MTEXT
  5
1F5F
330
1F49
100
AcDbEntity
 67
     1
  8
0
100
AcDbMText
 10
192.9978723404242
 20
11.5
 30
0.0
 40
4.0
 41
51.0
 71
     5
 72
     5
  1
富国石油株式会社
 73
     1
 44
1.0
1001
AcDbBlockRepETag
1070
     1
1071
      171
1005
1F5F
1001
ACAD
1000
MTEXTBEGIN
1070
    73
1070
     1
1070
    44
1040
1.0
1070
    74
1070
     0
1000
MTEXTEND
  0
LINE
  5
1F60
330
1F49
100
AcDbEntity
 67
     1
  8
0
  6
HIDDEN2
 48
0.5
100
AcDbLine
 10
284.4978723404242
 20
29.5
 30
0.0
 11
167.4978723404242
 21
29.5
 31
0.0
1001
AcDbBlockRepETag
1070
     1
1071
      180
1005
1F60
  0
ENDSEC
  0
SECTION
  2
OBJECTS
  0
DICTIONARY
  5
C
330
0
100
AcDbDictionary
281
     1
  3
ACAD_COLOR
350
14D
  3
ACAD_GROUP
350
D
  3
ACAD_LAYOUT
350
1A
  3
ACAD_MATERIAL
350
14C
  3
ACAD_MLINESTYLE
350
17
  3
ACAD_PLOTSETTINGS
350
19
  3
ACAD_PLOTSTYLENAME
350
E
  3
ACAD_TABLESTYLE
350
17B
  3
ACAD_VISUALSTYLE
350
1D3
  3
AcDbVariableDictionary
350
148
  3
DWGPROPS
350
1F6E
  0
DICTIONARY
  5
18A
330
2
100
AcDbDictionary
280
     1
281
     1
  3
ACAD_LAYERFILTERS
360
463
  3
ACAD_LAYERSTATES
360
18B
  3
ACLYDICTIONARY
360
462
  0
DICTIONARY
  5
B52
330
1F
100
AcDbDictionary
280
     1
281
     1
  3
ACAD_SORTENTS
360
B53
  0
DICTIONARY
  5
28E
330
AB
100
AcDbDictionary
280
     1
281
     1
  0
DICTIONARY
  5
4E8
330
4E7
100
AcDbDictionary
280
     1
281
     1
  3
ACAD_SORTENTS
360
6DE
  0
DICTIONARY
  5
930
330
6ED
100
AcDbDictionary
280
     1
281
     1
  3
ACAD_SORTENTS
360
931
  0
DICTIONARY
  5
1F77
330
316
100
AcDbDictionary
280
     1
281
     1
  3
ACAD_MTEXT_RT
360
1F78
  0
DICTIONARY
  5
1F7B
330
539
100
AcDbDictionary
280
     1
281
     1
  3
ACAD_MTEXT_RT
360
1F7C
  0
DICTIONARY
  5
1F83
330
9C6
100
AcDbDictionary
280
     1
281
     1
  3
ACAD_MTEXT_RT
360
1F84
  0
DICTIONARY
  5
1BCE
330
1BC1
100
AcDbDictionary
280
     1
281
     1
  3
ACAD_DIMASSOC
360
1BD8
  0
DICTIONARY
  5
1F88
330
1F4A
100
AcDbDictionary
280
     1
281
     1
  3
ACAD_XREC_ROUNDTRIP
360
1F89
  0
DICTIONARY
  5
1F8A
330
1F4C
100
AcDbDictionary
280
     1
281
     1
  3
ACAD_XREC_ROUNDTRIP
360
1F8B
  0
DICTIONARY
  5
14D
102
{ACAD_REACTORS
330
C
102
}
330
C
100
AcDbDictionary
281
     1
  0
DICTIONARY
  5
D
102
{ACAD_REACTORS
330
C
102
}
330
C
100
AcDbDictionary
281
     1
  0
DICTIONARY
  5
1A
102
{ACAD_REACTORS
330
C
102
}
330
C
100
AcDbDictionary
281
     1
  3
A4横
350
1F46
  3
Model
350
22
  0
DICTIONARY
  5
14C
102
{ACAD_REACTORS
330
C
102
}
330
C
100
AcDbDictionary
281
     1
  3
ByBlock
350
1D1
  3
ByLayer
350
1D0
  3
Global
350
1D2
  0
DICTIONARY
  5
17
102
{ACAD_REACTORS
330
C
102
}
330
C
100
AcDbDictionary
281
     1
  3
Standard
350
18
  0
DICTIONARY
  5
19
102
{ACAD_REACTORS
330
C
102
}
330
C
100
AcDbDictionary
281
     1
  3
JIS A4 title block (portrait) - no output device
350
11F
  0
ACDBDICTIONARYWDFLT
  5
E
102
{ACAD_REACTORS
330
C
102
}
330
C
100
AcDbDictionary
281
     1
  3
Normal
350
F
100
AcDbDictionaryWithDefault
340
F
  0
DICTIONARY
  5
17B
102
{ACAD_REACTORS
330
C
102
}
330
C
100
AcDbDictionary
281
     1
  3
Standard
350
17C
  0
DICTIONARY
  5
1D3
102
{ACAD_REACTORS
330
C
102
}
330
C
100
AcDbDictionary
281
     1
  3
2dWireframe
350
1D9
  3
3D Hidden
350
1DB
  3
3dWireframe
350
1DA
  3
Basic
350
1D8
  3
Brighten
350
1DF
  3
ColorChange
350
1E3
  3
Conceptual
350
1DC
  3
Dim
350
1DE
  3
Facepattern
350
1E2
  3
Flat
350
1D4
  3
FlatWithEdges
350
1D5
  3
Gouraud
350
1D6
  3
GouraudWithEdges
350
1D7
  3
Linepattern
350
1E1
  3
Realistic
350
1DD
  3
Thicken
350
1E0
  0
DICTIONARY
  5
148
102
{ACAD_REACTORS
330
C
102
}
330
C
100
AcDbDictionary
281
     1
  3
CTABLESTYLE
350
190
  3
DIMASSOC
350
14A
  3
HIDETEXT
350
149
  3
INDEXCTL
350
1110
  3
PSOLHEIGHT
350
1F6D
  3
PSOLWIDTH
350
1F6C
  3
SORTENTS
350
110F
  0
XRECORD
  5
1F6E
102
{ACAD_REACTORS
330
C
102
}
330
C
100
AcDbXrecord
280
     1
  1
DWGPROPS COOKIE
  2

  3

  4

  6

  7

  8
k-uehara
  9

300
=
301
=
302
=
303
=
304
=
305
=
306
=
307
=
308
=
309
=
 40
0.1354964930555556
 41
2454379.577641921
 42
2454936.648381979
  1

 90
        0
  0
DICTIONARY
  5
463
102
{ACAD_REACTORS
330
18A
102
}
330
18A
100
AcDbDictionary
281
     1
  0
DICTIONARY
  5
18B
102
{ACAD_REACTORS
330
18A
102
}
330
18A
100
AcDbDictionary
281
     1
  3
ACAD_VIEWS_元図１
350
6AC
  0
DICTIONARY
  5
462
102
{ACAD_REACTORS
330
18A
102
}
330
18A
100
AcDbDictionary
281
     1
1001
ACAD
1000
<All
  0
SORTENTSTABLE
  5
B53
102
{ACAD_REACTORS
330
B52
102
}
330
B52
100
AcDbSortentsTable
330
1F
331
1748
  5
1748
331
1670
  5
1670
331
15FA
  5
15FA
331
1631
  5
1631
331
16EE
  5
16EE
331
1639
  5
1639
331
1678
  5
1678
331
1602
  5
1602
331
16AF
  5
16AF
331
16B7
  5
16B7
331
16F6
  5
16F6
331
160A
  5
160A
331
1641
  5
1641
331
1680
  5
1680
331
1688
  5
1688
331
16BF
  5
16BF
331
1612
  5
1612
331
1649
  5
1649
331
16FE
  5
16FE
331
16C7
  5
16C7
331
1706
  5
1706
331
1725
  5
1725
331
172D
  5
172D
331
1735
  5
1735
331
173D
  5
173D
331
1750
  5
1750
331
1690
  5
1690
331
161A
  5
161A
331
1651
  5
1651
331
170E
  5
170E
331
1659
  5
1659
331
1698
  5
1698
331
1622
  5
1622
331
16CF
  5
16CF
331
16D7
  5
16D7
331
1716
  5
1716
331
162A
  5
162A
331
1661
  5
1661
331
16A0
  5
16A0
331
16DF
  5
16DF
331
1669
  5
1669
331
171E
  5
171E
331
16E7
  5
16E7
331
1749
  5
1749
331
16A8
  5
16A8
331
15FB
  5
15FB
331
1632
  5
1632
331
1671
  5
1671
331
1679
  5
1679
331
16B0
  5
16B0
331
1603
  5
1603
331
163A
  5
163A
331
16EF
  5
16EF
331
16F7
  5
16F7
331
1681
  5
1681
331
16B8
  5
16B8
331
160B
  5
160B
331
1642
  5
1642
331
16FF
  5
16FF
331
164A
  5
164A
331
1689
  5
1689
331
1613
  5
1613
331
16C0
  5
16C0
331
1707
  5
1707
331
1726
  5
1726
331
172E
  5
172E
331
1736
  5
1736
331
173E
  5
173E
331
1751
  5
1751
331
16C8
  5
16C8
331
161B
  5
161B
331
1652
  5
1652
331
1691
  5
1691
331
1699
  5
1699
331
16D0
  5
16D0
331
1623
  5
1623
331
165A
  5
165A
331
170F
  5
170F
331
16A1
  5
16A1
331
16D8
  5
16D8
331
162B
  5
162B
331
1662
  5
1662
331
1717
  5
1717
331
171F
  5
171F
331
166A
  5
166A
331
16E0
  5
16E0
331
1746
  5
1746
331
174A
  5
174A
331
16E8
  5
16E8
331
1633
  5
1633
331
1672
  5
1672
331
15FC
  5
15FC
331
16A9
  5
16A9
331
16F0
  5
16F0
331
163B
  5
163B
331
167A
  5
167A
331
1604
  5
1604
331
16B1
  5
16B1
331
16B9
  5
16B9
331
16F8
  5
16F8
331
160C
  5
160C
331
1643
  5
1643
331
1682
  5
1682
331
168A
  5
168A
331
16C1
  5
16C1
331
1614
  5
1614
331
164B
  5
164B
331
1700
  5
1700
331
1727
  5
1727
331
172F
  5
172F
331
1737
  5
1737
331
173F
  5
173F
331
1752
  5
1752
331
1708
  5
1708
331
1692
  5
1692
331
16C9
  5
16C9
331
161C
  5
161C
331
1653
  5
1653
331
1710
  5
1710
331
165B
  5
165B
331
169A
  5
169A
331
1624
  5
1624
331
16D1
  5
16D1
331
16D9
  5
16D9
331
1718
  5
1718
331
162C
  5
162C
331
1663
  5
1663
331
16A2
  5
16A2
331
16E1
  5
16E1
331
166B
  5
166B
331
1747
  5
1747
331
174B
  5
174B
331
16AA
  5
16AA
331
16E9
  5
16E9
331
15FD
  5
15FD
331
1634
  5
1634
331
1673
  5
1673
331
167B
  5
167B
331
16B2
  5
16B2
331
1605
  5
1605
331
163C
  5
163C
331
16F1
  5
16F1
331
16F9
  5
16F9
331
1644
  5
1644
331
1683
  5
1683
331
160D
  5
160D
331
16BA
  5
16BA
331
1701
  5
1701
331
164C
  5
164C
331
168B
  5
168B
331
1615
  5
1615
331
16C2
  5
16C2
331
1720
  5
1720
331
1728
  5
1728
331
1730
  5
1730
331
1738
  5
1738
331
16CA
  5
16CA
331
1709
  5
1709
331
161D
  5
161D
331
1654
  5
1654
331
1693
  5
1693
331
169B
  5
169B
331
16D2
  5
16D2
331
1625
  5
1625
331
165C
  5
165C
331
1711
  5
1711
331
1719
  5
1719
331
16A3
  5
16A3
331
16DA
  5
16DA
331
162D
  5
162D
331
1664
  5
1664
331
166C
  5
166C
331
16E2
  5
16E2
331
1740
  5
1740
331
16EA
  5
16EA
331
1635
  5
1635
331
1674
  5
1674
331
15FE
  5
15FE
331
16AB
  5
16AB
331
16B3
  5
16B3
331
16F2
  5
16F2
331
163D
  5
163D
331
167C
  5
167C
331
1606
  5
1606
331
16BB
  5
16BB
331
16FA
  5
16FA
331
160E
  5
160E
331
1645
  5
1645
331
1684
  5
1684
331
168C
  5
168C
331
16C3
  5
16C3
331
1616
  5
1616
331
164D
  5
164D
331
1702
  5
1702
331
1721
  5
1721
331
1729
  5
1729
331
1731
  5
1731
331
1739
  5
1739
331
170A
  5
170A
331
1655
  5
1655
331
1694
  5
1694
331
161E
  5
161E
331
16CB
  5
16CB
331
1712
  5
1712
331
165D
  5
165D
331
169C
  5
169C
331
1626
  5
1626
331
16D3
  5
16D3
331
16DB
  5
16DB
331
171A
  5
171A
331
162E
  5
162E
331
1665
  5
1665
331
16A4
  5
16A4
331
16E3
  5
16E3
331
15F7
  5
15F7
331
166D
  5
166D
331
1741
  5
1741
331
174D
  5
174D
331
16AC
  5
16AC
331
16EB
  5
16EB
331
15FF
  5
15FF
331
1636
  5
1636
331
1675
  5
1675
331
167D
  5
167D
331
16B4
  5
16B4
331
1607
  5
1607
331
163E
  5
163E
331
16F3
  5
16F3
331
16FB
  5
16FB
331
1646
  5
1646
331
1685
  5
1685
331
160F
  5
160F
331
16BC
  5
16BC
331
16C4
  5
16C4
331
1703
  5
1703
331
164E
  5
164E
331
168D
  5
168D
331
1617
  5
1617
331
1722
  5
1722
331
172A
  5
172A
331
1732
  5
1732
331
173A
  5
173A
331
16CC
  5
16CC
331
170B
  5
170B
331
161F
  5
161F
331
1656
  5
1656
331
1695
  5
1695
331
169D
  5
169D
331
16D4
  5
16D4
331
1627
  5
1627
331
165E
  5
165E
331
1713
  5
1713
331
171B
  5
171B
331
1666
  5
1666
331
16A5
  5
16A5
331
162F
  5
162F
331
16DC
  5
16DC
331
166E
  5
166E
331
16E4
  5
16E4
331
1742
  5
1742
331
174E
  5
174E
331
15F8
  5
15F8
331
16EC
  5
16EC
331
1637
  5
1637
331
1676
  5
1676
331
1600
  5
1600
331
16AD
  5
16AD
331
16B5
  5
16B5
331
16F4
  5
16F4
331
1608
  5
1608
331
163F
  5
163F
331
167E
  5
167E
331
16BD
  5
16BD
331
16FC
  5
16FC
331
1610
  5
1610
331
1647
  5
1647
331
1686
  5
1686
331
168E
  5
168E
331
16C5
  5
16C5
331
164F
  5
164F
331
1704
  5
1704
331
1723
  5
1723
331
172B
  5
172B
331
1733
  5
1733
331
173B
  5
173B
331
1618
  5
1618
331
170C
  5
170C
331
1657
  5
1657
331
1696
  5
1696
331
1620
  5
1620
331
16CD
  5
16CD
331
16D5
  5
16D5
331
1714
  5
1714
331
165F
  5
165F
331
169E
  5
169E
331
1628
  5
1628
331
16DD
  5
16DD
331
171C
  5
171C
331
1667
  5
1667
331
16A6
  5
16A6
331
16E5
  5
16E5
331
166F
  5
166F
331
1743
  5
1743
331
174F
  5
174F
331
15F9
  5
15F9
331
1630
  5
1630
331
1677
  5
1677
331
16AE
  5
16AE
331
1601
  5
1601
331
1638
  5
1638
331
16ED
  5
16ED
331
167F
  5
167F
331
16B6
  5
16B6
331
1609
  5
1609
331
1640
  5
1640
331
16F5
  5
16F5
331
16FD
  5
16FD
331
1648
  5
1648
331
1687
  5
1687
331
1611
  5
1611
331
16BE
  5
16BE
331
16C6
  5
16C6
331
1705
  5
1705
331
168F
  5
168F
331
1724
  5
1724
331
172C
  5
172C
331
1734
  5
1734
331
173C
  5
173C
331
1619
  5
1619
331
1650
  5
1650
331
16CE
  5
16CE
331
170D
  5
170D
331
1621
  5
1621
331
1658
  5
1658
331
1697
  5
1697
331
169F
  5
169F
331
16D6
  5
16D6
331
1629
  5
1629
331
1660
  5
1660
331
1715
  5
1715
331
171D
  5
171D
331
1668
  5
1668
331
16A7
  5
16A7
331
16DE
  5
16DE
331
16E6
  5
16E6
331
1744
  5
1744
  0
SORTENTSTABLE
  5
6DE
102
{ACAD_REACTORS
330
4E8
102
}
330
4E8
100
AcDbSortentsTable
330
4E7
  0
SORTENTSTABLE
  5
931
102
{ACAD_REACTORS
330
930
102
}
330
930
100
AcDbSortentsTable
330
6ED
  0
XRECORD
  5
1F78
102
{ACAD_REACTORS
330
1F77
102
}
330
1F77
100
AcDbXrecord
280
     1
 40
476.0
  1
検^J図
  0
XRECORD
  5
1F7C
102
{ACAD_REACTORS
330
1F7B
102
}
330
1F7B
100
AcDbXrecord
280
     1
 40
476.0
  1
検^J図
  0
XRECORD
  5
1F84
102
{ACAD_REACTORS
330
1F83
102
}
330
1F83
100
AcDbXrecord
280
     1
 40
476.0
  1
検^J図
  0
DIMASSOC
  5
1BD8
102
{ACAD_REACTORS
330
1BCE
102
}
330
1BCE
100
AcDbDimAssoc
330
1BC1
 90
        2
 70
     0
 71
     0
  1
AcDbOsnapPointRef
 72
    13
331
1743
 73
     2
 91
        0
 40
0.0
 10
0.0
 20
0.0
 30
2.000000000000000E+50
 75
     0
  0
XRECORD
  5
1F89
102
{ACAD_REACTORS
330
1F88
102
}
330
1F88
100
AcDbXrecord
280
     1
102
SHADEPLOT
 70
     0
  0
XRECORD
  5
1F8B
102
{ACAD_REACTORS
330
1F8A
102
}
330
1F8A
100
AcDbXrecord
280
     1
102
SHADEPLOT
 70
     0
  0
LAYOUT
  5
1F46
102
{ACAD_XDICTIONARY
360
1F47
102
}
102
{ACAD_REACTORS
330
1A
102
}
330
1A
100
AcDbPlotSettings
  1

  2
Canon iR C3200 LIPS
  4
A4
  6

 40
5.873749732971191
 41
5.873747825622558
 42
5.873748779296875
 43
5.873748779296875
 44
209.9733276367187
 45
296.9259948730469
 46
-5.893494129188383
 47
-5.919814586649977
 48
0.0
 49
0.0
140
0.0
141
0.0
142
1.0
143
1.0
 70
   692
 72
     1
 73
     1
 74
     1
  7
monochrome.ctb
 75
    16
147
1.0
148
0.0090630292066862
149
0.0064082024693448
100
AcDbLayout
  1
A4横
 70
     1
 71
     1
 10
0.037002778146416
 20
0.0133361937478469
 11
296.9629976511933
 21
209.9866638304666
 12
0.0
 22
0.0
 32
0.0
 14
0.0
 24
0.0
 34
0.0
 15
297.0
 25
210.0
 35
0.0
146
0.0
 13
0.0
 23
0.0
 33
0.0
 16
1.0
 26
0.0
 36
0.0
 17
0.0
 27
1.0
 37
0.0
 76
     0
330
1F49
331
1F4A
1001
ACAD_PSEXT
1000
Canon iR C3200 LIPS
1000
Canon iR C3200 LIPS
1000
IP_128.1.1.200
1000

1070
     0
  0
LAYOUT
  5
22
102
{ACAD_XDICTIONARY
360
1F6F
102
}
102
{ACAD_REACTORS
330
1A
102
}
330
1A
100
AcDbPlotSettings
  1

  2
none_device
  4
ISO_A4_(210.00_x_297.00_MM)
  6

 40
7.5
 41
20.0
 42
7.5
 43
20.0
 44
210.0
 45
297.0
 46
0.0
 47
73.36421725239617
 48
0.0
 49
0.0
140
0.0
141
0.0
142
1.0
143
2.869813509774056
 70
 11956
 72
     1
 73
     0
 74
     0
  7

 75
     0
147
0.3484546980471668
148
1.967705816488884
149
9.729414201041008
100
AcDbLayout
  1
Model
 70
     1
 71
     0
 10
0.0
 20
0.0
 11
12.0
 21
9.0
 12
0.0
 22
0.0
 32
0.0
 14
0.0
 24
0.0
 34
0.0
 15
0.0
 25
0.0
 35
0.0
146
0.0
 13
0.0
 23
0.0
 33
0.0
 16
1.0
 26
0.0
 36
0.0
 17
0.0
 27
1.0
 37
0.0
 76
     0
330
1F
331
1B5
1001
ACAD_PSEXT
1000
None
1000
None
1000
Not applicable
1000
The layout will not be plotted unless a new plotter configuration name is selected.
1070
     0
  0
MATERIAL
  5
1D1
102
{ACAD_XDICTIONARY
360
1E3B
102
}
102
{ACAD_REACTORS
330
14C
102
}
330
14C
100
AcDbMaterial
  1
ByBlock
  0
MATERIAL
  5
1D0
102
{ACAD_XDICTIONARY
360
1E39
102
}
102
{ACAD_REACTORS
330
14C
102
}
330
14C
100
AcDbMaterial
  1
ByLayer
  0
MATERIAL
  5
1D2
102
{ACAD_XDICTIONARY
360
1E3D
102
}
102
{ACAD_REACTORS
330
14C
102
}
330
14C
100
AcDbMaterial
  1
Global
  0
MLINESTYLE
  5
18
102
{ACAD_REACTORS
330
17
102
}
330
17
100
AcDbMlineStyle
  2
STANDARD
 70
     0
  3

 62
   256
 51
90.0
 52
90.0
 71
     2
 49
0.5
 62
   256
  6
BYLAYER
 49
-0.5
 62
   256
  6
BYLAYER
  0
PLOTSETTINGS
  5
11F
102
{ACAD_XDICTIONARY
360
1F73
102
}
102
{ACAD_REACTORS
330
19
102
}
330
19
100
AcDbPlotSettings
  1
JIS A4 title block (portrait) - no output device
  2
None
  4
ISO_A4_(210.00_x_297.00_MM)
  6

 40
7.549999999999998
 41
20.05
 42
7.549999999999998
 43
20.05
 44
210.0
 45
297.0
 46
-7.559999999999997
 47
-20.06
 48
0.0
 49
0.0
140
0.0
141
0.0
142
1.0
143
1.0
 70
   692
 72
     1
 73
     0
 74
     1
  7

 75
    16
147
1.0
148
0.0128164049386896
149
0.0090630292066862
  0
ACDBPLACEHOLDER
  5
F
102
{ACAD_REACTORS
330
E
102
}
330
E
  0
TABLESTYLE
  5
17C
102
{ACAD_XDICTIONARY
360
1F75
102
}
102
{ACAD_REACTORS
330
17B
102
}
330
17B
100
AcDbTableStyle
  3
Standard
 70
     0
 71
     0
 40
1.5
 41
1.5
280
     0
281
     0
  7
Standard
140
4.5
170
     2
 62
     0
 63
     7
283
     0
274
    -2
284
     1
 64
     0
275
    -2
285
     1
 65
     0
276
    -2
286
     1
 66
     0
277
    -2
287
     1
 67
     0
278
    -2
288
     1
 68
     0
279
    -2
289
     1
 69
     0
  7
Standard
140
6.0
170
     5
 62
     0
 63
     7
283
     0
274
    -2
284
     1
 64
     0
275
    -2
285
     1
 65
     0
276
    -2
286
     1
 66
     0
277
    -2
287
     1
 67
     0
278
    -2
288
     1
 68
     0
279
    -2
289
     1
 69
     0
  7
Standard
140
4.5
170
     5
 62
     0
 63
     7
283
     0
274
    -2
284
     1
 64
     0
275
    -2
285
     1
 65
     0
276
    -2
286
     1
 66
     0
277
    -2
287
     1
 67
     0
278
    -2
288
     1
 68
     0
279
    -2
289
     1
 69
     0
  0
VISUALSTYLE
  5
1D9
102
{ACAD_REACTORS
330
1D3
102
}
330
1D3
100
AcDbVisualStyle
  2
2dWireframe
 70
     4
 71
     0
 72
     2
 73
     1
 90
        0
 40
-0.6
 41
-30.0
 62
     5
 63
     7
 74
     1
 91
        4
 64
     7
 65
   257
 75
     1
175
     1
 42
1.0
 92
        0
 66
   257
 43
1.0
 76
     1
 77
     6
 78
     2
 67
     7
 79
     5
170
     0
171
     0
290
     0
174
     0
 93
        1
 44
0.0
173
     0
291
     0
 45
0.0
1001
ACAD
1000
AcDbSavedByObjectVersion
1070
     0
1000
AcDbSavedByObjectVersion
1070
     0
1000
AcDbSavedByObjectVersion
1070
     0
  0
VISUALSTYLE
  5
1DB
102
{ACAD_REACTORS
330
1D3
102
}
330
1D3
100
AcDbVisualStyle
  2
3D Hidden
 70
     6
 71
     1
 72
     2
 73
     2
 90
        0
 40
-0.6
 41
-30.0
 62
     5
 63
     7
 74
     2
 91
        2
 64
     7
 65
   257
 75
     2
175
     1
 42
40.0
 92
        0
 66
   257
 43
1.0
 76
     1
 77
     6
 78
     2
 67
     7
 79
     3
170
     0
171
     0
290
     0
174
     0
 93
        1
 44
0.0
173
     0
291
     0
 45
0.0
1001
ACAD
1000
AcDbSavedByObjectVersion
1070
     0
1000
AcDbSavedByObjectVersion
1070
     0
1000
AcDbSavedByObjectVersion
1070
     0
  0
VISUALSTYLE
  5
1DA
102
{ACAD_REACTORS
330
1D3
102
}
330
1D3
100
AcDbVisualStyle
  2
3dWireframe
 70
     5
 71
     0
 72
     2
 73
     1
 90
        0
 40
-0.6
 41
-30.0
 62
     5
 63
     7
 74
     1
 91
        4
 64
     7
 65
   257
 75
     1
175
     1
 42
1.0
 92
        0
 66
   257
 43
1.0
 76
     1
 77
     6
 78
     2
 67
     7
 79
     5
170
     0
171
     0
290
     0
174
     0
 93
        1
 44
0.0
173
     0
291
     0
 45
0.0
1001
ACAD
1000
AcDbSavedByObjectVersion
1070
     0
1000
AcDbSavedByObjectVersion
1070
     0
1000
AcDbSavedByObjectVersion
1070
     0
  0
VISUALSTYLE
  5
1D8
102
{ACAD_REACTORS
330
1D3
102
}
330
1D3
100
AcDbVisualStyle
  2
Basic
 70
     7
 71
     1
 72
     0
 73
     1
 90
        0
 40
-0.6
 41
-30.0
 62
     5
 63
     7
 74
     0
 91
        4
 64
     7
 65
   257
 75
     1
175
     1
 42
1.0
 92
        8
 66
     7
 43
1.0
 76
     1
 77
     6
 78
     2
 67
     7
 79
     5
170
     0
171
     0
290
     0
174
     0
 93
        1
 44
0.0
173
     0
291
     1
 45
0.0
1001
ACAD
1000
AcDbSavedByObjectVersion
1070
     0
1000
AcDbSavedByObjectVersion
1070
     0
1000
AcDbSavedByObjectVersion
1070
     0
  0
VISUALSTYLE
  5
1DF
102
{ACAD_REACTORS
330
1D3
102
}
330
1D3
100
AcDbVisualStyle
  2
Brighten
 70
    12
 71
     2
 72
     2
 73
     1
 90
        0
 40
-0.6
 41
-30.0
 62
     5
 63
     7
 74
     1
 91
        4
 64
     7
 65
   257
 75
     1
175
     1
 42
1.0
 92
        8
 66
     7
 43
1.0
 76
     1
 77
     6
 78
     2
 67
     7
 79
     5
170
     0
171
     0
290
     0
174
     0
 93
        1
 44
50.0
173
     0
291
     1
 45
0.0
1001
ACAD
1000
AcDbSavedByObjectVersion
1070
     0
1000
AcDbSavedByObjectVersion
1070
     0
1000
AcDbSavedByObjectVersion
1070
     0
  0
VISUALSTYLE
  5
1E3
102
{ACAD_REACTORS
330
1D3
102
}
330
1D3
100
AcDbVisualStyle
  2
ColorChange
 70
    16
 71
     2
 72
     2
 73
     3
 90
        0
 40
-0.6
 41
-30.0
 62
     5
 63
     8
 74
     1
 91
        4
 64
     7
 65
   257
 75
     1
175
     1
 42
1.0
 92
        8
 66
     8
 43
1.0
 76
     1
 77
     6
 78
     2
 67
     7
 79
     5
170
     0
171
     0
290
     0
174
     0
 93
        1
 44
0.0
173
     0
291
     1
 45
0.0
1001
ACAD
1000
AcDbSavedByObjectVersion
1070
     0
1000
AcDbSavedByObjectVersion
1070
     0
1000
AcDbSavedByObjectVersion
1070
     0
  0
VISUALSTYLE
  5
1DC
102
{ACAD_REACTORS
330
1D3
102
}
330
1D3
100
AcDbVisualStyle
  2
Conceptual
 70
     9
 71
     3
 72
     2
 73
     1
 90
        0
 40
-0.6
 41
-30.0
 62
     5
 63
     7
 74
     2
 91
        2
 64
     7
 65
   257
 75
     1
175
     1
 42
40.0
 92
        8
 66
     7
 43
1.0
 76
     1
 77
     6
 78
     2
 67
     7
 79
     3
170
     0
171
     0
290
     0
174
     0
 93
        1
 44
0.0
173
     0
291
     0
 45
0.0
1001
ACAD
1000
AcDbSavedByObjectVersion
1070
     0
1000
AcDbSavedByObjectVersion
1070
     0
1000
AcDbSavedByObjectVersion
1070
     0
  0
VISUALSTYLE
  5
1DE
102
{ACAD_REACTORS
330
1D3
102
}
330
1D3
100
AcDbVisualStyle
  2
Dim
 70
    11
 71
     2
 72
     2
 73
     1
 90
        0
 40
-0.6
 41
-30.0
 62
     5
 63
     7
 74
     1
 91
        4
 64
     7
 65
   257
 75
     1
175
     1
 42
1.0
 92
        8
 66
     7
 43
1.0
 76
     1
 77
     6
 78
     2
 67
     7
 79
     5
170
     0
171
     0
290
     0
174
     0
 93
        1
 44
-50.0
173
     0
291
     1
 45
0.0
1001
ACAD
1000
AcDbSavedByObjectVersion
1070
     0
1000
AcDbSavedByObjectVersion
1070
     0
1000
AcDbSavedByObjectVersion
1070
     0
  0
VISUALSTYLE
  5
1E2
102
{ACAD_REACTORS
330
1D3
102
}
330
1D3
100
AcDbVisualStyle
  2
Facepattern
 70
    15
 71
     2
 72
     2
 73
     1
 90
        0
 40
-0.6
 41
-30.0
 62
     5
 63
     7
 74
     1
 91
        4
 64
     7
 65
   257
 75
     1
175
     1
 42
1.0
 92
        8
 66
     7
 43
1.0
 76
     1
 77
     6
 78
     2
 67
     7
 79
     5
170
     0
171
     0
290
     0
174
     0
 93
        1
 44
0.0
173
     0
291
     1
 45
0.0
1001
ACAD
1000
AcDbSavedByObjectVersion
1070
     0
1000
AcDbSavedByObjectVersion
1070
     0
1000
AcDbSavedByObjectVersion
1070
     0
  0
VISUALSTYLE
  5
1D4
102
{ACAD_REACTORS
330
1D3
102
}
330
1D3
100
AcDbVisualStyle
  2
Flat
 70
     0
 71
     2
 72
     1
 73
     1
 90
        2
 40
-0.6
 41
30.0
 62
     5
 63
     7
 74
     0
 91
        4
 64
     7
 65
   257
 75
     1
175
     1
 42
1.0
 92
        8
 66
     7
 43
1.0
 76
     1
 77
     6
 78
     2
 67
     7
 79
     5
170
     0
171
     0
290
     0
174
     0
 93
       13
 44
0.0
173
     0
291
     1
 45
0.0
1001
ACAD
1000
AcDbSavedByObjectVersion
1070
     0
1000
AcDbSavedByObjectVersion
1070
     0
1000
AcDbSavedByObjectVersion
1070
     0
  0
VISUALSTYLE
  5
1D5
102
{ACAD_REACTORS
330
1D3
102
}
330
1D3
100
AcDbVisualStyle
  2
FlatWithEdges
 70
     1
 71
     2
 72
     1
 73
     1
 90
        2
 40
-0.6
 41
30.0
 62
     5
 63
     7
 74
     1
 91
        4
 64
     7
 65
   257
 75
     1
175
     1
 42
1.0
 92
        0
 66
   257
 43
1.0
 76
     1
 77
     6
 78
     2
 67
     7
 79
     5
170
     0
171
     0
290
     0
174
     0
 93
       13
 44
0.0
173
     0
291
     1
 45
0.0
1001
ACAD
1000
AcDbSavedByObjectVersion
1070
     0
1000
AcDbSavedByObjectVersion
1070
     0
1000
AcDbSavedByObjectVersion
1070
     0
  0
VISUALSTYLE
  5
1D6
102
{ACAD_REACTORS
330
1D3
102
}
330
1D3
100
AcDbVisualStyle
  2
Gouraud
 70
     2
 71
     2
 72
     2
 73
     1
 90
        2
 40
-0.6
 41
30.0
 62
     5
 63
     7
 74
     0
 91
        4
 64
     7
 65
   257
 75
     1
175
     1
 42
1.0
 92
        0
 66
     7
 43
1.0
 76
     1
 77
     6
 78
     2
 67
     7
 79
     5
170
     0
171
     0
290
     0
174
     0
 93
       13
 44
0.0
173
     0
291
     1
 45
0.0
1001
ACAD
1000
AcDbSavedByObjectVersion
1070
     0
1000
AcDbSavedByObjectVersion
1070
     0
1000
AcDbSavedByObjectVersion
1070
     0
  0
VISUALSTYLE
  5
1D7
102
{ACAD_REACTORS
330
1D3
102
}
330
1D3
100
AcDbVisualStyle
  2
GouraudWithEdges
 70
     3
 71
     2
 72
     2
 73
     1
 90
        2
 40
-0.6
 41
30.0
 62
     5
 63
     7
 74
     1
 91
        4
 64
     7
 65
   257
 75
     1
175
     1
 42
1.0
 92
        0
 66
   257
 43
1.0
 76
     1
 77
     6
 78
     2
 67
     7
 79
     5
170
     0
171
     0
290
     0
174
     0
 93
       13
 44
0.0
173
     0
291
     1
 45
0.0
1001
ACAD
1000
AcDbSavedByObjectVersion
1070
     0
1000
AcDbSavedByObjectVersion
1070
     0
1000
AcDbSavedByObjectVersion
1070
     0
  0
VISUALSTYLE
  5
1E1
102
{ACAD_REACTORS
330
1D3
102
}
330
1D3
100
AcDbVisualStyle
  2
Linepattern
 70
    14
 71
     2
 72
     2
 73
     1
 90
        0
 40
-0.6
 41
-30.0
 62
     5
 63
     7
 74
     1
 91
        4
 64
     7
 65
   257
 75
     7
175
     7
 42
1.0
 92
        8
 66
     7
 43
1.0
 76
     1
 77
     6
 78
     2
 67
     7
 79
     5
170
     0
171
     0
290
     0
174
     0
 93
        1
 44
0.0
173
     0
291
     1
 45
0.0
1001
ACAD
1000
AcDbSavedByObjectVersion
1070
     0
1000
AcDbSavedByObjectVersion
1070
     0
1000
AcDbSavedByObjectVersion
1070
     0
  0
VISUALSTYLE
  5
1DD
102
{ACAD_REACTORS
330
1D3
102
}
330
1D3
100
AcDbVisualStyle
  2
Realistic
 70
     8
 71
     2
 72
     2
 73
     1
 90
        0
 40
-0.6
 41
-30.0
 62
     5
 63
     7
 74
     1
 91
        0
 64
     7
 65
   257
 75
     1
175
     1
 42
1.0
 92
        8
 66
     8
 43
1.0
 76
     1
 77
     6
 78
     2
 67
     7
 79
     5
170
     0
171
     0
290
     0
174
     0
 93
       13
 44
0.0
173
     0
291
     0
 45
0.0
1001
ACAD
1000
AcDbSavedByObjectVersion
1070
     0
1000
AcDbSavedByObjectVersion
1070
     0
1000
AcDbSavedByObjectVersion
1070
     0
  0
VISUALSTYLE
  5
1E0
102
{ACAD_REACTORS
330
1D3
102
}
330
1D3
100
AcDbVisualStyle
  2
Thicken
 70
    13
 71
     2
 72
     2
 73
     1
 90
        0
 40
-0.6
 41
-30.0
 62
     5
 63
     7
 74
     1
 91
        4
 64
     7
 65
   257
 75
     1
175
     1
 42
1.0
 92
       12
 66
     7
 43
1.0
 76
     1
 77
     6
 78
     2
 67
     7
 79
     5
170
     0
171
     0
290
     0
174
     0
 93
        1
 44
0.0
173
     0
291
     1
 45
0.0
1001
ACAD
1000
AcDbSavedByObjectVersion
1070
     0
1000
AcDbSavedByObjectVersion
1070
     0
1000
AcDbSavedByObjectVersion
1070
     0
  0
DICTIONARYVAR
  5
190
102
{ACAD_REACTORS
330
148
102
}
330
148
100
DictionaryVariables
280
     0
  1
STANDARD
  0
DICTIONARYVAR
  5
14A
102
{ACAD_REACTORS
330
148
102
}
330
148
100
DictionaryVariables
280
     0
  1
2
  0
DICTIONARYVAR
  5
149
102
{ACAD_REACTORS
330
148
102
}
330
148
100
DictionaryVariables
280
     0
  1
1
  0
DICTIONARYVAR
  5
1110
102
{ACAD_REACTORS
330
148
102
}
330
148
100
DictionaryVariables
280
     0
  1
0
  0
DICTIONARYVAR
  5
1F6D
102
{ACAD_REACTORS
330
148
102
}
330
148
100
DictionaryVariables
280
     0
  1
80.000000
  0
DICTIONARYVAR
  5
1F6C
102
{ACAD_REACTORS
330
148
102
}
330
148
100
DictionaryVariables
280
     0
  1
5.000000
  0
DICTIONARYVAR
  5
110F
102
{ACAD_REACTORS
330
148
102
}
330
148
100
DictionaryVariables
280
     0
  1
127
  0
XRECORD
  5
6AC
102
{ACAD_REACTORS
330
18B
102
}
330
18B
100
AcDbXrecord
280
     1
 91
    33280
301

290
     0
302
Viewport
330
4CB
 90
        8
 62
     8
370
    25
331
16
  1
色_8
330
0
 90
        8
 62
     8
370
    18
331
16
  1
色_8
330
4CA
 90
        8
 62
     2
370
    18
331
16
  1
色_2
330
0
 90
        8
 62
     3
370
    -3
331
16
  1
色_3
330
0
 90
        8
 62
     3
370
    -3
331
16
  1
色_3
330
4C9
 90
        8
 62
     5
370
    18
331
4C4
  1
色_5
330
4C8
 90
        8
 62
     8
370
    50
331
16
  1
色_8
330
4C7
 90
        8
 62
     1
370
    18
331
4C3
  1
色_1
330
4C6
 90
        8
 62
     5
370
    18
331
291
  1
色_5
330
3DC
 90
        8
 62
     4
370
    -3
331
16
  1
色_4
330
345
 90
        0
 62
     6
370
    18
331
16
  1
色_6
330
4C5
 90
        8
 62
     3
370
    18
331
16
  1
色_3
330
3DB
 90
        0
 62
     7
370
    -3
331
16
  1
色_7
330
0
 90
        8
 62
     4
370
    -3
331
16
  1
色_4
330
0
 90
        8
 62
     5
370
    40
331
16
  1
色_5
330
12D
 90
        8
 62
     7
370
    -3
331
16
  1
色_7
330
12C
 90
        8
 62
     7
370
    -3
331
16
  1
色_7
330
E4
 90
        8
 62
     7
370
    25
331
16
  1
色_7
330
10
 90
        8
 62
     7
370
    -3
331
16
  1
色_7
  0
DICTIONARY
  5
1F47
330
1F46
100
AcDbDictionary
280
     1
281
     1
  3
ACAD_XREC_ROUNDTRIP
360
1F87
  3
ADSK_XREC_LAYOUTTHUMBNAIL
360
1F48
  0
DICTIONARY
  5
1F6F
330
22
100
AcDbDictionary
280
     1
281
     1
  3
ACAD_XREC_ROUNDTRIP
360
1F70
  0
DICTIONARY
  5
1E3B
330
1D1
100
AcDbDictionary
280
     1
281
     1
  3
ACAD_XREC_ROUNDTRIP
360
1E3C
  0
DICTIONARY
  5
1E39
330
1D0
100
AcDbDictionary
280
     1
281
     1
  3
ACAD_XREC_ROUNDTRIP
360
1E3A
  0
DICTIONARY
  5
1E3D
330
1D2
100
AcDbDictionary
280
     1
281
     1
  3
ACAD_XREC_ROUNDTRIP
360
1E3E
  0
DICTIONARY
  5
1F73
330
11F
100
AcDbDictionary
280
     1
281
     1
  3
ACAD_XREC_ROUNDTRIP
360
1F74
  0
DICTIONARY
  5
1F75
330
17C
100
AcDbDictionary
280
     1
281
     1
  3
ACAD_XREC_ROUNDTRIP
360
1F76
  0
XRECORD
  5
1F87
102
{ACAD_REACTORS
330
1F47
102
}
330
1F47
100
AcDbXrecord
280
     1
102
SHADEPLOT
 70
     0
102
SHADEPLOTRESLEVEL
 70
     2
102
SHADEPLOTCUSTOMDPI
 70
   300
  0
XRECORD
  5
1F48
102
{ACAD_REACTORS
330
1F47
102
}
330
1F47
100
AcDbXrecord
280
     1
310
28000000B40000007F00000001000800000000004C59000000000000000000000001000000000000FFFFFF0000000000FFFFFF000000000000000000000000000000000000000000000000000000000000000000330000006600000099000000CC000000FF00000000330000333300006633000099330000CC330000FF3300
310
0000660000336600006666000099660000CC660000FF66000000990000339900006699000099990000CC990000FF99000000CC000033CC000066CC000099CC0000CCCC0000FFCC000000FF000033FF000066FF000099FF0000CCFF0000FFFF000000003300330033006600330099003300CC003300FF003300003333003333
310
33006633330099333300CC333300FF33330000663300336633006666330099663300CC663300FF66330000993300339933006699330099993300CC993300FF99330000CC330033CC330066CC330099CC3300CCCC3300FFCC330000FF330033FF330066FF330099FF3300CCFF3300FFFF330000006600330066006600660099
310
006600CC006600FF00660000336600333366006633660099336600CC336600FF33660000666600336666006666660099666600CC666600FF66660000996600339966006699660099996600CC996600FF99660000CC660033CC660066CC660099CC6600CCCC6600FFCC660000FF660033FF660066FF660099FF6600CCFF6600
310
FFFF660000009900330099006600990099009900CC009900FF00990000339900333399006633990099339900CC339900FF33990000669900336699006666990099669900CC669900FF66990000999900339999006699990099999900CC999900FF99990000CC990033CC990066CC990099CC9900CCCC9900FFCC990000FF99
310
0033FF990066FF990099FF9900CCFF9900FFFF99000000CC003300CC006600CC009900CC00CC00CC00FF00CC000033CC003333CC006633CC009933CC00CC33CC00FF33CC000066CC003366CC006666CC009966CC00CC66CC00FF66CC000099CC003399CC006699CC009999CC00CC99CC00FF99CC0000CCCC0033CCCC0066CC
310
CC0099CCCC00CCCCCC00FFCCCC0000FFCC0033FFCC0066FFCC0099FFCC00CCFFCC00FFFFCC000000FF003300FF006600FF009900FF00CC00FF00FF00FF000033FF003333FF006633FF009933FF00CC33FF00FF33FF000066FF003366FF006666FF009966FF00CC66FF00FF66FF000099FF003399FF006699FF009999FF00CC
310
99FF00FF99FF0000CCFF0033CCFF0066CCFF0099CCFF00CCCCFF00FFCCFF0000FFFF0033FFFF0066FFFF0099FFFF00CCFFFF00FFFFFF00000000000D0D0D001A1A1A00282828003535350043434300505050005D5D5D006B6B6B00787878008686860093939300A1A1A100AEAEAE00BBBBBB00C9C9C900D6D6D600E4E4E400
310
F1F1F100FFFFFF0000000000000000000000000000000000000000000000000000000000000000000000000000000000E2E2E2E2E2E2E2E2E2E2E2E2E2E2E2E2E2E2E2E2E2E2E2E2E2E2E2E2E2E2E2E2E2E2E2E2E2E2E2E2E2E2E2E2E2E2E2E2E2E2E2E2E2E2E2E2E2E2E2E2E2E2E2E2E2E2E2E2E2E2E2E2E2E2E2E2E2E2E2
310
E2E2E2E2E2E2E2E2E2E2E2E2E2E2E2E2E2E2E2E2E2E2E2E2E2E2E2E2E2E2E2E2E2E2E2E2E2E2E2E2E2E2E2E2E2E2E2E2E2E2E2E2E2E2E2E2E2E2E2E2E2E2E2E2E2E2E2E2E2E2E2E2E2E2E2E2E2E2E2E2E2E2E2E2E2E2E2E2E2E2E2E2E2E2E2E2E2E2E2E2E2E2F5F5F5F5F5F5F5F5F5F5F5F5F5F5F5F5F5F5F5F5F5F5F5F5F5
310
F5F5F5F5F5F5F5F5F5F5F5F5F5F5F5F5F5F5F5F5F5F5F5F5F5F5F5F5F5F5F5F5F5F5F5F5F5F5F5F5F5F5F5F5F5F5F5F5F5F5F5F5F5F5F5F5F5F5F5F5F5F5F5F5F5F5F5F5F5F5F5F5F5F5F5F5F5F5F5F5F5F5F5F5F5F5F5F5F5F5F5F5F5F5F5F5F5F5F5F5F5F5F5F5F5F5F5F5F5F5F5F5F5F5F5F5F5F5F5F5F5F5F5F5F5F5F5
310
F5F5F5F5F5F5F5F5F5F5F5F5F5F5F5F5F5F5F5F5F5F5F5F5F5E2E2E2F5F5F5F5F5F5F5F5F5F5F5F5F5F5F5F5F5F5F5F5F5F5F5F5F5F5F5F5F5F5F5F5F5F5F5F5F5F5F5F5F5F5F5F5F5F5F5F5F5F5F5F5F5F5F5F5F5F5F5F5F5F5F5F5F5F5F5F5F5F5F5F5F5F5F5F5F5F5F5F5F5F5F5F5F5F5F5F5F5F5F5F5F5F5F5F5F5F5F5
310
F5F5F5F5F5F5F5F5F5F5F5F5F5F5F5F5F5F5F5F5F5F5F5F5F5F5F5F5F5F5F5F5F5F5F5F5F5F5F5F5F5F5F5F5F5F5F5F5F5F5F5F5F5F5F5F5F5F5F5F5F5F5F5F5F5F5F5F5F5F5F5F5F5F5F5F5F5F5E2E2E2F5F5F5F5F5F5F5F5F5F5F5F5F5F5F5F5F5F5F5F5F5F5F5F5F5F5F5F5F5F5F5F5F5F5F5F5F5F5F5F5F5F5F5F5F5F5
310
F5F5F5F5F5F5F5F5F5F5F5F5F5F5F5F5F5F5F5F5F5F5F5F5F5F5F5F5F5F5F5F5F5F5F5F5F5F5F5F5F5F5E2F5F5F5F5F5F5F5F5F5F5F5F5F5F5F5F5F5F5F5F5F5F5F5F5F5F5F5F5F5F5F5F5F5F5F5F5F5F5F5F5F5F5F5F5F5F5F5F5F5F5F5F5F5F5F5F5F5F5F5F5F5F5F5F5F5F5F5F5F5F5F5F5F5F5F5F5F5F5F5F5F5F5F5F5
310
F5F5F5F5E2E2E2F5F5E2E2E2E2E2E2E2E2E2E2E2E2E2E2E2E2E2E2E2E2E2E2E2E2E2E2E2E2E2E2E2E2E2E2E2E2E2E2E2E2E2E2E2E2E2E2E2E2E2E2E2E2E2E2E2E2E2E2E2E2E2E2E2E2E2E2E2E2E2E2E2E2E2E2E2E2E2E2E2E2E2E2E2E2E2E2E2E2E2E2E2E2E2E2E2E2E2E2E2E2E2E2E2E2E2E2E2E2E2E2E2E2E2E2E2E2E2E2
310
E2E2E2E2E2E2E2E2E2E2E2E2E2E2E2E2E2E2E2E2E2E2E2E2E2E2E2E2E2E2E2E2E2E2E2E2E2E2E2E2E2E2E2E2E2E2E2E2E2E2E2E2E2E2E2F5F5E2E2E2F5F5E2F5F5F5E2F5F5F5F5F5F5F5F5F5F5F5F5F5F5F5F5F5F5F5F5F5F5F5F5F5F5F5F5F5F5F5F5F5F5F5F5F5F5F5F5F5F5F5F5F5F5F5F5F5F5F5F5F5F5F5F5F5F5F5F5
310
F5F5F5F5F5F5F5F5F5F5F5F5F5F5F5F5F5F5F5F5F5F5F5F5F5F5F5F5F5F5F5F5E2F5F5E2E2E2E2E2E2E2E2E2E2E2E2E2E2E2E2E2E2E2E2E2E2E2E2E2F5F5F5E2F5F5F5F5F5F5F5F5F5F5F5F5F5F5F5F5F5F5F5F5F5F5F5F5F5F5F5F5F5F5F5F5F5F5F5F5F5F5F5E2F5F5F5E2F5F5E2E2E2F5F5E2F5F5F5E2F5F5F5F5F5F5F5
310
F5F5F5F5F5F5F5F5F5F5F5F5F5F5F5F5F5F5F5F5F5F5F5F5F5F5F5F5F5F5F5F5F5F5F5F5F5F5F5F5F5F5F5F5F5F5F5F5F5F5F5F5F5F5F5F5F5F5F5F5F5F5F5F5F5F5F5F5F5F5F5F5F5F5F5F5F5F5F5F5F5F5F5F5F5E2F5F5E2E2E2E2E2E2E2E2E2E2E2E2E2E2E2E2E2E2E2E2E2E2E2E2E2F5F5F5E2F5F5F5F5F5F5F5F5F5F5
310
F5F5F5F5F5F5F5F5F5F5F5F5F5F5F5F5F5F5F5F5F5F5F5F5F5F5F5F5F5E2F5F5F5E2F5F5E2E2E2F5F5E2F5F5F5E2F5F5F5F5F5F5F5F5F5F5F5F5F5F5F5F5F5F5F5F5F5F5F5F5F5F5F5F5F5F5F5F5F5F5F5F5F5F5F5F5F5F5F5F5F5F5F5F5F5F5F5F5F5F5F5F5F5F5F5F5F5F5F5F5F5F5F5F5F5F5F5F5F5F5F5F5F5F5F5F5F5
310
F5F5F5F5F5F5F5F5F5F5F5E2F5F5E2E2E2E2E2E2E2E2E2E2E2E2E2E2E2E2E2E2E2E2E2E2E2E2E2F5F5F5E2F5F5F5F5F5F5F5F5F5F5F5F5F5F5F5F5F5F5F5F5F5F5F5F5F5F5F5F5F5F5F5F5F5F5F5F5F5F5F5E2F5F5F5E2F5F5E2E2E2F5F5E2F5F5F5E2F5F5F5F5F5F5F5F5F5F5F5F5F5F5F5F5F5F5F5F5F5F5F5F5F5F5F5F5
310
F5F5F5F5F5F5F5F5F5F5F5F5F5F5F5F5F5F5F5F5F5F5F5F5F5F5F5F5F5F5F5F5F5F5F5F5F5F5F5F5F5F5F5F5F5F5F5F5F5F5F5F5F5F5F5F5F5F5F5F5F5F5F5F5E2F5F5E2E2E2E2E2E2E2E2E2E2E2E2E2E2E2E2E2E2E2E2E2E2E2E2E2F5F5F5E2F5F5F5F5F5F5F5F5F5F5F5F5F5F5F5F5F5F5F5F5F5F5F5F5F5F5F5F5F5F5F5
310
F5F5F5F5F5F5F5F5E2F5F5F5E2F5F5E2E2E2F5F5E2F5F5F5E2F5F5F5F5F5F5F5F5F5F5F5F5F5F5F5F5F5F5F5F5F5F5F5F5F5F5F5F5F5F5F5F5F5F5F5F5F5F5F5F5F5F5F5F5F5F5F5F5F5F5F5F5F5F5F5F5F5F5F5F5F5F5F5F5F5F5F5F5F5F5F5F5F5F5F5F5F5F5F5F5F5F5F5F5F5F5F5F5F5F5F5F5E2F5F5F5F5F5F5F5F5F5
310
F5F5F5F5F5F5F5F5F5F5F5F5F5F5F5F5F5F5F5F5F5E2F5F5F5F5F5F5F5F5F5F5F5F5F5F5F5F5F5F5F5F5F5F5F5F5F5F5F5F5F5F5F5F5F5F5F5F5F5F5F5E2F5F5F5E2F5F5E2E2E2F5F5E2F5F5F5E2F5F5F5F5F5F5F5F5F5F5F5F5F5F5F5F5F5F5F5F5F5F5F5F5F5F5F5F5F5F5F5F5F5F5F5F5F5F5F5F5F5F5F5F5F5F5F5F5F5
310
F5F5F5F5F5F5F5F5F5F5F5F5F5F5F5F5F5F5F5F5F5F5F5F5F5F5F5F5F5F5F5F5F5F5F5F5F5F5F5F5F5F5F5E2E2E2E2E2E2E2E2E2E2E2E2E2E2E2E2E2E2E2E2E2E2E2E2E2E2E2E2E2E2E2E2E2E2E2E2E2E2E2E2E2E2E2E2E2E2E2E2E2E2E2E2E2E2E2E2E2E2E2E2E2E2E2E2E2E2E2E2E2E2E2E2F5F5F5E2F5F5E2E2E2F5F5E2
310
F5F5F5E2F5F5F5F5F5F5F5F5F5F5F5F5F5F5F5F5F5F5F5F5F5F5F5F5F5F5F5F5F5F5F5F5F5F5F5F5F5F5F5F5F5F5F5F5F5F5F5F5F5F5F5F5F5F5F5F5F5F5F5F5F5F5F5F5F5F5F5F5F5F5F5F5F5F5F5F5F5F5F5F5F5F5F5F5F5F5F5F5F5F5F5F5E2F5F5F5F5F5F5F5F5F5F5F5F5F5F5F5F5F5F5F5F5F5F5F5F5F5F5F5F5F5F5
310
F5F5F5F5F5F5F5F5F5F5F5F5F5F5F5F5F5F5F5F5F5F5F5F5F5F5F5F5F5F5F5F5F5F5F5F5F5F5F5F5E2F5F5F5E2F5F5E2E2E2F5F5F5F5F5F5E2F5F5F5F5F5F5F5F5F5F5F5F5F5F5F5F5F5F5F5F5F5F5F5F5F5F5F5F5F5F5F5F5F5F5F5F5F5F5F5F5F5F5F5F5F5F5F5F5F5F5F5F5F5F5F5F5F5F5F5F5F5F5F5F5F5F5F5F5F5F5
310
F5F5F5F5F5F5F5F5F5F5F5F5F5F5F5F5F5F5F5F5F5F5E2F5F5F5F5F5F5F5F5F5F5F5F5F5F5F5F5F5F5F5F5F5F5E2E2E2E2E2E2E2E2E2E2E2E2E2E2E2E2E2E2E2E2E2E2E2E2E2E2E2F5F5F5F5F5F5F5F5F5F5F5F5F5F5F5F5F5F5F5F5F5E2F5F5F5F5F5F5E2E2E2F5F5F5F5F5F5E2F5F5F5F5F5F5F5F5F5F5F5F5F5F5F5F5F5
310
F5F5F5F5F5F5F5F5F5F5F5F5F5F5F5F5F5F5F5F5F5F5F5F5F5F5F5F5F5F5F5F5F5F5F5F5F5F5F5F5F5F5F5F5F5F5F5F5F5F5F5F5F5F5F5F5F5F5F5F5F5F5F5F5F5F5F5F5F5F5F5F5F5F5F5E2F5F5F5F5F5F5F5F5F5F5F5F5F5F5F5F5F5F5F5F5F5F5E2E2E2E2E2E2E2E2E2E2E2E2E2E2E2E2E2E2E2E2E2E2E2E2E2E2E2F5F5
310
F5F5F5F5F5F5F5F5F5F5F5F5F5F5F5F5F5F5F5E2F5F5F5F5F5F5E2E2E2F5F5F5F5F5F5E2F5F5F5F5F5F5F5F5F5F5F5F5F5F5F5F5F5F5F5F5F5F5F5F5F5F5F5F5F5F5F5F5F5F5F5F5F5F5F5F5F5F5F5F5F5F5F5F5F5F5F5F5F5F5F5F5F5F5F5F5F5F5F5F5F5F5F5F5F5F5F5F5F5F5F5F5F5F5F5F5F5F5F5F5F5F5F5F5F5F5F5
310
F5E2F5F5F5F5F5F5F5F5F5F5F5F5F5F5F5F5F5F5F5F5F5F5E2E2E2E2E2E2E2E2E2E2E2E2E2E2E2E2E2E2E2E2E2E2E2E2E2E2E2F5F5F5F5F5F5F5F5F5F5F5F5F5F5F5F5F5F5F5F5F5E2F5F5F5F5F5F5E2E2E2F5F5F5F5F5F5E2F5F5F5F5F5F5F5F5F5F5F5F5F5F5F5F5F5F5F5F5F5F5F5F5F5F5F5F5F5F5F5F5F5F5F5F5F5F5
310
F5F5F5F5F5F5F5F5F5F5F5F5F5F5F5F5F5F5F5F5F5F5F5F5F5F5F5F5F5F5F5F5F5F5F5F5F5F5F5F5F5F5F5F5F5F5F5F5F5F5F5F5F5F5E2F5F5F5F5F5F5F5F5F5F5F5F5F5F5F5F5F5F5F5F5F5F5E2E2E2E2E2E2E2E2E2E2E2E2E2E2E2E2E2E2E2E2E2E2E2E2E2E2E2F5F5F5F5F5F5F5F5F5F5F5F5F5F5F5F5F5F5F5F5F5E2F5
310
F5F5F5F5F5E2E2E2F5F5F5F5F5F5E2F5F5F5F5F5F5F5F5F5F5F5F5F5F5F5F5F5F5F5F5F5F5F5F5F5F5F5F5F5F5F5F5F5F5F5F5F5F5F5F5F5F5F5F5F5F5F5F5F5F5F5F5F5F5F5F5F5F5F5F5F5F5F5F5F5F5F5F5F5F5F5F5F5F5F5F5F5F5F5F5F5F5F5F5F5F5F5F5F5F5F5F5E2F5F5F5F5F5F5F5F5F5F5F5F5F5F5F5F5F5F5F5
310
F5F5F5F5F5F5F5F5F5F5F5F5F5F5F5F5F5F5F5F5F5F5F5F5F5F5F5F5F5F5F5F5F5F5F5F5F5F5F5F5F5F5F5F5F5F5F5F5F5F5F5E2F5F5F5F5F5F5E2E2E2F5F5F5F5F5F5E2F5F5F5F5F5F5F5F5F5F5F5F5F5F5F5F5F5F5F5F5F5F5F5F5F5F5F5F5F5F5F5F5F5F5F5F5F5F5F5F5F5F5F5F5F5F5F5F5F5F5F5F5F5F5F5F5F5F5F5
310
F5F5F5F5F5F5F5F5F5F5F5F5F5F5F5F5F5F5F5F5F5F5F5F5F5F5F5F5F5F5F5F5F5E2F5F5F5F5F5F5F5F5F5F5F5F5F5F5F5F5F5F5F5F5F5F5F5F5F5F5F5F5F5F5F5F5F5F5F5F5F5F5F5F5F5F5F5F5F5F5F5F5F5F5F5F5F5F5F5F5F5F5F5F5F5F5F5F5F5F5F5F5F5F5E2F5F5F5F5F5F5E2E2E2F5F5F5F5F5F5E2F5F5F5F5F5F5
310
F5F5F5F5F5F5F5F5F5F5F5F5F5F5F5F5F5F5F5F5F5F5F5F5F5F5F5F5F5F5F5F5F5F5F5F5F5F5F5F5F5F5F5F5F5F5F5F5F5F5F5F5F5F5F5F5F5F5F5F5F5F5F5F5F5F5F5F5F5F5F5F5F5F5F5F5F5F5F5F5F5F5F5F5F5F5E2E2E2E2E2E2E2E2E2E2E2E2E2E2E2E2E2E2E2E2E2E2E2E2E2E2E2E2E2E2E2E2E2E2E2E2E2E2E2E2E2
310
E2E2E2E2E2E2E2E2E2E2E2E2E2E2E2E2E2E2E2E2E2E2E2E2E2E2E2E2E2E2E2F5F5F5F5F5F5E2E2E2F5F5F5F5F5F5E2F5F5F5F5F5F5F5F5F5F5F5F5F5F5F5F5F5F5F5F5F5F5F5F5F5F5F5F5F5F5F5F5F5F5F5F5F5F5F5F5F5F5F5F5F5F5F5F5F5F5F5F5F5F5F5F5F5F5F5F5F5F5F5F5F5F5F5F5F5F5F5F5F5F5F5F5F5F5F5F5
310
F5F5F5F5F5F5F5F5F5F5F5F5E2F5F5F5F5F5F5F5F5F5F5F5F5F5F5F5F5F5F5F5F5F5F5F5F5F5F5F5F5F5F5F5F5F5F5F5F5F5F5F5F5F5F5F5F5F5F5F5F5F5F5F5F5F5F5F5F5F5F5F5F5F5F5F5F5F5F5F5F5F5F5E2F5F5F5F5F5F5E2E2E2F5F5F5F5F5F5E2F5F5F5F5F5F5F5F5F5F5F5F5F5F5F5F5F5F5F5F5F5F5F5F5F5F5F5
310
F5F5F5F5F5F5F5F5F5F5F5F5F5F5F5F5F5F5F5F5F5F5F5F5F5F5F5F5F5F5F5F5F5F5F5F5F5F5F5F5F5F5F5F5F5F5F5F5F5F5F5F5F5F5F5F5F5F5F5F5F5F5F5F5F5E2E2E2E2E2E2E2E2E2E2E2E2E2E2E2E2E2E2E2E2E2E2E2E2E2E2E2E2E2E2E2E2E2E2E2E2E2E2E2E2E2E2E2E2E2E2E2E2E2E2E2E2E2E2E2E2E2E2E2E2E2E2
310
E2E2E2E2E2E2E2E2E2E2F5F5F5F5F5F5E2E2E2F5F5E2F5F5F5E2F5F5F5F5F5F5F5F5F5F5F5F5F5F5F5F5F5F5F5F5F5F5F5F5F5F5F5F5F5F5F5F5F5F5F5F5F5F5F5F5F5F5F5F5F5F5F5F5F5F5F5F5F5F5F5F5F5F5F5F5F5F5F5F5F5F5F5F5F5F5F5F5F5F5F5F5F5F5F5F5F5F5F5F5F5F5F5F5F5F5F5F5F5F5F5F5F5F5F5F5F5
310
F5F5F5F5F5F5F5F5F5F5F5F5F5F5F5F5F5F5F5F5F5F5F5F5F5F5F5F5F5F5F5F5F5F5F5F5F5F5F5F5F5F5F5F5F5F5F5F5F5F5F5F5F5F5F5F5F5F5F5F5F5F5E2F5F5F5E2F5F5E2E2E2F5F5E2F5F5F5E2F5F5F5F5F5F5F5F5F5F5F5F5F5F5F5F5F5F5F5F5F5F5F5F5F5F5F5F5F5F5F5F5F5F5F5F5F5F5F5F5F5F5F5F5F5F5F5F5
310
F5F5F5F5F5F5F5F5F5F5F5F5F5F5F5F5F5F5F5F5F5F5F5F5F5F5F5F5F5F5F5F5F5F5F5F5F5F5F5F5F5F5F5F5F5F5F5F5F5F5F5F5F5F5F5F5F5F5F5F5F5F5F5F5F5F5F5F5F5F5F5F5F5F5F5F5F5F5F5F5F5F5F5F5F5F5F5F5F5F5F5F5F5F5F5F5F5F5F5F5F5F5F5F5F5F5F5F5F5F5F5F5F5F5F5E2F5F5F5E2F5F5E2E2E2F5F5
310
E2F5F5F5E2F5F5F5F5F5F5F5F5F5F5F5F5F5F5F5F5F5F5F5F5F5F5F5F5F5F5F5F5F5F5F5F5F5F5F5F5F5F5F5F5F5F5F5F5F5F5F5F5F5F5F5F5F5F5F5F5F5F5F5F5F5F5F5F5F5F5F5F5F5F5F5F5F5F5F5F5F5F5F5F5F5F5F5F5F5F5F5F5F5F5F5F5F5F5F5F5F5F5F5F5F5F5F5F5F5F5F5F5F5F5F5F5F5F5F5F5F5F5F5F5F5F5
310
F5F5F5F5F5F5F5F5F5F5F5F5F5F5F5F5F5F5F5F5F5F5F5F5F5F5F5F5F5F5F5F5F5F5F5F5F5F5F5F5F5E2F5F5F5E2F5F5E2E2E2F5F5E2F5F5F5E2F5F5F5F5F5F5F5F5F5F5F5F5F5F5F5F5F5F5F5F5F5F5F5F5F5F5F5F5F5F5F5F5F5F5F5F5F5F5F5F5F5F5F5F5F5F5F5F5F5F5F5F5F5F5F5F5F5F5F5F5F5F5F5F5F5F5F5F5F5
310
F5F5F5F5F5F5F5F5F5F5F5F5F5F5F5F5F5F5F5F5F5F5F5F5F5F5F5F5F5F5F5F5F5F5F5F5F5F5F5F5F5F5F5F5F5F5F5F5F5F5F5F5F5F5F5F5F5F5F5F5F5F5F5F5F5F5F5F5F5F5F5F5F5F5F5F5F5F5F5F5F5F5F5F5F5F5F5F5F5F5F5F5F5F5E2F5F5F5E2F5F5E2E2E2F5F5E2F5F5F5E2F5F5F5F5F5F5F5F5F5F5F5F5F5F5F5F5
310
F5F5F5F5F5F5F5F5F5F5F5F5F5F5F5F5F5F5F5F5F5F5F5F5F5F5F5F5F5F5F5F5F5F5F5F5F5F5F5F5F5F5F5F5F5F5F5F5F5F5F5F5F5F5F5F5F5F5F5F5F5F5F5F5F5F5F5F5F5F5F5F5F5F5F5F5F5F5F5F5F5F5F5F5F5F5F5F5F5F5F5F5F5F5F5F5F5F5F5F5F5F5F5F5F5F5F5F5F5F5F5F5F5F5F5F5F5F5F5F5F5F5F5F5F5F5F5
310
F5F5F5F5F5F5F5F5F5F5F5F5F5F5F5F5F5F5F5F5E2F5F5F5E2F5F5E2E2E2F5F5E2F5F5F5E2F5F5F5F5F5F5F5F5F5F5F5F5F5F5F5F5F5F5F5F5F5F5F5F5F5F5F5F5F5F5F5F5F5F5F5F5F5F5F5F5F5F5F5F5F5F5F5F5F5F5F5F5F5F5F5F5F5F5F5F5F5F5F5F5F5F5F5F5F5F5F5F5F5F5F5F5F5F5F5F5F5F5F5F5F5F5F5F5F5F5
310
F5F5F5F5F5F5F5F5F5F5F5F5F5F5F5F5F5F5F5F5F5F5F5F5F5F5F5F5F5F5F5F5F5F5F5F5F5F5F5F5F5F5F5F5F5F5F5F5F5F5F5F5F5F5F5F5F5F5F5F5F5F5F5F5F5F5F5F5F5F5F5F5F5E2F5F5F5E2F5F5E2E2E2F5F5E2F5F5F5E2F5F5F5F5F5F5F5F5F5F5F5F5F5F5F5F5F5F5F5F5F5F5F5F5F5F5F5F5F5F5F5F5F5F5F5F5F5
310
F5F5F5F5F5F5F5F5F5F5F5F5F5F5F5F5F5F5F5F5F5F5F5F5F5F5F5F5F5F5F5F5F5F5F5F5F5F5F5F5F5F5F5F5F5F5F5F5F5F5F5F5F5F5F5F5F5F5F5F5F5F5F5F5F5F5F5F5F5F5F5F5F5F5F5F5F5F5F5F5F5F5F5F5F5F5F5F5F5F5F5F5F5F5F5F5F5F5F5F5F5F5F5F5F5F5F5F5F5F5F5F5F5F5F5F5F5F5F5F5F5F5F5F5F5F5E2
310
F5F5F5E2F5F5E2E2E2F5F5E2F5F5F5E2F5F5F5F5F5F5F5F5F5F5F5F5F5F5F5F5F5F5F5F5F5F5F5F5F5F5F5F5F5F5F5F5F5F5F5F5F5F5F5F5F5F5F5F5F5F5F5F5F5F5F5F5F5F5F5F5F5F5F5F5F5F5F5F5F5F5F5F5F5F5F5F5F5F5F5F5F5F5F5F5F5F5F5F5F5F5F5F5F5F5F5F5F5F5F5F5F5F5F5F5F5F5F5F5F5F5F5F5F5F5F5
310
F5F5F5F5F5F5F5F5F5F5F5F5F5F5F5F5F5F5F5F5F5F5F5F5F5F5F5F5F5F5F5F5F5F5F5F5F5F5F5F5F5F5F5F5F5F5F5F5F5F5F5F5E2F5F5F5E2F5F5E2E2E2F5F5E2F5F5F5E2F5F5F5F5F5F5F5F5F5F5F5F5F5F5F5F5F5F5F5F5F5F5F5F5F5F5F5F5F5F5F5F5F5F5F5F5F5F5F5F5F5F5F5F5F5F5F5F5F5F5F5F5F5F5F5F5F5F5
310
F5F5F5F5F5F5F5F5F5F5F5F5F5F5F5F5F5F5F5F5F5F5F5F5F5F5F5F5F5F5F5F5F5F5F5F5F5F5F5F5F5F5F5F5F5F5F5F5F5F5F5F5F5F5F5F5F5F5F5F5F5F5F5F5F5F5F5F5F5F5F5F5F5F5F5F5F5F5F5F5F5F5F5F5F5F5F5F5F5F5F5F5F5F5F5F5F5F5F5F5F5E2E2E2F5E2F5F5F5E2F5F5E2E2E2F5F5E2F5F5F5E2F5F5F5F5F5
310
F5F5F5F5F5F5F5F5F5F5F5F5F5F5F5F5F5F5F5F5F5F5F5F5F5F5F5F5F5F5F5F5F5F5F5F5F5F5F5F5F5F5F5F5F5F5F5F5F5F5F5F5F5F5F5F5F5F5F5F5F5F5F5F5F5F5F5F5F5F5F5F5F5F5F5F5F5F5F5F5F5F5F5F5F5F5F5F5F5F5F5F5F5F5F5F5F5F5F5F5F5F5F5F5F5F5F5F5F5F5F5F5F5F5F5F5F5F5F5F5F5F5F5F5F5F5F5
310
F5F5F5F5F5F5F5F5F5F5F5F5F5F5F5F5F5F5E2E2E2F5F5F5F5F5F5E2E2E2F5E2F5F5F5E2F5F5E2E2E2F5F5E2F5F5F5E2F5F5F5F5F5F5F5F5F5F5F5F5F5F5F5F5F5F5F5F5F5F5F5F5F5F5F5F5F5F5F5F5F5F5F5F5F5F5F5F5F5F5F5F5F5F5F5F5F5F5F5F5F5F5F5F5F5F5F5F5F5F5F5F5F5F5F5F5F5F5F5F5F5F5F5F5F5F5F5
310
F5F5F5F5F5F5F5F5F5F5F5F5F5F5F5F5F5F5F5F5F5F5F5F5F5F5F5F5F5F5F5F5F5F5F5F5F5F5F5F5F5F5F5F5F5F5F5F5F5F5F5F5F5F5F5F5F5F5F5F5F5F5F5F5F5F5F5F5F5F5F5E2E2E2F5F5F5F5F5F5E2F5F5F5E2F5F5F5E2F5F5E2E2E2F5F5E2F5F5F5E2F5F5F5F5F5F5F5F5F5F5F5F5F5F5F5F5F5F5F5F5F5F5F5F5F5F5
310
F5F5F5F5F5F5F5F5F5F5F5F5F5F5F5F5F5F5F5F5F5F5F5F5F5F5F5F5F5F5F5F5F5F5F5F5F5F5F5F5F5F5F5F5F5F5F5F5F5F5F5F5F5F5F5F5F5F5F5F5F5F5F5F5F5F5F5F5F5F5F5F5F5F5F5F5F5F5F5F5F5F5F5F5F5F5F5F5F5F5F5F5F5F5F5F5F5F5F5F5F5F5F5F5F5F5F5F5F5F5F5F5F5F5F5F5F5F5F5F5F5F5F5F5E2E2E2
310
F5F5F5F5F5F5E2F5F5F5E2F5F5F5E2F5F5E2E2E2F5F5E2F5F5F5E2F5F5F5F5F5F5F5F5F5F5F5F5F5F5F5F5F5F5F5F5F5F5F5F5F5F5F5F5F5F5F5F5F5F5F5F5F5F5F5F5F5F5F5F5F5F5F5F5F5F5F5F5F5F5F5F5F5F5F5F5F5F5F5F5F5F5F5F5F5F5F5E2F5F5F5F5F5F5F5F5F5F5F5F5F5F5F5F5F5F5F5E2F5F5F5F5F5F5F5F5
310
F5F5F5F5F5F5F5F5F5F5F5F5F5F5F5F5F5F5F5F5F5F5F5F5F5F5F5F5F5F5F5F5F5F5F5F5F5F5F5F5F5F5F5F5F5F5F5F5F5F5E2E2E2E2F5F5F5F5F5E2F5F5F5E2F5F5F5E2F5F5E2E2E2F5F5E2F5F5F5E2F5F5F5F5F5F5F5F5F5F5F5F5F5F5F5F5F5F5F5F5F5F5F5F5F5F5F5F5F5F5F5F5F5F5F5F5F5F5F5F5F5F5F5F5F5F5F5
310
F5F5F5F5F5F5F5F5F5F5F5F5F5F5F5F5F5F5F5F5F5E2E2E2E2E2E2E2E2E2E2E2E2E2E2E2E2E2E2E2E2E2E2E2E2E2E2F5F5F5F5F5F5F5F5F5F5F5F5F5F5F5F5F5F5F5F5F5F5F5F5F5F5F5F5F5F5F5F5F5F5F5F5F5F5F5F5F5F5F5F5F5F5F5F5F5F5F5F5F5F5F5F5F5F5F5E2F5F5F5F5F5E2F5F5F5E2F5F5F5E2F5F5E2E2E2F5
310
F5E2F5F5F5E2F5F5F5F5F5F5F5F5F5F5F5F5F5F5F5F5F5F5F5F5F5F5F5F5F5F5F5F5F5F5F5F5F5F5F5F5F5F5F5F5F5F5F5F5F5F5F5F5F5F5F5F5F5F5F5F5F5F5F5F5F5F5F5F5F5F5F5F5E2F5F5E2F5F5F5F5F5F5F5E2E2E2E2F5F5F5F5F5F5F5F5E2F5E2F5F5F5F5F5F5F5F5F5F5F5F5F5F5F5F5F5F5F5F5F5F5F5F5F5F5F5
310
F5F5F5F5F5F5F5F5F5F5F5F5F5F5F5F5F5F5F5F5F5F5F5F5F5F5F5F5F5F5F5F5E2F5F5F5F5F5E2F5F5F5E2F5F5F5E2F5F5E2E2E2F5F5F5F5F5F5E2F5F5F5F5F5F5F5F5F5F5F5F5F5F5F5F5F5F5F5F5F5F5F5F5F5F5F5F5F5F5F5F5F5F5F5F5F5F5F5F5F5F5F5F5F5F5F5F5F5F5F5F5F5F5F5F5F5F5E2F5F5F5F5F5F5F5F5F5
310
E2F5F5F5F5F5F5F5F5F5F5E2E2E2E2F5F5F5F5F5F5F5F5F5F5E2F5F5F5F5F5F5F5F5F5F5F5F5F5F5F5F5F5F5F5F5F5F5F5F5F5F5F5F5F5F5F5F5F5F5F5F5F5F5F5F5F5F5F5F5F5F5F5F5F5F5F5F5F5F5F5F5F5F5F5E2F5F5F5F5F5E2F5F5F5E2F5F5F5F5F5F5E2E2E2F5F5F5F5F5F5E2F5F5F5F5F5F5F5F5F5F5F5F5F5F5F5
310
F5F5F5F5F5F5F5F5F5F5F5F5F5F5F5F5F5F5F5F5F5F5F5F5F5F5F5F5F5F5F5F5F5F5F5F5F5F5F5F5F5F5F5E2F5F5F5F5F5F5F5F5F5E2F5F5F5F5F5F5F5F5F5F5F5F5F5F5F5F5F5F5F5F5F5F5F5F5E2F5F5F5F5F5F5F5F5F5F5F5F5F5F5F5F5F5F5F5F5F5F5F5F5F5F5F5F5F5F5F5F5F5F5F5F5F5F5F5F5F5F5F5F5F5F5F5F5
310
F5F5F5F5F5F5F5F5F5F5F5E2F5F5F5F5F5E2F5F5F5E2F5F5F5F5F5F5E2E2E2F5F5F5F5F5F5E2F5F5F5F5F5F5F5F5F5F5F5F5F5F5F5F5F5F5F5F5F5F5F5F5F5F5F5F5F5F5F5F5F5F5F5F5F5F5F5F5F5F5F5F5F5F5F5F5F5F5F5F5F5F5F5F5F5E2E2E2F5F5F5F5F5F5F5F5E2F5F5F5F5F5F5F5F5F5F5F5F5F5F5F5F5F5F5F5F5
310
F5F5F5F5E2F5F5F5F5F5F5F5F5F5F5F5F5F5F5F5F5F5F5F5F5F5F5F5F5F5F5F5F5F5F5F5F5F5F5F5F5F5F5F5F5F5F5F5F5F5F5F5F5F5F5F5F5F5F5F5F5F5E2F5E2E2F5F5F5F5E2F5F5F5E2F5F5F5F5F5F5E2E2E2F5F5F5F5F5F5E2F5F5F5F5F5F5F5F5F5F5F5F5F5F5F5F5F5F5F5F5F5F5F5F5F5F5F5F5F5F5F5F5F5F5F5F5
310
F5F5F5F5F5F5F5F5F5F5F5F5F5F5F5F5F5F5F5F5F5F5E2F5F5F5F5F5F5F5F5F5E2F5F5F5F5F5F5F5F5F5F5F5F5F5F5F5F5F5F5F5F5F5F5F5F5E2F5F5F5F5F5F5F5F5F5F5F5F5F5F5F5F5F5F5F5F5F5F5F5F5F5F5F5F5F5F5F5F5F5F5F5F5F5F5F5F5F5F5F5F5F5F5F5F5F5F5F5F5F5F5F5F5F5E2F5E2E2F5F5F5F5E2F5F5F5
310
E2F5F5F5F5F5F5E2E2E2F5F5F5F5F5F5E2F5F5F5F5F5F5F5F5F5F5F5F5F5F5F5F5F5F5F5F5F5F5F5F5F5F5F5F5F5F5F5F5F5F5F5F5F5F5F5F5F5F5F5F5F5F5F5F5F5F5F5F5F5F5F5F5F5F5E2E2E2E2E2E2E2E2E2E2E2E2E2E2E2E2E2E2E2E2E2E2E2E2E2E2E2E2E2E2E2E2E2E2E2E2F5F5F5F5F5F5F5F5F5F5F5F5F5F5F5F5
310
F5F5F5F5F5F5F5F5F5F5F5F5F5F5F5F5F5F5F5F5F5F5F5F5F5F5F5F5F5F5F5F5F5F5F5F5E2E2E2E2E2E2E2E2E2E2E2E2E2E2E2E2F5E2F5F5F5F5F5F5E2E2E2F5F5F5F5F5F5E2F5F5F5F5F5F5F5F5F5F5F5F5F5F5F5F5F5F5F5F5F5F5F5F5F5F5F5F5F5F5F5F5F5F5F5F5F5F5F5F5F5F5F5F5F5F5F5F5F5F5F5F5F5F5F5F5F5
310
F5E2F5F5F5F5F5F5F5F5F5E2E2F5F5F5F5F5F5F5F5F5F5E2E2F5F5F5F5F5F5F5F5F5F5E2E2F5F5F5F5F5F5F5F5F5F5F5F5F5F5F5F5F5F5F5F5F5F5F5F5F5F5F5F5F5F5F5F5F5F5F5F5F5F5F5F5F5F5F5F5F5F5F5F5F5F5F5F5E2F5F5F5E2E2F5E2F5F5F5F5F5F5E2E2F5E2F5F5F5F5F5F5E2E2E2F5F5F5F5F5F5E2F5F5F5F5
310
F5F5F5F5F5F5F5F5F5F5F5F5F5F5F5F5F5F5F5F5F5F5F5F5F5F5F5F5F5F5F5F5F5F5F5F5F5F5F5F5F5F5F5F5F5F5F5F5F5F5F5E2E2E2E2F5F5F5F5F5F5F5F5F5E2E2F5F5F5F5F5F5F5F5F5F5E2E2F5F5F5F5F5F5F5F5F5F5E2E2F5F5F5F5F5F5F5F5F5F5F5F5F5F5F5F5F5F5F5F5F5F5F5F5F5F5F5F5F5F5F5F5F5F5F5F5F5
310
F5F5F5F5F5F5F5F5F5F5F5F5F5F5F5E2F5F5F5E2E2F5E2F5F5F5F5F5F5F5F5F5E2F5F5F5F5F5F5E2E2E2F5F5F5F5F5F5E2F5F5F5F5F5F5F5F5F5F5F5F5F5F5F5F5F5F5F5F5F5F5F5F5F5F5F5F5F5F5F5F5F5F5F5F5F5F5F5F5F5F5F5F5F5F5F5F5F5F5F5F5F5F5F5E2E2E2E2F5F5F5F5F5F5F5F5F5E2E2F5F5F5F5F5F5F5F5
310
F5F5E2E2F5F5F5F5F5F5F5F5F5F5E2E2F5F5F5F5F5F5F5F5F5F5F5F5F5F5F5F5F5F5F5F5F5F5F5F5F5F5F5F5F5F5F5F5F5F5F5F5F5F5F5F5F5F5F5F5F5F5F5F5F5F5F5E2E2E2F5F5E2E2E2E2E2E2E2E2E2E2E2E2F5E2F5F5F5F5F5F5E2E2E2F5F5E2F5F5F5E2F5F5F5F5F5F5F5F5F5F5F5F5F5F5F5F5F5F5F5F5F5F5F5F5F5
310
F5F5F5F5F5F5F5F5F5F5F5F5F5F5F5F5F5F5F5F5F5F5F5F5F5F5F5F5F5F5E2E2E2E2F5F5F5E2F5F5F5F5F5E2E2F5F5F5F5F5F5F5F5F5F5F5E2F5F5F5F5F5F5F5F5F5F5E2E2F5F5F5F5F5F5F5F5F5F5F5F5F5F5F5F5F5F5F5F5F5F5F5F5F5F5F5F5F5F5F5F5F5F5F5F5F5F5F5F5F5F5F5F5F5F5F5F5F5E2E2E2E2F5F5F5F5E2
310
F5E2F5F5F5F5F5F5F5F5F5E2F5F5F5E2F5F5E2E2E2F5F5E2F5F5F5E2F5F5F5F5F5F5F5F5F5F5F5F5F5F5F5F5F5F5F5F5F5F5F5F5F5F5F5F5F5F5F5F5F5F5F5F5F5F5F5F5F5F5F5F5F5F5F5F5F5F5F5F5F5F5F5E2E2E2E2F5F5F5E2F5F5F5F5F5E2E2F5F5F5F5F5F5F5F5F5F5F5E2F5F5F5F5F5F5F5F5F5F5E2E2F5F5F5F5F5
310
F5F5F5F5F5F5F5F5F5F5F5F5F5F5F5F5F5F5F5F5F5F5F5F5F5F5F5F5F5F5F5F5F5F5F5F5F5F5F5F5F5F5F5F5E2E2E2E2F5F5F5F5E2F5E2E2F5F5F5F5F5F5F5F5E2F5F5F5E2F5F5E2E2E2F5F5E2F5F5F5E2F5F5F5F5F5F5F5F5F5F5F5F5F5F5F5F5F5F5F5F5F5F5F5F5F5F5F5F5F5F5F5F5F5F5F5F5F5F5F5F5F5F5F5F5F5F5
310
F5F5F5F5F5F5F5F5F5F5F5F5E2F5F5F5E2F5F5F5F5F5E2E2F5F5F5F5F5F5F5F5F5F5F5E2F5F5F5F5F5F5F5F5F5F5E2E2F5F5F5F5F5F5F5F5F5F5F5F5F5F5F5F5F5F5F5F5F5F5F5F5F5F5F5F5F5F5F5F5F5F5F5F5F5F5F5F5F5F5F5F5F5F5F5F5F5E2E2E2E2F5E2E2E2E2F5E2E2F5F5F5F5F5F5F5F5E2F5F5F5E2F5F5E2E2E2
310
F5F5E2F5F5F5E2F5F5F5F5F5F5F5F5F5F5F5F5F5F5F5F5F5F5F5F5F5F5F5F5F5F5F5F5F5F5F5F5F5F5F5F5F5F5F5F5F5F5F5F5F5F5F5F5F5F5F5F5F5F5F5F5F5F5E2F5F5E2E2E2F5F5F5F5E2E2F5F5F5F5F5F5F5F5F5F5F5E2F5F5F5F5F5F5F5F5F5F5E2E2F5F5F5F5F5F5F5F5F5F5F5F5F5F5F5F5F5F5F5F5F5F5F5F5F5F5
310
F5F5F5F5F5F5F5F5F5F5F5F5F5F5F5F5F5F5F5F5F5F5F5E2E2E2E2F5E2E2E2E2F5E2F5F5F5F5F5F5F5F5F5E2F5F5F5E2F5F5E2E2E2F5F5E2F5F5F5E2F5F5F5F5F5F5F5F5F5F5F5F5F5F5F5F5F5F5F5F5F5F5F5F5F5F5F5F5F5F5F5F5F5F5F5F5F5F5F5F5F5F5F5F5F5F5F5F5F5F5F5F5F5F5F5F5F5F5E2F5F5F5E2F5F5F5F5
310
F5E2F5F5F5F5F5F5F5F5F5F5F5F5F5F5F5F5F5F5F5F5F5F5F5F5E2F5F5F5F5F5F5F5F5F5F5F5F5F5F5F5F5F5F5F5F5F5F5F5F5F5F5F5F5F5F5F5F5F5F5F5F5F5F5F5F5F5F5F5F5F5F5F5F5F5F5F5F5E2F5E2E2E2E2F5E2F5F5F5F5F5F5F5F5F5E2F5F5F5E2F5F5E2E2E2F5F5E2F5F5F5E2F5F5F5F5F5F5F5F5F5F5F5F5F5F5
310
F5F5F5F5F5F5F5F5F5F5F5F5F5F5F5F5F5F5F5F5F5F5F5F5F5F5F5F5F5F5F5F5F5F5F5F5F5F5F5F5F5F5F5F5E2E2E2E2E2E2E2E2E2E2E2E2E2E2E2E2E2E2E2E2E2E2E2E2E2E2E2E2E2E2E2E2E2E2E2E2E2E2F5F5F5F5F5F5F5F5F5F5F5F5F5F5F5F5F5F5F5F5F5F5F5F5F5F5F5F5F5F5F5F5F5F5F5F5F5F5F5F5F5F5F5F5F5
310
F5F5F5F5E2E2E2F5F5F5E2F5F5F5F5F5F5F5F5F5F5F5E2F5F5F5E2F5F5E2E2E2F5F5E2F5F5F5E2F5F5F5F5F5F5F5F5F5F5F5F5F5F5F5F5F5F5F5F5F5F5F5F5F5F5F5F5F5F5F5F5F5F5F5F5F5F5F5F5F5F5F5F5F5F5F5F5F5F5F5F5F5F5F5F5F5F5E2F5F5F5E2E2E2E2E2E2E2E2E2E2E2E2E2E2E2E2E2E2E2E2E2E2E2E2E2E2
310
E2E2E2E2E2E2E2E2E2F5F5F5F5F5F5F5F5F5F5F5F5F5F5F5F5F5F5F5F5F5F5F5F5F5F5F5F5F5F5F5F5F5F5F5F5F5F5F5F5F5F5F5F5F5F5F5F5F5E2F5F5F5F5E2F5F5F5F5F5F5F5F5F5F5F5E2F5F5F5E2F5F5E2E2E2F5F5E2F5F5F5E2F5F5F5F5F5F5F5F5F5F5F5F5F5F5F5F5F5F5F5F5F5F5F5F5F5F5F5F5F5F5F5F5F5F5F5
310
F5F5F5F5F5F5F5F5F5F5F5F5F5F5F5F5F5F5F5F5F5F5E2E2E2F5F5E2F5F5F5E2F5F5F5F5F5F5F5F5F5F5F5F5F5F5F5F5F5F5F5F5F5F5F5F5F5F5F5F5F5E2F5F5F5F5F5F5F5F5F5F5F5F5F5F5F5F5F5F5F5F5F5F5F5F5F5F5F5F5F5F5F5F5F5F5F5F5F5F5F5F5F5F5F5F5F5F5F5F5F5E2F5F5F5F5E2F5F5F5F5F5F5F5F5F5F5
310
F5E2F5F5F5E2F5F5E2E2E2F5F5E2F5F5F5E2F5F5F5F5F5F5F5F5F5F5F5F5F5F5F5F5F5F5F5F5F5F5F5F5F5F5F5F5F5F5F5F5F5F5F5F5F5F5F5F5F5F5F5F5F5F5F5F5F5F5F5F5F5F5F5F5F5F5E2E2E2E2E2E2F5F5E2F5F5F5F5F5F5F5F5F5F5F5F5F5F5F5F5F5F5F5F5F5F5F5F5F5F5F5F5F5E2F5F5F5F5F5F5F5F5F5F5F5F5
310
F5F5F5F5F5F5F5F5F5F5F5F5F5F5F5F5F5F5F5F5F5F5F5F5F5F5F5F5F5F5F5F5F5F5F5F5F5E2E2E2E2E2E2E2E2E2E2E2E2E2E2E2E2F5E2F5F5F5E2F5F5E2E2E2F5F5E2F5F5F5E2F5F5F5F5F5F5F5F5F5F5F5F5F5F5F5F5F5F5F5F5F5F5F5F5F5F5F5F5F5F5F5F5F5F5F5F5F5F5F5F5F5F5F5F5F5F5F5F5F5F5F5F5F5F5F5F5
310
F5F5E2E2E2E2E2F5F5F5E2F5F5F5F5F5F5F5F5F5F5F5F5F5F5F5F5F5F5F5F5F5F5F5F5F5F5F5F5F5E2F5F5F5F5F5F5F5F5F5F5F5F5F5F5F5F5F5F5F5F5F5F5F5F5F5F5F5F5F5F5F5F5F5F5F5F5F5F5F5F5F5F5F5F5F5F5F5F5F5F5F5F5F5E2E2F5F5F5F5F5F5F5F5F5F5F5E2F5F5F5E2F5F5E2E2E2F5F5E2F5F5F5E2F5F5F5
310
F5F5F5F5F5F5F5F5F5F5F5F5F5F5F5F5F5F5F5F5F5F5F5F5F5F5F5F5F5F5F5F5F5F5F5F5F5F5F5F5F5F5F5F5F5F5F5F5F5F5F5F5F5F5F5E2E2E2E2E2F5F5F5E2F5F5F5F5F5F5F5F5F5F5F5F5F5F5F5F5F5F5F5F5F5F5F5F5F5F5F5F5F5E2F5F5F5F5F5F5F5F5F5F5F5F5F5F5F5F5F5F5F5F5F5F5F5F5F5F5F5F5F5F5F5F5F5
310
F5F5F5F5F5F5F5F5F5F5F5F5F5F5F5F5F5F5F5F5E2E2F5F5F5F5F5F5F5F5F5F5F5E2F5F5F5E2F5F5E2E2E2F5F5E2F5F5F5E2F5F5F5F5F5F5F5F5F5F5F5F5F5F5F5F5F5F5F5F5F5F5F5F5F5F5F5F5F5F5F5F5F5F5F5F5F5F5F5F5F5F5F5F5F5F5F5F5F5F5F5F5F5F5F5F5F5F5F5E2E2E2E2F5F5F5E2F5F5F5F5F5F5F5F5F5F5
310
F5F5F5F5F5F5F5F5F5F5F5F5F5F5F5F5F5F5F5E2F5F5F5F5F5F5F5F5F5F5F5F5F5F5F5F5F5F5F5F5F5F5F5F5F5F5F5F5F5F5F5F5F5F5F5F5F5F5F5F5F5F5F5F5F5F5F5F5F5F5F5F5F5F5E2F5F5F5F5F5F5F5F5F5F5F5E2F5F5F5E2F5F5E2E2E2F5F5E2F5F5F5E2F5F5F5F5F5F5F5F5F5F5F5F5F5F5F5F5F5F5F5F5F5F5F5F5
310
F5F5F5F5F5F5F5F5F5F5F5F5F5F5F5F5F5F5F5F5F5F5F5F5F5F5F5F5F5F5F5F5F5F5F5F5F5F5F5F5F5F5E2E2E2E2E2E2E2E2E2E2E2E2E2E2E2E2E2E2E2E2E2E2E2E2E2E2E2E2E2E2E2F5F5F5F5F5F5F5F5F5F5F5F5F5F5F5F5F5F5F5F5F5F5F5F5F5F5F5F5F5F5F5F5F5F5F5F5F5F5F5F5F5F5F5F5F5F5F5F5F5F5F5F5F5F5
310
E2F5F5F5F5F5F5F5F5F5F5F5E2F5F5F5E2F5F5E2E2E2F5F5E2F5F5F5E2F5F5F5F5F5F5F5F5F5F5F5F5F5F5F5F5F5F5F5F5F5F5F5F5F5F5F5F5F5F5F5F5F5F5F5F5F5F5F5F5F5F5F5F5F5F5F5F5F5F5F5F5F5F5F5F5F5F5F5F5F5F5F5F5F5F5E2E2E2F5F5F5F5F5F5F5F5F5F5E2E2E2E2F5F5F5F5F5F5F5F5F5F5E2E2E2E2F5
310
F5F5F5F5F5F5F5F5F5F5F5F5F5F5F5F5F5F5F5F5F5F5F5F5F5F5F5F5F5F5F5F5F5F5F5F5F5F5F5F5F5F5F5F5F5F5F5F5F5F5F5F5F5E2F5F5F5F5F5F5F5F5F5F5F5E2F5F5F5E2F5F5E2E2E2F5F5E2F5F5F5E2F5F5F5F5F5F5F5F5F5F5F5F5F5F5F5F5F5F5F5F5F5F5F5F5F5F5F5F5F5F5F5F5F5F5F5F5F5F5F5F5F5F5F5F5F5
310
F5F5F5F5F5F5F5F5F5F5F5F5F5F5F5F5F5F5F5F5F5F5F5F5F5F5F5F5F5F5F5F5F5F5E2E2E2E2F5F5F5F5F5F5F5F5F5F5F5F5F5F5F5F5F5F5F5F5F5F5F5F5F5F5F5F5F5F5F5F5F5F5F5F5F5F5F5F5F5F5F5F5F5F5F5F5F5F5F5F5F5F5F5F5F5F5F5F5F5F5F5F5F5F5F5F5F5F5F5F5F5F5F5F5F5F5F5F5E2F5F5F5E2F5F5E2E2
310
E2F5F5F5F5F5F5E2F5F5F5F5F5F5F5F5F5F5F5F5F5F5F5F5F5F5F5F5F5F5F5F5F5F5F5F5F5F5F5F5F5F5F5F5F5F5F5F5F5F5F5F5F5F5F5F5F5F5F5F5F5F5F5F5F5F5F5F5F5F5F5F5F5F5F5F5F5F5F5F5F5F5F5F5F5F5F5E2E2E2E2F5F5F5F5F5F5F5F5F5F5F5F5F5F5F5F5F5F5F5F5F5F5F5F5F5F5F5F5F5F5F5F5F5F5F5F5
310
F5F5F5F5F5F5F5F5F5F5F5F5F5F5F5F5F5F5F5F5F5F5F5F5F5F5F5F5F5F5F5F5F5F5F5F5F5F5F5F5F5F5F5F5E2F5F5F5F5F5F5E2E2E2F5F5F5F5F5F5E2F5F5F5F5F5F5F5F5F5F5F5F5F5F5F5F5F5F5F5F5F5F5F5F5F5F5F5F5F5F5F5F5F5F5F5F5F5F5F5F5F5F5F5F5F5F5F5F5F5F5F5F5F5F5F5F5F5F5F5F5F5F5F5F5F5F5
310
F5F5F5F5F5F5F5F5F5F5F5F5F5F5F5F5F5F5F5F5F5F5F5F5F5F5F5F5F5F5F5F5F5F5F5F5F5F5F5F5F5F5F5F5F5F5F5F5F5F5F5F5F5F5F5F5F5F5F5F5F5F5F5F5F5F5F5F5F5F5F5F5F5F5F5F5F5F5F5F5F5F5F5F5F5F5F5F5F5F5F5F5F5F5F5F5F5E2F5F5F5F5F5F5E2E2E2F5F5F5F5F5F5E2F5F5F5F5F5F5F5F5F5F5F5F5F5
310
F5F5F5F5F5F5F5F5F5F5F5F5F5F5F5F5F5F5F5F5F5F5F5F5F5F5F5F5F5F5F5F5F5F5F5F5F5F5F5F5F5F5F5F5F5F5F5F5F5F5F5F5F5F5F5F5F5F5F5F5F5F5F5F5F5F5F5F5F5F5F5F5F5F5F5F5F5F5F5F5F5F5F5F5F5F5F5F5F5F5F5F5F5F5F5F5F5F5F5F5F5F5F5F5F5F5F5F5F5F5F5F5F5F5F5F5F5F5F5F5F5F5F5F5F5F5F5
310
F5F5F5F5F5F5F5F5F5F5F5F5F5F5F5F5F5F5F5F5F5F5F5E2F5F5F5F5F5F5E2E2E2F5F5F5F5F5F5E2F5F5F5F5F5F5F5F5F5F5F5F5F5F5F5F5F5F5F5F5F5F5F5F5F5F5F5F5F5F5F5F5F5F5F5F5F5F5F5F5F5F5F5F5F5F5F5F5F5F5F5F5F5F5F5F5F5F5F5F5F5F5F5F5F5F5F5F5F5F5F5F5F5F5F5F5F5F5F5F5F5F5F5F5F5F5F5
310
F5F5F5F5F5F5F5F5F5F5F5F5F5F5F5F5F5F5F5F5F5F5F5F5F5F5F5F5F5F5F5F5F5F5F5F5F5F5F5F5F5F5F5F5F5F5F5F5F5F5F5F5F5F5F5F5F5F5F5F5F5F5F5F5F5F5F5F5F5F5F5F5F5F5F5F5E2F5F5F5F5F5F5E2E2E2F5F5F5F5F5F5E2F5F5F5F5F5F5F5F5F5F5F5F5F5F5F5F5F5F5F5F5F5F5F5F5F5F5F5F5F5F5F5F5F5F5
310
F5F5F5F5F5F5F5F5F5F5F5F5F5F5F5F5F5F5F5F5F5F5F5F5F5F5F5F5F5F5F5F5F5F5F5F5F5F5F5F5F5F5F5F5F5F5F5F5F5F5F5F5F5F5F5F5F5F5F5F5F5F5F5F5F5F5F5F5F5F5F5F5F5F5F5F5F5F5F5F5F5F5F5F5F5F5F5F5F5F5F5F5F5F5F5F5F5F5F5F5F5F5F5F5F5F5F5F5F5F5F5F5F5F5F5F5F5F5F5F5F5F5F5F5F5F5F5
310
F5F5E2F5F5F5F5F5F5E2E2E2F5F5F5F5F5F5E2F5F5F5F5F5F5F5F5F5F5F5F5F5F5F5F5F5F5F5F5F5F5F5F5F5F5F5F5F5F5F5F5F5F5F5F5F5F5F5F5F5F5F5F5F5F5F5F5F5F5F5F5F5F5F5F5F5F5F5F5F5F5F5F5F5F5F5F5F5F5F5F5F5F5F5F5F5F5F5F5F5F5F5F5F5F5F5F5F5F5F5F5F5F5F5F5F5F5F5F5F5F5F5F5F5F5F5F5
310
F5F5F5F5F5F5F5F5F5F5F5F5F5F5F5F5F5F5F5F5F5F5F5F5F5F5F5F5F5F5F5F5F5F5F5F5F5F5F5F5F5F5F5F5F5F5F5F5F5F5F5F5F5F5F5E2F5F5F5F5F5F5E2E2E2F5F5F5F5F5F5E2F5F5F5F5F5F5F5F5F5F5F5F5F5F5F5F5F5F5F5F5F5F5F5F5F5F5F5F5F5F5F5F5F5F5F5F5F5F5F5F5F5F5F5F5F5F5F5F5F5F5F5F5F5F5F5
310
F5F5F5F5F5F5F5F5F5F5F5F5F5F5F5F5F5F5F5F5F5F5F5F5F5F5F5F5F5F5F5F5F5F5F5F5F5F5F5F5F5F5F5F5F5F5F5F5F5F5F5F5F5F5F5F5F5F5F5F5F5F5F5F5F5F5F5F5F5F5F5F5F5F5F5F5F5F5F5F5F5F5F5F5F5F5F5F5F5F5F5F5F5F5F5F5F5F5F5F5F5F5F5F5F5F5F5F5E2F5F5F5F5F5F5E2E2E2F5F5F5F5F5F5E2F5F5
310
F5F5F5F5F5F5F5F5F5F5F5F5F5F5F5F5F5F5F5F5F5F5F5F5F5F5F5F5F5F5F5F5F5F5F5F5F5F5F5F5F5F5F5F5F5F5F5F5F5F5F5F5F5F5F5F5F5F5F5F5F5F5F5F5F5F5F5F5F5F5F5F5F5F5F5F5F5F5F5F5F5F5F5F5F5F5F5F5F5F5F5F5F5F5F5F5F5F5F5F5F5F5F5F5F5F5F5F5F5F5F5F5F5F5F5F5F5F5F5F5F5F5F5F5F5F5F5
310
F5F5F5F5F5F5F5F5F5F5F5F5F5F5F5F5F5F5F5F5F5F5F5F5F5F5F5F5F5F5F5F5F5F5E2F5F5F5F5F5F5E2E2E2F5F5F5F5F5F5E2F5F5F5F5F5F5F5F5F5F5F5F5F5F5F5F5F5F5F5F5F5F5F5F5F5F5F5F5F5F5F5F5F5F5F5F5F5F5F5F5F5F5F5F5F5F5F5F5F5F5F5F5F5F5F5F5F5F5F5F5F5F5F5F5F5F5F5F5F5F5F5F5F5F5F5F5
310
F5E2E2E2E2E2E2E2E2F5F5F5F5F5F5F5F5F5F5F5F5F5F5F5F5F5F5F5F5F5F5F5F5F5F5F5F5F5F5F5F5F5F5F5F5F5F5F5F5F5F5F5F5F5F5F5F5F5F5F5F5F5F5F5F5F5F5F5F5F5F5F5F5F5F5F5F5F5F5F5F5F5F5F5F5F5F5E2F5F5F5F5F5F5E2E2E2F5F5E2F5F5F5E2F5F5F5F5F5F5F5F5F5F5F5F5F5F5F5F5F5F5F5F5F5F5F5
310
F5F5F5F5F5F5F5F5F5F5F5F5F5F5F5F5F5F5F5F5F5F5F5F5F5F5F5F5F5F5F5F5F5F5F5F5F5F5F5F5F5F5F5F5F5F5F5F5F5F5F5E2E2E2F5F5F5F5F5F5F5F5E2E2E2F5F5F5F5F5F5F5F5F5F5F5F5F5F5F5F5F5F5F5F5F5F5F5F5F5F5F5F5F5F5F5F5F5F5F5F5F5F5F5F5F5F5F5F5F5F5F5F5F5F5F5F5F5F5F5F5F5F5F5F5F5F5
310
F5F5F5F5F5F5F5F5F5F5F5F5F5E2F5F5F5E2F5F5E2E2E2F5F5E2F5F5F5E2F5F5F5F5F5F5F5F5F5F5F5F5F5F5F5F5F5F5F5F5F5F5F5F5F5F5F5F5F5F5F5F5F5F5F5F5F5F5F5F5F5F5F5F5F5F5F5F5F5F5F5F5F5F5F5F5F5F5F5F5F5F5F5F5F5F5F5F5F5F5F5F5E2E2F5F5F5F5F5F5F5F5F5F5F5F5F5F5E2E2F5F5F5F5F5F5F5
310
F5F5F5F5F5F5F5F5F5F5F5F5F5F5F5F5F5F5F5F5F5F5F5F5F5F5F5F5F5F5F5F5F5F5F5F5F5F5F5F5F5F5F5F5F5F5F5F5F5F5F5F5F5F5F5F5F5F5F5F5F5F5F5F5F5F5E2F5F5F5E2F5F5E2E2E2F5F5E2F5F5F5E2F5F5F5F5F5F5F5F5F5F5F5F5F5F5F5F5F5F5F5F5F5F5F5F5F5F5F5F5F5F5F5F5F5F5F5F5F5F5F5F5F5F5F5F5
310
F5F5F5F5F5F5F5F5F5F5F5F5F5F5F5F5F5F5F5F5F5F5F5F5F5F5F5E2F5F5F5F5F5F5F5F5F5F5F5F5F5F5F5F5F5F5E2F5F5F5F5F5F5F5F5F5F5F5F5F5F5F5F5F5F5F5F5F5F5F5F5F5F5F5F5F5F5F5F5F5F5F5F5F5F5F5F5F5F5F5F5F5F5F5F5F5F5F5F5F5F5F5F5F5F5F5F5F5F5F5F5F5F5F5F5F5F5F5F5E2F5F5F5E2F5F5E2
310
E2E2F5F5E2F5F5F5E2F5F5F5F5F5F5F5F5F5F5F5F5F5F5F5F5F5F5F5F5F5F5F5F5F5F5F5F5F5F5F5F5F5F5F5F5F5F5F5F5F5F5F5F5F5F5F5F5F5F5F5F5F5F5F5F5F5F5F5F5F5F5F5F5F5F5F5F5F5F5E2F5F5F5F5F5E2E2E2E2E2E2E2E2E2E2F5F5F5F5F5E2F5F5F5F5F5F5F5F5F5F5F5F5F5F5F5F5F5F5F5F5F5F5F5F5F5F5
310
F5F5F5F5F5F5F5F5F5F5F5F5F5F5F5F5F5F5F5F5F5F5F5F5F5F5F5F5F5F5F5F5F5F5F5F5F5F5F5F5F5F5F5F5F5E2F5F5F5E2F5F5E2E2E2F5F5E2F5F5F5E2F5F5F5F5F5F5F5F5F5F5F5F5F5F5F5F5F5F5F5F5F5F5F5F5F5F5F5F5F5F5F5F5F5F5F5F5F5F5F5F5F5F5F5F5F5F5F5F5F5F5F5F5F5F5F5F5F5F5F5F5F5F5F5F5F5
310
F5F5F5F5E2F5F5F5F5F5E2E2E2E2E2E2E2E2E2E2E2E2E2F5F5F5F5E2F5F5F5F5F5F5F5F5F5F5F5F5F5F5F5F5F5F5F5F5F5F5F5F5F5F5F5F5F5F5F5F5F5F5F5F5F5F5F5F5F5F5F5F5F5F5F5F5F5F5F5F5F5F5F5F5F5F5F5F5F5F5F5F5F5F5F5F5F5F5E2F5F5F5E2F5F5E2E2E2F5F5E2F5F5F5E2F5F5F5F5F5F5F5F5F5F5F5F5
310
F5F5F5F5F5F5F5F5F5F5F5F5F5F5F5F5F5F5F5F5F5F5F5F5F5F5F5F5F5F5F5F5F5F5F5F5F5F5F5F5F5F5F5F5F5F5F5F5F5F5F5F5F5F5F5F5E2F5F5F5F5E2E2E2E2E2E2E2E2E2E2E2E2E2E2E2E2F5F5F5F5E2F5F5F5F5F5F5F5F5F5F5F5F5F5F5F5F5F5F5F5F5F5F5F5F5F5F5F5F5F5F5F5F5F5F5F5F5F5F5F5F5F5F5F5F5F5
310
F5F5F5F5F5F5F5F5F5F5F5F5F5F5F5F5F5F5F5F5F5F5F5F5E2F5F5F5E2F5F5E2E2E2F5F5E2F5F5F5E2F5F5F5F5F5F5F5F5F5F5F5F5F5F5F5F5F5F5F5F5F5F5F5F5F5F5F5F5F5F5F5F5F5F5F5F5F5F5F5F5F5F5F5F5F5F5F5F5F5F5F5F5F5F5F5F5F5F5F5F5F5F5F5F5F5F5F5F5E2F5F5F5E2F5E2E2E2E2F5E2E2F5E2F5E2E2
310
F5E2F5E2F5F5F5E2F5F5F5F5F5F5F5F5F5F5F5F5F5F5F5F5F5F5F5F5F5F5F5F5F5F5F5F5F5F5F5F5F5F5F5F5F5F5F5F5F5F5F5F5F5F5F5F5F5F5F5F5F5F5F5F5F5F5F5F5F5F5F5F5F5F5F5E2F5E2F5F5F5E2F5F5E2E2E2F5F5E2F5F5F5E2F5F5F5F5F5F5F5F5F5F5F5F5F5F5F5F5F5F5F5F5F5F5F5F5F5F5F5F5F5F5F5F5F5
310
F5F5F5F5F5F5F5F5F5F5F5F5F5F5F5F5F5F5F5F5F5F5F5F5F5F5F5F5F5F5F5F5F5F5E2F5F5F5F5E2E2E2E2E2E2E2E2E2E2E2E2E2E2E2E2E2E2F5F5F5F5E2F5F5F5F5F5F5F5F5F5F5F5F5F5F5F5F5F5F5F5F5F5F5F5F5F5F5F5F5F5F5F5F5F5F5F5F5F5F5F5F5F5F5F5F5F5F5F5F5F5F5F5F5F5F5F5F5F5F5F5F5F5F5F5F5F5
310
F5E2F5E2F5F5F5E2F5F5E2E2E2F5F5E2F5F5F5E2F5F5F5F5F5F5F5F5F5F5F5F5F5F5F5F5F5F5F5F5F5F5F5F5F5F5F5F5F5F5F5F5F5F5F5F5F5F5F5F5F5F5F5F5F5F5F5F5F5F5F5F5F5F5F5F5F5F5F5F5F5F5F5F5F5F5F5E2F5F5F5E2E2E2E2E2E2E2E2E2E2E2E2E2E2E2E2E2E2E2E2F5F5F5E2F5F5F5F5F5F5F5F5F5F5F5F5
310
F5F5F5F5F5F5F5F5F5F5F5F5F5F5F5F5F5F5F5F5F5F5F5F5F5F5F5F5F5F5F5F5F5F5F5F5F5F5F5F5F5F5F5F5F5F5F5F5F5F5F5F5F5E2F5F5E2F5F5F5E2F5F5E2E2E2F5F5E2F5F5F5E2F5F5F5F5F5F5F5F5F5F5F5F5F5F5F5F5F5F5F5F5F5F5F5F5F5F5F5F5F5F5F5F5F5F5F5F5F5F5F5F5F5F5F5F5F5F5F5F5F5F5F5F5F5F5
310
F5F5F5F5F5F5F5F5F5F5F5F5F5E2F5F5F5E2E2F5E2E2E2E2F5E2E2F5E2F5E2E2F5E2F5E2E2E2F5F5E2F5F5F5F5F5F5F5F5F5F5F5F5F5F5F5F5F5F5F5F5F5F5F5F5F5F5F5F5F5F5F5F5F5F5F5F5F5F5F5F5F5F5F5F5F5F5F5F5F5F5F5F5F5F5F5F5F5F5F5F5F5F5F5F5F5E2F5F5E2F5F5F5E2F5F5E2E2E2F5F5E2F5F5F5E2F5
310
F5F5F5F5F5F5F5F5F5F5F5F5F5F5F5F5F5F5F5F5F5F5F5F5F5F5F5F5F5F5F5F5F5F5F5F5F5F5F5F5F5F5F5F5F5F5F5F5F5F5F5F5F5F5F5F5F5F5F5F5F5F5F5F5F5E2F5F5F5E2E2E2E2E2E2E2E2E2E2E2E2E2E2E2E2E2E2E2E2E2E2F5F5F5E2F5F5F5F5F5F5F5F5F5F5F5F5F5F5F5F5F5F5F5F5F5F5F5F5F5F5F5F5F5F5F5F5
310
F5F5F5F5F5F5F5F5F5F5F5F5F5F5F5F5F5F5F5F5F5F5F5F5F5F5F5F5F5F5F5F5E2F5F5E2F5F5F5E2F5F5E2E2E2F5F5E2F5F5F5E2F5F5F5F5F5F5F5F5F5F5F5F5F5F5F5F5F5F5F5F5F5F5F5F5F5F5F5F5F5F5F5F5F5F5F5F5F5F5F5F5F5F5F5F5F5F5F5F5F5F5F5F5F5F5F5F5F5F5F5F5F5F5F5F5F5F5E2F5F5F5E2E2E2F5E2
310
E2E2E2F5E2E2F5E2F5E2E2F5E2F5E2E2F5E2F5F5E2F5F5F5F5F5F5F5F5F5F5F5F5F5F5F5F5F5F5F5F5F5F5F5F5F5F5F5F5F5F5F5F5F5F5F5F5F5F5F5F5F5F5F5F5F5F5F5F5F5F5F5F5F5F5F5F5F5F5F5F5F5F5F5E2F5F5F5E2F5F5F5E2F5F5E2E2E2F5F5E2F5F5F5E2F5F5F5F5F5F5F5F5F5F5F5F5F5F5F5F5F5F5F5F5F5F5
310
F5F5F5F5F5F5F5F5F5F5F5F5F5F5F5F5F5F5F5F5F5F5F5F5F5F5F5F5F5F5F5F5F5F5F5F5F5F5F5F5F5F5F5F5E2F5F5F5E2E2E2E2E2E2E2E2E2E2E2E2E2E2E2E2E2E2E2E2E2E2E2F5F5E2F5F5F5F5F5F5F5F5F5F5F5F5F5F5F5F5F5F5F5F5F5F5F5F5F5F5F5F5F5F5F5F5F5F5F5F5F5F5F5F5F5F5F5F5F5F5F5F5F5F5F5F5F5
310
F5F5F5F5F5F5F5F5F5F5E2E2E2F5E2F5F5F5E2F5F5E2E2E2F5F5E2F5F5F5E2F5F5F5F5F5F5F5F5F5F5F5F5F5F5F5F5F5F5F5F5F5F5F5F5F5F5F5F5F5F5F5F5F5F5F5F5F5F5F5F5F5F5F5F5F5F5F5F5F5F5F5F5F5F5F5F5F5F5F5F5F5F5F5F5F5F5E2F5F5F5E2E2E2E2E2E2E2E2E2E2E2E2E2E2E2E2E2E2E2E2E2E2E2F5F5E2
310
F5F5F5F5F5F5F5F5F5F5F5F5F5F5F5F5F5F5F5F5F5F5F5F5F5F5F5F5F5F5F5F5F5F5F5F5F5F5F5F5F5F5F5F5F5F5F5F5F5F5F5F5F5F5F5F5F5F5F5F5F5F5F5F5F5F5F5E2F5F5F5E2F5F5E2E2E2F5F5E2F5F5F5E2F5F5F5F5F5F5F5F5F5F5F5F5F5F5F5F5F5F5F5F5F5F5F5F5F5F5F5F5F5F5F5F5F5F5F5F5F5F5F5F5F5F5F5
310
F5F5F5F5F5F5F5F5F5F5F5F5F5F5F5F5F5F5F5F5F5F5F5E2F5F5F5E2E2E2F5E2E2E2E2F5E2E2F5E2F5E2E2F5E2F5E2E2F5E2F5F5E2F5F5F5F5F5F5F5F5F5F5F5F5F5F5F5F5F5F5F5F5F5F5F5F5F5F5F5F5F5F5F5F5F5F5F5F5F5F5F5F5F5F5F5F5F5F5F5F5F5F5F5F5F5F5F5F5F5F5F5F5F5F5F5F5F5F5F5E2F5F5F5E2F5F5
310
E2E2E2F5F5F5F5F5F5E2F5F5F5F5F5F5F5F5F5F5F5F5F5F5F5F5F5F5F5F5F5F5F5F5F5F5F5F5F5F5F5F5F5F5F5F5F5F5F5F5F5F5F5F5F5F5F5F5F5F5F5F5F5F5F5F5F5F5F5F5F5F5F5F5F5F5E2F5F5F5E2E2E2E2E2E2E2E2E2E2E2E2E2E2E2E2E2E2E2E2E2E2E2F5F5E2F5F5F5F5F5F5F5F5F5F5F5F5F5F5F5F5F5F5F5F5F5
310
F5F5F5F5F5F5F5F5F5F5F5F5F5F5F5F5F5F5F5F5F5F5F5F5F5F5F5F5F5F5F5F5F5F5F5F5F5F5F5F5F5F5F5F5E2F5E2F5F5F5F5F5F5E2E2E2F5F5F5F5F5F5E2F5F5F5F5F5F5F5F5F5F5F5F5F5F5F5F5F5F5F5F5F5F5F5F5F5F5F5F5F5F5F5F5F5F5F5F5F5F5F5F5F5F5F5F5F5F5F5F5F5F5F5F5F5F5F5F5F5F5F5F5F5F5F5F5
310
F5F5E2F5F5F5E2E2E2F5E2E2E2E2F5E2E2F5E2F5E2E2F5E2F5E2E2F5E2F5F5E2F5F5F5F5F5F5F5F5F5F5F5F5F5F5F5F5F5F5F5F5F5F5F5F5F5F5F5F5F5F5F5F5F5F5F5F5F5F5F5F5F5F5F5F5F5F5F5F5F5F5F5F5F5F5F5F5F5F5F5F5F5F5F5E2E2F5F5E2F5F5F5F5F5F5E2E2E2F5F5F5F5F5F5E2F5F5F5F5F5F5F5F5F5F5F5
310
F5F5F5F5F5F5F5F5F5F5F5F5F5F5F5F5F5F5F5F5F5F5F5F5F5F5F5F5F5F5F5F5F5F5F5F5F5F5F5F5F5F5F5F5F5F5F5F5F5F5F5F5F5F5F5E2F5F5F5E2E2E2E2E2E2E2E2E2E2E2E2E2E2E2E2E2E2E2E2E2E2E2F5F5E2F5F5F5F5F5F5F5F5F5F5F5F5F5F5F5F5F5F5F5F5F5F5F5F5F5F5F5F5F5F5F5F5F5F5F5F5F5F5F5F5F5F5
310
F5F5F5F5F5F5F5F5F5F5F5F5F5F5F5F5F5F5F5F5F5E2F5F5F5E2F5F5F5F5F5F5E2E2E2F5F5F5F5F5F5E2F5F5F5F5F5F5F5F5F5F5F5F5F5F5F5F5F5F5F5F5F5F5F5F5F5F5F5F5F5F5F5F5F5F5F5F5F5F5F5F5F5F5F5F5F5F5F5F5F5F5F5F5F5F5F5F5F5F5F5F5F5F5F5F5F5F5F5E2F5F5E2E2E2E2E2E2E2E2E2E2E2E2E2E2E2
310
E2E2E2E2E2E2E2F5F5F5E2F5F5F5F5F5F5F5F5F5F5F5F5F5F5F5F5F5F5F5F5F5F5F5F5F5F5F5F5F5F5F5F5F5F5F5F5F5F5F5F5F5F5F5F5F5F5F5F5F5F5F5F5F5F5F5F5F5F5F5F5F5F5F5F5E2F5F5E2F5F5F5F5F5F5E2E2E2F5F5F5F5F5F5E2F5F5F5F5F5F5F5F5F5F5F5F5F5F5F5F5F5F5F5F5F5F5F5F5F5F5F5F5F5F5F5F5
310
F5F5F5F5F5F5F5F5F5F5F5F5F5F5F5F5F5F5F5F5F5F5F5F5F5F5F5F5F5F5F5F5F5F5F5E2F5F5F5E2E2F5E2E2E2E2F5E2E2F5E2F5E2E2F5E2F5E2E2E2F5F5E2F5F5F5F5F5F5F5F5F5F5F5F5F5F5F5F5F5F5F5F5F5F5F5F5F5F5F5F5F5F5F5F5F5F5F5F5F5F5F5F5F5F5F5F5F5F5F5F5F5F5F5F5F5F5F5F5F5F5F5F5F5F5F5F5
310
F5E2F5F5E2F5F5F5F5F5F5E2E2E2F5F5F5F5F5F5E2F5F5F5F5F5F5F5F5F5F5F5F5F5F5F5F5F5F5F5F5F5F5F5F5F5F5F5F5F5F5F5F5F5F5F5F5F5F5F5F5F5F5F5F5F5F5F5F5F5F5F5F5F5F5F5F5F5F5F5F5F5F5F5F5F5F5F5E2F5F5F5E2E2E2E2E2E2E2E2E2E2E2E2E2E2E2E2E2E2E2E2F5F5F5E2F5F5F5F5F5F5F5F5F5F5F5
310
F5F5F5F5F5F5F5F5F5F5F5F5F5F5F5F5F5F5F5F5F5F5F5F5F5F5F5F5F5F5F5F5F5F5F5F5F5F5F5F5F5F5F5F5F5F5F5F5F5F5F5F5F5F5F5E2F5E2F5F5F5F5F5F5E2E2E2F5F5F5F5F5F5E2F5F5F5F5F5F5F5F5F5F5F5F5F5F5F5F5F5F5F5F5F5F5F5F5F5F5F5F5F5F5F5F5F5F5F5F5F5F5F5F5F5F5F5F5F5F5F5F5F5F5F5F5F5
310
F5F5F5F5F5F5F5F5F5F5F5F5F5F5F5E2F5F5F5E2F5E2E2E2E2F5E2E2F5E2F5E2E2F5E2F5E2F5F5F5E2F5F5F5F5F5F5F5F5F5F5F5F5F5F5F5F5F5F5F5F5F5F5F5F5F5F5F5F5F5F5F5F5F5F5F5F5F5F5F5F5F5F5F5F5F5F5F5F5F5F5F5F5F5F5F5F5F5F5F5F5F5F5F5F5F5F5F5E2F5E2F5F5F5F5F5F5E2E2E2F5F5F5F5F5F5E2
310
F5F5F5F5F5F5F5F5F5F5F5F5F5F5F5F5F5F5F5F5F5F5F5F5F5F5F5F5F5F5F5F5F5F5F5F5F5F5F5F5F5F5F5F5F5F5F5F5F5F5F5F5F5F5F5F5F5F5F5F5F5F5F5F5F5F5F5F5E2F5F5F5F5E2E2E2E2E2E2E2E2E2E2E2E2E2E2E2E2F5F5F5F5E2F5F5F5F5F5F5F5F5F5F5F5F5F5F5F5F5F5F5F5F5F5F5F5F5F5F5F5F5F5F5F5F5F5
310
F5F5F5F5F5F5F5F5F5F5F5F5F5F5F5F5F5F5F5F5F5F5F5F5F5F5F5F5F5F5F5F5F5F5F5F5E2F5F5F5F5F5F5E2E2E2F5F5E2F5F5F5E2F5F5F5F5F5F5F5F5F5F5F5F5F5F5F5F5F5F5F5F5F5F5F5F5F5F5F5F5F5F5F5F5F5F5F5F5F5F5F5F5F5F5F5F5F5F5F5F5F5F5F5F5F5F5F5F5F5F5F5F5F5F5F5F5F5F5F5F5F5E2F5F5F5F5
310
F5E2E2E2E2E2E2E2E2E2E2E2E2E2F5F5F5F5E2F5F5F5F5F5F5F5F5F5F5F5F5F5F5F5F5F5F5F5F5F5F5F5F5F5F5F5F5F5F5F5F5F5F5F5F5F5F5F5F5F5F5F5F5F5F5F5F5F5F5F5F5F5F5F5F5F5F5F5F5F5F5F5F5F5F5F5F5F5F5E2F5F5F5E2F5F5E2E2E2F5F5E2F5F5F5E2F5F5F5F5F5F5F5F5F5F5F5F5F5F5F5F5F5F5F5F5F5
310
F5F5F5F5F5F5F5F5F5F5F5F5F5F5F5F5F5F5F5F5F5F5F5F5F5F5F5F5F5F5F5F5F5F5F5F5F5F5F5F5F5F5F5F5F5F5F5F5F5E2F5F5F5F5F5E2E2F5E2E2F5E2F5E2E2E2F5F5F5F5E2F5F5F5F5F5F5F5F5F5F5F5F5F5F5F5F5F5F5F5F5F5F5F5F5F5F5F5F5F5F5F5F5F5F5F5F5F5F5F5F5F5F5F5F5F5F5F5F5F5F5F5F5F5F5F5F5
310
F5F5F5F5F5F5F5F5F5F5F5F5F5F5F5E2F5F5F5E2F5F5E2E2E2F5F5E2F5F5F5E2F5F5F5F5F5F5F5F5F5F5F5F5F5F5F5F5F5F5F5F5F5F5F5F5F5F5F5F5F5F5F5F5F5F5F5F5F5F5F5F5F5F5F5F5F5F5F5F5F5F5F5F5F5F5F5F5F5F5F5F5F5F5F5F5F5F5F5F5F5F5F5E2F5F5F5F5F5E2E2E2E2E2E2E2E2F5F5F5F5F5E2F5F5F5F5
310
F5F5F5F5F5F5F5F5F5F5F5F5F5F5F5F5F5F5F5F5F5F5F5F5F5F5F5F5F5F5F5F5F5F5F5F5F5F5F5F5F5F5F5F5F5F5F5F5F5F5F5F5F5F5F5F5F5F5F5F5F5F5F5F5F5F5F5F5E2F5F5F5E2F5F5E2E2E2F5F5E2F5F5F5E2F5F5F5F5F5F5F5F5F5F5F5F5F5F5F5F5F5F5F5F5F5F5F5F5F5F5F5F5F5F5F5F5F5F5F5F5F5F5F5F5F5F5
310
F5F5F5F5F5F5F5F5F5F5F5F5F5F5F5F5F5F5F5F5F5F5F5F5F5F5F5F5F5F5E2E2F5F5F5F5F5F5F5F5F5F5F5F5F5F5E2E2F5F5F5F5F5F5F5F5F5F5F5F5F5F5F5F5F5F5F5F5F5F5F5F5F5F5F5F5F5F5F5F5F5F5F5F5F5F5F5F5F5F5F5F5F5F5F5F5F5F5F5F5F5F5F5F5F5F5F5F5F5F5F5F5F5F5F5F5F5F5F5F5F5E2F5F5F5E2F5
310
F5E2E2E2F5F5E2F5F5F5E2F5F5F5F5F5F5F5F5F5F5F5F5F5F5F5F5F5F5F5F5F5F5F5F5F5F5F5F5F5F5F5F5F5F5F5F5F5F5F5F5F5F5F5F5F5F5F5F5F5F5F5F5F5F5F5F5F5F5F5F5F5F5F5F5F5F5F5F5F5F5F5F5F5F5E2E2E2F5F5F5F5F5F5F5F5F5E2E2F5F5F5F5F5F5F5F5F5F5F5F5F5F5F5F5F5F5F5F5F5F5F5F5F5F5F5F5
310
F5F5F5F5F5F5F5F5F5F5F5F5F5F5F5F5F5F5F5F5F5F5F5F5F5F5F5F5F5F5F5F5F5F5F5F5F5F5F5F5F5F5F5F5F5F5F5E2F5F5F5E2F5F5E2E2E2F5F5E2F5F5F5E2F5F5F5F5F5F5F5F5F5F5F5F5F5F5F5F5F5F5F5F5F5F5F5F5F5F5F5F5F5F5F5F5F5F5F5F5F5F5F5F5F5F5F5F5F5F5F5F5F5F5F5F5F5F5F5F5F5F5F5F5F5F5F5
310
F5F5F5F5F5F5F5F5F5F5F5F5F5F5E2E2E2F5F5F5E2E2E2F5F5F5F5F5F5F5F5F5F5F5F5F5F5F5F5F5F5F5F5F5F5F5F5F5F5F5F5F5F5F5F5F5F5F5F5F5F5F5F5F5F5F5F5F5F5F5F5F5F5F5F5F5F5F5F5F5F5F5F5F5F5F5F5F5F5F5F5F5F5F5F5F5F5F5F5F5E2F5F5F5E2F5F5E2E2E2F5F5E2F5F5F5E2F5F5F5F5F5F5F5F5F5F5
310
F5F5F5F5F5F5F5F5F5F5F5F5F5F5F5F5F5F5F5F5F5F5F5F5F5F5F5F5F5F5F5F5F5F5F5F5F5F5F5F5F5F5F5F5F5F5F5F5F5F5F5F5F5F5F5F5F5F5F5F5F5F5F5F5F5F5F5F5F5F5E2E2E2F5F5F5F5F5F5F5F5F5F5F5F5F5F5F5F5F5F5F5F5F5F5F5F5F5F5F5F5F5F5F5F5F5F5F5F5F5F5F5F5F5F5F5F5F5F5F5F5F5F5F5F5F5F5
310
F5F5F5F5F5F5F5F5F5F5F5F5F5F5F5F5F5F5F5F5F5F5F5F5F5F5E2F5F5F5E2F5F5E2E2E2F5F5E2F5F5F5E2F5F5F5F5F5F5F5F5F5F5F5F5F5F5F5F5F5F5F5F5F5F5F5F5F5F5F5F5F5F5F5F5F5F5F5F5F5F5F5F5F5F5F5F5F5F5F5F5F5F5F5F5F5F5F5F5F5F5F5F5F5F5F5F5F5F5F5F5F5F5F5F5F5F5F5F5F5F5F5F5F5F5F5F5
310
F5F5F5F5F5F5F5F5F5F5F5F5F5F5F5F5F5F5F5F5F5F5F5F5F5F5F5F5F5F5F5F5F5F5F5F5F5F5F5F5F5F5F5F5F5F5F5F5F5F5F5F5F5F5F5F5F5F5F5F5F5F5F5F5F5F5F5F5F5F5F5F5F5F5F5F5F5F5F5E2F5F5F5E2F5F5E2E2E2F5F5E2F5F5F5E2F5F5F5F5F5F5F5F5F5F5F5F5F5F5F5F5F5F5F5F5F5F5F5F5F5F5F5F5F5F5F5
310
F5F5F5F5F5F5F5F5F5F5F5F5F5F5F5F5F5F5F5F5F5F5F5F5F5F5F5F5F5F5F5F5F5F5F5F5F5F5F5F5F5F5F5F5F5F5F5F5F5F5F5F5F5F5F5F5F5F5F5F5F5F5F5F5F5F5F5F5F5F5F5F5F5F5F5F5F5F5F5F5F5F5F5F5F5F5F5F5F5F5F5F5F5F5F5F5F5F5F5F5F5F5F5F5F5F5F5F5F5F5F5F5F5F5F5F5F5F5F5F5F5F5F5F5F5F5F5
310
F5F5F5F5F5E2F5F5F5E2F5F5E2E2E2F5F5E2F5F5F5E2F5F5F5F5F5F5F5F5F5F5F5F5F5F5F5F5F5F5F5F5F5F5F5F5F5F5F5F5F5F5F5F5F5F5F5F5F5F5F5F5F5F5F5F5F5F5F5F5F5F5F5F5F5F5F5F5F5F5F5F5F5F5F5F5F5F5F5F5F5F5F5F5F5F5F5F5F5F5F5F5F5F5F5F5F5F5F5F5F5F5F5F5F5F5F5F5F5F5F5F5F5F5F5F5F5
310
F5F5F5F5F5F5F5F5F5F5F5F5F5F5F5F5F5F5F5F5F5F5F5F5F5F5F5F5F5F5F5F5F5F5F5F5F5F5F5F5F5F5F5F5F5F5F5F5F5F5F5F5F5F5F5F5F5F5E2F5F5F5E2F5F5E2E2E2F5F5E2F5F5F5E2F5F5F5F5F5F5F5F5F5F5F5F5F5F5F5F5F5F5F5F5F5F5F5F5F5F5F5F5F5F5F5F5F5F5F5F5F5F5F5F5F5F5F5F5F5F5F5F5F5F5F5F5
310
F5F5F5F5F5F5F5F5F5F5F5F5F5F5F5F5F5F5F5F5F5F5F5F5F5F5F5F5F5F5F5F5F5F5F5F5F5F5F5F5F5F5F5F5F5F5F5F5F5F5F5F5F5F5F5F5F5F5F5F5F5F5F5F5F5F5F5F5F5F5F5F5F5F5F5F5F5F5F5F5F5F5F5F5F5F5F5F5F5F5F5F5F5F5F5F5F5F5F5F5F5F5F5F5F5F5F5F5F5F5F5E2F5F5F5E2F5F5E2E2E2F5F5E2F5F5F5
310
E2F5F5F5F5F5F5F5F5F5F5F5F5F5F5F5F5F5F5F5F5F5F5F5F5F5F5F5F5F5F5F5F5F5F5F5F5F5F5F5F5F5F5F5F5F5F5F5F5F5F5F5F5F5F5F5F5F5F5F5F5F5F5F5F5F5F5F5F5F5F5F5F5F5F5F5F5F5F5F5F5F5F5F5F5F5F5F5F5F5F5F5F5F5F5F5F5F5F5F5F5F5F5F5F5F5F5F5F5F5F5F5F5F5F5F5F5F5F5F5F5F5F5F5F5F5F5
310
F5F5F5F5F5F5F5F5F5F5F5F5F5F5F5F5F5F5F5F5F5F5F5F5F5F5F5F5F5F5F5F5F5F5F5F5F5E2F5F5F5E2F5F5E2E2E2F5F5E2F5F5F5E2F5F5F5F5F5F5F5F5F5F5F5F5F5F5F5F5F5F5F5F5F5F5F5F5F5F5F5F5F5F5F5F5F5F5F5F5F5F5F5F5F5F5F5F5F5F5F5F5F5F5F5F5F5F5F5F5F5F5F5F5F5F5F5F5F5F5F5F5F5F5F5F5F5
310
F5F5F5F5F5F5F5F5F5F5F5F5F5F5F5F5F5F5F5F5F5F5F5F5F5F5F5F5F5F5F5F5F5F5F5F5F5F5F5F5F5F5F5F5F5F5F5F5F5F5F5F5F5F5F5F5F5F5F5F5F5F5F5F5F5F5F5F5F5F5F5F5F5F5F5F5F5F5F5F5F5F5F5F5F5F5F5F5F5F5E2F5F5F5E2F5F5E2E2E2F5F5E2F5F5F5E2F5F5F5F5F5F5F5F5F5F5F5F5F5F5F5F5F5F5F5F5
310
F5F5F5F5F5F5F5F5F5F5F5F5F5F5F5F5F5F5F5F5F5F5F5F5F5F5F5F5F5F5F5F5F5F5F5F5F5F5F5F5F5F5F5F5F5F5F5F5F5F5F5F5F5F5F5F5F5F5F5F5F5F5F5F5F5F5F5F5F5F5F5F5F5F5F5F5F5F5F5F5F5F5F5F5F5F5F5F5F5F5F5F5F5F5F5F5F5F5F5F5F5F5F5F5F5F5F5F5F5F5F5F5F5F5F5F5F5F5F5F5F5F5F5F5F5F5F5
310
F5F5F5F5F5F5F5F5F5F5F5F5F5F5F5F5E2F5F5F5E2F5F5E2E2E2F5F5E2F5F5F5E2F5F5F5F5F5F5F5F5F5F5F5F5F5F5F5F5F5F5F5F5F5F5F5F5F5F5F5F5F5F5F5F5F5F5F5F5F5F5F5F5F5F5F5F5F5F5F5F5F5F5F5F5F5F5F5F5F5F5F5F5F5F5F5F5F5F5F5F5F5F5F5F5F5F5F5F5F5F5F5F5F5F5F5F5F5F5F5F5F5F5F5F5F5F5
310
F5F5F5F5F5F5F5F5F5F5F5F5F5F5F5F5F5F5F5F5F5F5F5F5F5F5F5F5F5F5F5F5F5F5F5F5F5F5F5F5F5F5F5F5F5F5F5F5F5F5F5F5F5F5F5F5F5F5F5F5F5F5F5F5F5F5F5F5F5E2F5F5F5E2F5F5E2E2E2F5F5F5F5F5F5E2F5F5F5F5F5F5F5F5F5F5F5F5F5F5F5F5F5F5F5F5F5F5F5F5F5F5F5F5F5F5F5F5F5F5F5F5F5F5F5F5F5
310
F5F5F5F5F5F5F5F5F5F5F5F5F5F5F5F5F5F5F5F5F5F5F5F5F5F5F5F5F5F5F5F5F5F5F5F5F5F5F5F5F5F5F5F5F5F5F5F5F5F5F5F5F5F5F5F5F5F5F5F5F5F5F5F5F5F5F5F5F5F5F5F5F5F5F5F5F5F5F5F5F5F5F5F5F5F5F5F5F5F5F5F5F5F5F5F5F5F5F5F5F5F5F5F5F5F5F5F5F5F5F5F5F5F5F5F5F5F5F5F5F5F5E2F5F5F5F5
310
F5F5E2E2E2F5F5F5F5F5F5E2F5F5F5F5F5F5F5F5F5F5F5F5F5F5F5F5F5F5F5F5F5F5F5F5F5F5F5F5F5F5F5F5F5F5F5F5F5F5F5F5F5F5F5F5F5F5F5F5F5F5F5F5F5F5F5F5F5F5F5F5F5F5F5F5F5F5F5F5F5F5F5F5F5F5F5F5F5F5F5F5F5F5F5F5F5F5F5F5F5F5F5F5F5F5F5F5F5F5F5F5F5F5F5F5F5F5F5F5F5F5F5F5F5F5F5
310
F5F5F5F5F5F5F5F5F5F5F5F5F5F5F5F5F5F5F5F5F5F5F5F5F5F5F5F5F5F5F5F5F5F5F5F5F5F5F5F5F5F5F5F5F5F5F5F5E2F5F5F5F5F5F5E2E2E2F5F5F5F5F5F5E2F5F5F5F5F5F5F5F5F5F5F5F5F5F5F5F5F5F5F5F5F5F5F5F5F5F5F5F5F5F5F5F5F5F5F5F5F5F5F5F5F5F5F5F5F5F5F5F5F5F5F5F5F5F5F5F5F5F5F5F5F5F5
310
F5F5F5F5F5F5F5F5F5F5F5F5F5F5F5F5F5F5F5F5F5F5F5F5F5F5F5F5F5F5F5F5F5F5F5F5F5F5F5F5F5F5F5F5F5F5F5F5F5F5F5F5F5F5F5F5F5F5F5F5F5F5F5F5F5F5F5F5F5F5F5F5F5F5F5F5F5F5F5F5F5F5F5F5F5F5F5F5F5F5F5F5F5F5F5F5F5F5F5F5F5E2F5F5F5F5F5F5E2E2E2F5F5F5F5F5F5E2F5F5F5F5F5F5F5F5F5
310
F5F5F5F5F5F5F5F5F5F5F5F5F5F5F5F5F5F5F5F5F5F5F5F5F5F5F5F5F5F5F5F5F5F5F5F5F5F5F5F5F5F5F5F5F5F5F5F5F5F5F5F5F5F5F5F5F5F5F5F5F5F5F5F5F5F5F5F5F5F5F5F5F5F5F5F5F5F5F5F5F5F5F5F5F5F5F5F5F5F5F5F5F5F5F5F5F5F5F5F5F5F5F5F5F5F5F5F5F5F5F5F5F5F5F5F5F5F5F5F5F5F5F5F5F5F5F5
310
F5F5F5F5F5F5F5F5F5F5F5F5F5F5F5F5F5F5F5F5F5F5F5F5F5F5F5E2F5F5F5F5F5F5E2E2E2F5F5F5F5F5F5E2F5F5F5F5F5F5F5F5F5F5F5F5F5F5F5F5F5F5F5F5F5F5F5F5F5F5F5F5F5F5F5F5F5F5F5F5F5F5F5F5F5F5F5F5F5F5F5F5F5F5F5F5F5F5F5F5F5F5F5F5F5F5F5F5F5F5F5F5F5F5F5F5F5F5F5F5F5F5F5F5F5F5F5
310
F5F5F5F5F5F5F5F5F5F5F5F5F5F5F5F5F5F5F5F5F5F5F5F5F5F5F5F5F5F5F5F5F5F5F5F5F5F5F5F5F5F5F5F5F5F5F5F5F5F5F5F5F5F5F5F5F5F5F5F5F5F5F5F5F5F5F5F5F5F5F5F5F5F5F5F5F5F5F5F5E2F5F5F5F5F5F5E2E2E2F5F5F5F5F5F5E2F5F5F5F5F5F5F5F5F5F5F5F5F5F5F5F5F5F5F5F5F5F5F5F5F5F5F5F5F5F5
310
F5F5F5F5F5F5F5F5F5F5F5F5F5F5F5F5F5F5F5F5F5F5F5F5F5F5F5F5F5F5F5F5F5F5F5F5F5F5F5F5F5F5F5F5F5F5F5F5F5F5F5F5F5F5F5F5F5F5F5F5F5F5F5F5F5F5F5F5F5F5F5F5F5F5F5F5F5F5F5F5F5F5F5F5F5F5F5F5F5F5F5F5F5F5F5F5F5F5F5F5F5F5F5F5F5F5F5F5F5F5F5F5F5F5F5F5F5F5F5F5F5F5F5F5F5F5F5
310
F5F5F5F5F5F5E2F5F5F5F5F5F5E2E2E2F5F5F5F5F5F5E2F5F5F5F5F5F5F5F5F5F5F5F5F5F5F5F5F5F5F5F5F5F5F5F5F5F5F5F5F5F5F5F5F5F5F5F5F5F5F5F5F5F5F5F5F5F5F5F5F5F5F5F5F5F5F5F5F5F5F5F5F5F5F5F5F5F5F5F5F5F5F5F5F5F5F5F5F5F5F5F5F5F5F5F5F5F5F5F5F5F5F5F5F5F5F5F5F5F5F5F5F5F5F5F5
310
F5F5F5F5F5F5F5F5F5F5F5F5F5F5F5F5F5F5F5F5F5F5F5F5F5F5F5F5F5F5F5F5F5F5F5F5F5F5F5F5F5F5F5F5F5F5F5F5F5F5F5F5F5F5F5F5F5F5F5E2F5F5F5F5F5F5E2E2E2F5F5F5F5F5F5E2F5F5F5F5F5F5F5F5F5F5F5F5F5F5F5F5F5F5F5F5F5F5F5F5F5F5F5F5F5F5F5F5F5F5F5F5F5F5F5F5F5F5F5F5F5F5F5F5F5F5F5
310
F5F5F5F5F5F5F5F5F5F5F5F5F5F5F5F5F5F5F5F5F5F5F5F5F5F5F5F5F5F5F5F5F5F5F5F5F5F5F5F5F5F5F5F5F5F5F5F5F5F5F5F5F5F5F5F5F5F5F5F5F5F5F5F5F5F5F5F5F5F5F5F5F5F5F5F5F5F5F5F5F5F5F5F5F5F5F5F5F5F5F5F5F5F5F5F5F5F5F5F5F5F5F5F5F5F5F5F5F5F5F5F5E2F5F5F5F5F5F5E2E2E2F5F5F5F5F5
310
F5E2F5F5F5F5F5F5F5F5F5F5F5F5F5F5F5F5F5F5F5F5F5F5F5F5F5F5F5F5F5F5F5F5F5F5F5F5F5F5F5F5F5F5F5F5F5F5F5F5F5F5F5F5F5F5F5F5F5F5F5F5F5F5F5F5F5F5F5F5F5F5F5F5F5F5F5F5F5F5F5F5F5F5F5F5F5F5F5F5F5F5F5F5F5F5F5F5F5F5F5F5F5F5F5F5F5F5F5F5F5F5F5F5F5F5F5F5F5F5F5F5F5F5F5F5F5
310
F5F5F5F5F5F5F5F5F5F5F5F5F5F5F5F5F5F5F5F5F5F5F5F5F5F5F5F5F5F5F5F5F5F5F5F5F5F5E2F5F5F5F5F5F5E2E2E2F5F5E2F5F5F5E2F5F5F5F5F5F5F5F5F5F5F5F5F5F5F5F5F5F5F5F5F5F5F5F5F5F5F5F5F5F5F5F5F5F5F5F5F5F5F5F5F5F5F5F5F5F5F5F5F5F5F5F5F5F5F5F5F5F5F5F5F5F5F5F5F5F5F5F5F5F5F5F5
310
F5F5F5F5F5F5F5F5F5F5F5F5F5F5F5F5F5F5F5F5F5F5F5F5F5F5F5F5F5F5F5F5F5F5F5F5F5F5F5F5F5F5F5F5F5F5F5F5F5F5F5F5F5F5F5F5F5F5F5F5F5F5F5F5F5F5F5F5F5F5F5F5F5F5F5F5F5F5F5F5F5F5F5F5F5F5F5F5F5F5F5E2F5F5F5E2F5F5E2E2E2F5F5E2F5F5F5E2F5F5F5F5F5F5F5F5F5F5F5F5F5F5F5F5F5F5F5
310
F5F5F5F5F5F5F5F5F5F5F5F5F5F5F5F5F5F5F5F5F5F5F5F5F5F5F5F5F5F5F5F5F5F5F5F5F5F5F5F5F5F5F5F5F5F5F5F5F5F5F5F5F5F5F5F5F5F5F5F5F5F5F5F5F5F5F5F5F5F5F5F5F5F5F5F5F5F5F5F5F5F5F5F5F5F5F5F5F5F5F5F5F5F5F5F5F5F5F5F5F5F5F5F5F5F5F5F5F5F5F5F5F5F5F5F5F5F5F5F5F5F5F5F5F5F5F5
310
F5F5F5F5F5F5F5F5F5F5F5F5F5F5F5F5F5E2F5F5F5E2F5F5E2E2E2F5F5E2F5F5F5E2F5F5F5F5F5F5F5F5F5F5F5F5F5F5F5F5F5F5F5F5F5F5F5F5F5F5F5F5F5F5F5F5F5F5F5F5F5F5F5F5F5F5F5F5F5F5F5F5F5F5F5F5F5F5F5F5F5F5F5F5F5F5F5F5F5F5F5F5F5F5F5F5F5F5F5F5F5F5F5F5F5F5F5F5F5F5F5F5F5F5F5F5F5
310
F5F5F5F5F5F5F5F5F5F5F5F5F5F5F5F5F5F5F5F5F5F5F5F5F5F5F5F5F5F5F5F5F5F5F5F5F5F5F5F5F5F5F5F5F5F5F5F5F5F5F5F5F5F5F5F5F5F5F5F5F5F5F5F5F5F5F5F5F5F5E2F5F5F5E2F5F5E2E2E2F5F5E2F5F5F5E2F5F5F5F5F5F5F5F5F5F5F5F5F5F5F5F5F5F5F5F5F5F5F5F5F5F5F5F5F5F5F5F5F5F5F5F5F5F5F5F5
310
F5F5F5F5F5F5F5F5F5F5F5F5F5F5F5F5F5F5F5F5F5F5F5F5F5F5F5F5F5F5F5F5F5F5F5F5F5F5F5F5F5F5F5F5F5F5F5F5F5F5F5F5F5F5F5F5F5F5F5F5F5F5F5F5F5F5F5F5F5F5F5F5F5F5F5F5F5F5F5F5F5F5F5F5F5F5F5F5F5F5F5F5F5F5F5F5F5F5F5F5F5F5F5F5F5F5F5F5F5F5F5F5F5F5F5F5F5F5F5F5F5F5F5E2F5F5F5
310
E2F5F5E2E2E2F5F5E2F5F5F5E2F5F5F5F5F5F5F5F5F5F5F5F5F5F5F5F5F5F5F5F5F5F5F5F5F5F5F5F5F5F5F5F5F5F5F5F5F5F5F5F5F5F5F5F5F5F5F5F5F5F5F5F5F5F5F5F5F5F5F5F5F5F5F5F5F5F5F5F5F5F5F5F5F5F5F5F5F5F5F5F5F5F5F5F5F5F5F5F5F5F5F5F5F5F5F5F5F5F5F5F5F5F5F5F5F5F5F5F5F5F5F5F5F5F5
310
F5F5F5F5F5F5F5F5F5F5F5F5F5F5F5F5F5F5F5F5F5F5F5F5F5F5F5F5F5F5F5F5F5F5F5F5F5F5F5F5F5F5F5F5F5F5F5F5F5E2F5F5F5E2F5F5E2E2E2F5F5E2F5F5F5E2F5F5F5F5F5F5F5F5F5F5F5F5F5F5F5F5F5F5F5F5F5F5F5F5F5F5F5F5F5F5F5F5F5F5F5F5F5F5F5F5F5F5F5F5F5F5F5F5F5F5F5F5F5F5F5F5F5F5F5F5F5
310
F5F5F5F5F5F5F5F5F5F5F5F5F5F5F5F5F5F5F5F5F5F5F5F5F5F5F5F5F5F5F5F5F5F5F5F5F5F5F5F5F5F5F5F5F5F5F5F5F5F5F5F5F5F5F5F5F5F5F5F5F5F5F5F5F5F5F5F5F5F5F5F5F5F5F5F5F5F5F5F5F5F5F5F5F5F5F5F5F5F5F5F5F5F5F5F5F5F5F5F5F5F5E2F5F5F5E2F5F5E2E2E2F5F5E2F5F5F5E2E2E2E2E2E2E2E2E2
310
E2E2E2E2E2E2E2E2E2E2E2E2E2E2E2E2E2E2E2E2E2E2E2E2E2E2E2E2E2E2E2E2E2E2E2E2E2E2E2E2E2E2E2E2E2E2E2E2E2E2E2E2E2E2E2E2E2E2E2E2E2E2E2E2E2E2E2E2E2E2E2E2E2E2E2E2E2E2E2E2E2E2E2E2E2E2E2E2E2E2E2E2E2E2E2E2E2E2E2E2E2E2E2E2E2E2E2E2E2E2E2E2E2E2E2E2E2E2E2E2E2E2E2E2E2E2E2
310
E2E2E2E2E2E2E2E2E2E2E2E2E2E2E2E2E2E2E2E2E2E2E2E2E2E2E2E2E2F5F5F5E2F5F5E2E2E2F5F5E2E2E2E2E2E2E2E2F5F5F5F5F5F5F5F5F5E2E2E2E2E2E2E2E2E2E2E2E2E2E2E2E2F5F5F5F5F5F5F5F5F5E2E2E2E2E2E2E2E2E2E2E2E2E2E2E2E2F5F5F5F5F5F5F5F5E2E2E2E2E2E2E2E2E2E2E2E2E2E2E2E2F5F5F5F5F5
310
F5F5F5F5E2E2E2E2E2E2E2E2E2E2E2E2E2E2E2E2F5F5F5F5F5F5F5F5E2E2E2E2E2E2E2E2E2E2E2E2E2E2E2E2F5F5F5F5F5F5F5F5F5E2E2E2E2E2E2E2E2E2E2E2E2E2E2E2E2F5F5F5F5F5F5F5F5F5E2E2E2E2E2E2E2E2F5F5E2E2E2F5F5F5F5F5F5F5F5F5F5F5F5F5F5F5F5F5F5F5F5F5F5F5F5F5F5F5F5F5F5F5F5F5F5F5F5
310
F5F5F5F5F5F5F5F5F5F5F5F5F5F5F5F5F5F5F5F5F5F5F5F5F5F5F5F5F5F5F5F5F5F5F5F5F5F5F5F5F5F5F5F5F5F5F5F5F5F5F5F5F5F5F5F5F5F5F5F5F5F5F5F5F5F5F5F5F5F5F5F5F5F5F5F5F5F5F5F5F5F5F5F5F5F5F5F5F5F5F5F5F5F5F5F5F5F5F5F5F5F5F5F5F5F5F5F5F5F5F5F5F5F5F5F5F5F5F5F5F5F5F5F5F5F5F5
310
F5F5F5F5F5F5F5F5F5F5F5F5F5F5E2E2E2F5F5F5F5F5F5F5F5F5F5F5F5F5F5F5F5F5F5F5F5F5F5F5F5F5F5F5F5F5F5F5F5F5F5F5F5F5F5F5F5F5F5F5F5F5F5F5F5F5F5F5F5F5F5F5F5F5F5F5F5F5F5F5F5F5F5F5F5F5F5F5F5F5F5F5F5F5F5F5F5F5F5F5F5F5F5F5F5F5F5F5F5F5F5F5F5F5F5F5F5F5F5F5F5F5F5F5F5F5F5
310
F5F5F5F5F5F5F5F5F5F5F5F5F5F5F5F5F5F5F5F5F5F5F5F5F5F5F5F5F5F5F5F5F5F5F5F5F5F5F5F5F5F5F5F5F5F5F5F5F5F5F5F5F5F5F5F5F5F5F5F5F5F5F5F5F5F5F5E2E2E2F5F5F5F5F5F5F5F5F5F5F5F5F5F5F5F5F5F5F5F5F5F5F5F5F5F5F5F5F5F5F5F5F5F5F5F5F5F5F5F5F5F5F5F5F5F5F5F5F5F5F5F5F5F5F5F5F5
310
F5F5F5F5F5F5F5F5F5F5F5F5F5F5F5F5F5F5F5F5F5F5F5F5F5F5F5F5F5F5F5F5F5F5F5F5F5F5F5F5F5F5F5F5F5F5F5F5F5F5F5F5F5F5F5F5F5F5F5F5F5F5F5F5F5F5F5F5F5F5F5F5F5F5F5F5F5F5F5F5F5F5F5F5F5F5F5F5F5F5F5F5F5F5F5F5F5F5F5F5F5F5F5F5F5F5F5F5F5F5F5F5F5F5F5F5F5F5F5F5E2EFE2E2E2E2E2
310
E2E2E2E2E2E2E2E2E2E2E2E2E2E2E2E2E2E2E2E2E2E2E2E2E2E2E2E2E2E2E2E2E2E2E2E2E2E2E2E2E2E2E2E2E2E2E2E2E2E2E2E2E2E2E2E2E2E2E2E2E2E2E2E2E2E2E2E2E2E2E2E2E2E2E2E2E2E2E2E2E2E2E2E2E2E2E2E2E2E2E2E2E2E2E2E2E2E2E2E2E2E2E2E2E2E2E2E2E2E2E2E2E2E2E2E2E2E2E2E2E2E2E2E2E2E2E2
310
E2E2E2E2E2E2E2E2E2E2E2E2E2E2E2E2E2E2E2E2E2E2E2E2E2E2E2E2E2E2E2E2E2E2E2E2E2E2E2E2E2E2E2E2E2E2E2EF
  0
XRECORD
  5
1F70
102
{ACAD_REACTORS
330
1F6F
102
}
330
1F6F
100
AcDbXrecord
280
     1
102
SHADEPLOT
 70
     0
102
SHADEPLOTRESLEVEL
 70
     2
102
SHADEPLOTCUSTOMDPI
 70
   300
  0
XRECORD
  5
1E3C
102
{ACAD_REACTORS
330
1E3B
102
}
330
1E3B
100
AcDbXrecord
280
     1
102
MATERIAL
148
0.0
149
0.0
149
0.0
 93
        0
 94
       63
282
     0
 72
     1
 77
     1
171
     1
175
     1
179
     1
273
     0
  0
XRECORD
  5
1E3A
102
{ACAD_REACTORS
330
1E39
102
}
330
1E39
100
AcDbXrecord
280
     1
102
MATERIAL
148
0.0
149
0.0
149
0.0
 93
        0
 94
       63
282
     0
 72
     1
 77
     1
171
     1
175
     1
179
     1
273
     0
  0
XRECORD
  5
1E3E
102
{ACAD_REACTORS
330
1E3D
102
}
330
1E3D
100
AcDbXrecord
280
     1
102
MATERIAL
148
0.0
149
0.0
149
0.0
 93
        0
 94
       63
282
     0
 72
     1
 77
     1
171
     1
175
     1
179
     1
273
     0
  0
XRECORD
  5
1F74
102
{ACAD_REACTORS
330
1F73
102
}
330
1F73
100
AcDbXrecord
280
     1
102
SHADEPLOT
 70
     0
102
SHADEPLOTRESLEVEL
 70
     2
102
SHADEPLOTCUSTOMDPI
 70
   300
  0
XRECORD
  5
1F76
102
{ACAD_REACTORS
330
1F75
102
}
330
1F75
100
AcDbXrecord
280
     1
102
ACAD_ROUNDTRIP_PRE2007_TABLESTYLE
 90
      512
 91
        0
  1

 92
      512
 93
        0
  2

 94
      512
 95
        0
  3

  0
ENDSEC
  0
EOF
