  0
SECTION
  2
HEADER
  9
$ACADVER
  1
AC1015
  9
$ACADMAINTVER
 70
    20
  9
$DWGCODEPAGE
  3
ANSI_932
  9
$INSBASE
 10
0.0
 20
0.0
 30
0.0
  9
$EXTMIN
 10
-188.2478338749143
 20
2200.452508155816
 30
0.0
  9
$EXTMAX
 10
4.397008238627281
 20
2375.330105883094
 30
6.681599999999998
  9
$LIMMIN
 10
0.0
 20
0.0
  9
$LIMMAX
 10
420.0
 20
297.0
  9
$ORTHOMODE
 70
     1
  9
$REGENMODE
 70
     1
  9
$FILLMODE
 70
     1
  9
$QTEXTMODE
 70
     0
  9
$MIRRTEXT
 70
     0
  9
$LTSCALE
 40
1.0
  9
$ATTMODE
 70
     1
  9
$TEXTSIZE
 40
2.5
  9
$TRACEWID
 40
1.0
  9
$TEXTSTYLE
  7
Standard
  9
$CLAYER
  8
Viewport
  9
$CELTYPE
  6
ByLayer
  9
$CECOLOR
 62
   256
  9
$CELTSCALE
 40
1.0
  9
$DISPSILH
 70
     0
  9
$DIMSCALE
 40
1.0
  9
$DIMASZ
 40
2.5
  9
$DIMEXO
 40
1.0
  9
$DIMDLI
 40
7.0
  9
$DIMRND
 40
0.0
  9
$DIMDLE
 40
0.0
  9
$DIMEXE
 40
1.0
  9
$DIMTP
 40
0.0
  9
$DIMTM
 40
0.0
  9
$DIMTXT
 40
2.5
  9
$DIMCEN
 40
0.0
  9
$DIMTSZ
 40
0.0
  9
$DIMTOL
 70
     0
  9
$DIMLIM
 70
     0
  9
$DIMTIH
 70
     0
  9
$DIMTOH
 70
     0
  9
$DIMSE1
 70
     0
  9
$DIMSE2
 70
     0
  9
$DIMTAD
 70
     1
  9
$DIMZIN
 70
     8
  9
$DIMBLK
  1

  9
$DIMASO
 70
     1
  9
$DIMSHO
 70
     1
  9
$DIMPOST
  1

  9
$DIMAPOST
  1

  9
$DIMALT
 70
     0
  9
$DIMALTD
 70
     2
  9
$DIMALTF
 40
0.0394
  9
$DIMLFAC
 40
1.0
  9
$DIMTOFL
 70
     1
  9
$DIMTVP
 40
0.0
  9
$DIMTIX
 70
     1
  9
$DIMSOXD
 70
     1
  9
$DIMSAH
 70
     0
  9
$DIMBLK1
  1

  9
$DIMBLK2
  1

  9
$DIMSTYLE
  2
JIS
  9
$DIMCLRD
 70
     0
  9
$DIMCLRE
 70
     0
  9
$DIMCLRT
 70
     0
  9
$DIMTFAC
 40
1.0
  9
$DIMGAP
 40
0.0
  9
$DIMJUST
 70
     0
  9
$DIMSD1
 70
     0
  9
$DIMSD2
 70
     0
  9
$DIMTOLJ
 70
     1
  9
$DIMTZIN
 70
     0
  9
$DIMALTZ
 70
     0
  9
$DIMALTTZ
 70
     0
  9
$DIMUPT
 70
     0
  9
$DIMDEC
 70
     4
  9
$DIMTDEC
 70
     4
  9
$DIMALTU
 70
     2
  9
$DIMALTTD
 70
     2
  9
$DIMTXSTY
  7
Standard
  9
$DIMAUNIT
 70
     0
  9
$DIMADEC
 70
     0
  9
$DIMALTRND
 40
0.0
  9
$DIMAZIN
 70
     0
  9
$DIMDSEP
 70
    46
  9
$DIMATFIT
 70
     3
  9
$DIMFRAC
 70
     0
  9
$DIMLDRBLK
  1

  9
$DIMLUNIT
 70
     2
  9
$DIMLWD
 70
    -2
  9
$DIMLWE
 70
    -2
  9
$DIMTMOVE
 70
     0
  9
$LUNITS
 70
     2
  9
$LUPREC
 70
     4
  9
$SKETCHINC
 40
1.0
  9
$FILLETRAD
 40
0.0
  9
$AUNITS
 70
     0
  9
$AUPREC
 70
     0
  9
$MENU
  1
.
  9
$ELEVATION
 40
0.0
  9
$PELEVATION
 40
0.0
  9
$THICKNESS
 40
0.0
  9
$LIMCHECK
 70
     0
  9
$CHAMFERA
 40
0.0
  9
$CHAMFERB
 40
0.0
  9
$CHAMFERC
 40
0.0
  9
$CHAMFERD
 40
0.0
  9
$SKPOLY
 70
     0
  9
$TDCREATE
 40
2454379.577641921
  9
$TDUCREATE
 40
2454379.202641921
  9
$TDUPDATE
 40
2454936.589305255
  9
$TDUUPDATE
 40
2454936.214305255
  9
$TDINDWG
 40
0.0566230440
  9
$TDUSRTIMER
 40
0.0566225000
  9
$USRTIMER
 70
     1
  9
$ANGBASE
 50
0.0
  9
$ANGDIR
 70
     0
  9
$PDMODE
 70
     0
  9
$PDSIZE
 40
0.0
  9
$PLINEWID
 40
0.0
  9
$SPLFRAME
 70
     0
  9
$SPLINETYPE
 70
     6
  9
$SPLINESEGS
 70
     8
  9
$HANDSEED
  5
105B
  9
$SURFTAB1
 70
     6
  9
$SURFTAB2
 70
     6
  9
$SURFTYPE
 70
     6
  9
$SURFU
 70
     6
  9
$SURFV
 70
     6
  9
$UCSBASE
  2

  9
$UCSNAME
  2

  9
$UCSORG
 10
0.0
 20
0.0
 30
0.0
  9
$UCSXDIR
 10
1.0
 20
0.0
 30
0.0
  9
$UCSYDIR
 10
0.0
 20
1.0
 30
0.0
  9
$UCSORTHOREF
  2

  9
$UCSORTHOVIEW
 70
     0
  9
$UCSORGTOP
 10
0.0
 20
0.0
 30
0.0
  9
$UCSORGBOTTOM
 10
0.0
 20
0.0
 30
0.0
  9
$UCSORGLEFT
 10
0.0
 20
0.0
 30
0.0
  9
$UCSORGRIGHT
 10
0.0
 20
0.0
 30
0.0
  9
$UCSORGFRONT
 10
0.0
 20
0.0
 30
0.0
  9
$UCSORGBACK
 10
0.0
 20
0.0
 30
0.0
  9
$PUCSBASE
  2

  9
$PUCSNAME
  2

  9
$PUCSORG
 10
0.0
 20
0.0
 30
0.0
  9
$PUCSXDIR
 10
1.0
 20
0.0
 30
0.0
  9
$PUCSYDIR
 10
0.0
 20
1.0
 30
0.0
  9
$PUCSORTHOREF
  2

  9
$PUCSORTHOVIEW
 70
     0
  9
$PUCSORGTOP
 10
0.0
 20
0.0
 30
0.0
  9
$PUCSORGBOTTOM
 10
0.0
 20
0.0
 30
0.0
  9
$PUCSORGLEFT
 10
0.0
 20
0.0
 30
0.0
  9
$PUCSORGRIGHT
 10
0.0
 20
0.0
 30
0.0
  9
$PUCSORGFRONT
 10
0.0
 20
0.0
 30
0.0
  9
$PUCSORGBACK
 10
0.0
 20
0.0
 30
0.0
  9
$USERI1
 70
     0
  9
$USERI2
 70
     0
  9
$USERI3
 70
     0
  9
$USERI4
 70
     0
  9
$USERI5
 70
     0
  9
$USERR1
 40
0.0
  9
$USERR2
 40
0.0
  9
$USERR3
 40
0.0
  9
$USERR4
 40
0.0
  9
$USERR5
 40
0.0
  9
$WORLDVIEW
 70
     1
  9
$SHADEDGE
 70
     3
  9
$SHADEDIF
 70
    70
  9
$TILEMODE
 70
     0
  9
$MAXACTVP
 70
    64
  9
$PINSBASE
 10
0.0
 20
0.0
 30
0.0
  9
$PLIMCHECK
 70
     0
  9
$PEXTMIN
 10
0.0
 20
0.0
 30
0.0
  9
$PEXTMAX
 10
297.0
 20
210.0
 30
0.0
  9
$PLIMMIN
 10
0.037002778146416
 20
0.0133361937478469
  9
$PLIMMAX
 10
296.9629976511933
 20
209.9866638304666
  9
$UNITMODE
 70
     0
  9
$VISRETAIN
 70
     1
  9
$PLINEGEN
 70
     0
  9
$PSLTSCALE
 70
     1
  9
$TREEDEPTH
 70
  3020
  9
$CMLSTYLE
  2
Standard
  9
$CMLJUST
 70
     0
  9
$CMLSCALE
 40
20.0
  9
$PROXYGRAPHICS
 70
     1
  9
$MEASUREMENT
 70
     1
  9
$CELWEIGHT
370
    -1
  9
$ENDCAPS
280
     0
  9
$JOINSTYLE
280
     0
  9
$LWDISPLAY
290
     0
  9
$INSUNITS
 70
     4
  9
$HYPERLINKBASE
  1

  9
$STYLESHEET
  1

  9
$XEDIT
290
     1
  9
$CEPSNTYPE
380
     0
  9
$PSTYLEMODE
290
     1
  9
$FINGERPRINTGUID
  2
{733C549A-BCB8-4AFB-9693-44D802A4876F}
  9
$VERSIONGUID
  2
{E2E49388-EFAB-4427-B5B2-41BA8C5F3450}
  9
$EXTNAMES
290
     1
  9
$PSVPSCALE
 40
0.0
  9
$OLESTARTUP
290
     0
  0
ENDSEC
  0
SECTION
  2
CLASSES
  0
CLASS
  1
ACDBDICTIONARYWDFLT
  2
AcDbDictionaryWithDefault
  3
ObjectDBX Classes
 90
        0
280
     0
281
     0
  0
CLASS
  1
PLOTSETTINGS
  2
AcDbPlotSettings
  3
ObjectDBX Classes
 90
        0
280
     0
281
     0
  0
CLASS
  1
DICTIONARYVAR
  2
AcDbDictionaryVar
  3
ObjectDBX Classes
 90
        0
280
     0
281
     0
  0
CLASS
  1
TABLESTYLE
  2
AcDbTableStyle
  3
ObjectDBX Classes
 90
     4095
280
     0
281
     0
  0
CLASS
  1
MATERIAL
  2
AcDbMaterial
  3
ObjectDBX Classes
 90
     1024
280
     0
281
     0
  0
CLASS
  1
VISUALSTYLE
  2
AcDbVisualStyle
  3
ObjectDBX Classes
 90
     4095
280
     0
281
     0
  0
CLASS
  1
ACAD_EVALUATION_GRAPH
  2
AcDbEvalGraph
  3
ObjectDBX Classes
 90
    33921
280
     0
281
     0
  0
CLASS
  1
ACAECUSTOBJ
  2
AcAeEditorObj
  3
AcAeEditorObj
 90
    33792
280
     0
281
     0
  0
CLASS
  1
ACDB_DYNAMICBLOCKPURGEPREVENTER_VERSION
  2
AcDbDynamicBlockPurgePreventer
  3
ObjectDBX Classes
 90
    33921
280
     0
281
     0
  0
CLASS
  1
SORTENTSTABLE
  2
AcDbSortentsTable
  3
ObjectDBX Classes
 90
        0
280
     0
281
     0
  0
CLASS
  1
ACDBPLACEHOLDER
  2
AcDbPlaceHolder
  3
ObjectDBX Classes
 90
        0
280
     0
281
     0
  0
CLASS
  1
LAYOUT
  2
AcDbLayout
  3
ObjectDBX Classes
 90
        0
280
     0
281
     0
  0
ENDSEC
  0
SECTION
  2
TABLES
  0
TABLE
  2
VPORT
  5
8
330
0
100
AcDbSymbolTable
 70
     2
  0
VPORT
  5
1B5
330
8
100
AcDbSymbolTableRecord
100
AcDbViewportTableRecord
  2
*Active
 70
     0
 10
0.0
 20
0.0
 11
1.0
 21
1.0
 12
-129.3714997435768
 22
2224.529939394479
 13
0.0
 23
0.0
 14
10.0
 24
10.0
 15
10.0
 25
10.0
 16
0.0
 26
0.0
 36
1.0
 17
0.0
 27
0.0
 37
0.0
 40
393.5090631277076
 41
1.767477203647416
 42
50.0
 43
0.0
 44
0.0
 50
0.0
 51
0.0
 71
     0
 72
  1000
 73
     1
 74
     3
 75
     0
 76
     0
 77
     0
 78
     0
281
     0
 65
     1
110
0.0
120
0.0
130
0.0
111
1.0
121
0.0
131
0.0
112
0.0
122
1.0
132
0.0
 79
     0
146
0.0
  0
VPORT
  5
45A
330
8
100
AcDbSymbolTableRecord
100
AcDbViewportTableRecord
  2
本図
 70
     0
 10
0.0
 20
0.0
 11
1.0
 21
1.0
 12
322.2643325138894
 22
893.4870383816823
 13
0.0
 23
0.0
 14
10.0
 24
10.0
 15
10.0
 25
10.0
 16
0.0
 26
0.0
 36
1.0
 17
0.0
 27
0.0
 37
0.0
 40
349.6006736910367
 41
1.105194805194805
 42
50.0
 43
0.0
 44
0.0
 50
0.0
 51
0.0
 71
     0
 72
  1000
 73
     1
 74
     3
 75
     0
 76
     1
 77
     0
 78
     0
281
     0
 65
     1
110
0.0
120
0.0
130
0.0
111
1.0
121
0.0
131
0.0
112
0.0
122
1.0
132
0.0
 79
     0
146
0.0
  0
ENDTAB
  0
TABLE
  2
LTYPE
  5
5
330
0
100
AcDbSymbolTable
 70
     8
  0
LTYPE
  5
14
330
5
100
AcDbSymbolTableRecord
100
AcDbLinetypeTableRecord
  2
ByBlock
 70
     0
  3

 72
    65
 73
     0
 40
0.0
  0
LTYPE
  5
15
330
5
100
AcDbSymbolTableRecord
100
AcDbLinetypeTableRecord
  2
ByLayer
 70
     0
  3

 72
    65
 73
     0
 40
0.0
  0
LTYPE
  5
16
330
5
100
AcDbSymbolTableRecord
100
AcDbLinetypeTableRecord
  2
Continuous
 70
     0
  3
Solid line
 72
    65
 73
     0
 40
0.0
  0
LTYPE
  5
291
330
5
100
AcDbSymbolTableRecord
100
AcDbLinetypeTableRecord
  2
HIDDEN2
 70
     0
  3
Hidden (.5x) _ _ _ _ _ _ _ _ _ _ _ _ _ _ _ _ _
 72
    65
 73
     2
 40
4.762499999999999
 49
3.174999999999999
 74
     0
 49
-1.587499999999999
 74
     0
  0
LTYPE
  5
4C3
330
5
100
AcDbSymbolTableRecord
100
AcDbLinetypeTableRecord
  2
CENTER2
 70
     0
  3
Center (.5x) ___ _ ___ _ ___ _ ___ _ ___ _ ___
 72
    65
 73
     4
 40
28.575
 49
19.05
 74
     0
 49
-3.174999999999999
 74
     0
 49
3.174999999999999
 74
     0
 49
-3.174999999999999
 74
     0
  0
LTYPE
  5
4C4
330
5
100
AcDbSymbolTableRecord
100
AcDbLinetypeTableRecord
  2
PHANTOM2
 70
     0
  3
Phantom (.5x) ___ _ _ ___ _ _ ___ _ _ ___ _ _
 72
    65
 73
     6
 40
31.75
 49
15.875
 74
     0
 49
-3.174999999999999
 74
     0
 49
3.174999999999999
 74
     0
 49
-3.174999999999999
 74
     0
 49
3.174999999999999
 74
     0
 49
-3.174999999999999
 74
     0
  0
ENDTAB
  0
TABLE
  2
LAYER
  5
2
102
{ACAD_XDICTIONARY
360
18A
102
}
330
0
100
AcDbSymbolTable
 70
    19
  0
LAYER
  5
10
330
2
100
AcDbSymbolTableRecord
100
AcDbLayerTableRecord
  2
0
 70
     0
 62
     7
  6
Continuous
370
    -3
390
F
  0
LAYER
  5
E4
330
2
100
AcDbSymbolTableRecord
100
AcDbLayerTableRecord
  2
Object
 70
     0
 62
     7
  6
Continuous
370
    -3
390
F
  0
LAYER
  5
12C
330
2
100
AcDbSymbolTableRecord
100
AcDbLayerTableRecord
  2
Title Block
 70
     0
 62
     7
  6
Continuous
370
    -3
390
F
  0
LAYER
  5
12D
330
2
100
AcDbSymbolTableRecord
100
AcDbLayerTableRecord
  2
Viewport
 70
     0
 62
     7
  6
Continuous
370
    -3
390
F
  0
LAYER
  5
345
330
2
100
AcDbSymbolTableRecord
100
AcDbLayerTableRecord
  2
作図線
 70
     0
 62
     6
  6
Continuous
290
     0
370
    18
390
F
  0
LAYER
  5
3DA
330
2
100
AcDbSymbolTableRecord
100
AcDbLayerTableRecord
  2
Dims
 70
     0
 62
     6
  6
Continuous
370
    -3
390
F
  0
LAYER
  5
3DB
330
2
100
AcDbSymbolTableRecord
100
AcDbLayerTableRecord
  2
Defpoints
 70
     0
 62
     7
  6
Continuous
290
     0
370
    -3
390
F
  0
LAYER
  5
3DC
330
2
100
AcDbSymbolTableRecord
100
AcDbLayerTableRecord
  2
テキスト
 70
     0
 62
     4
  6
Continuous
370
    -3
390
F
1001
AcAecLayerStandard
1000

1000

  0
LAYER
  5
4C5
330
2
100
AcDbSymbolTableRecord
100
AcDbLayerTableRecord
  2
寸法線
 70
     0
 62
     3
  6
Continuous
370
    18
390
F
  0
LAYER
  5
4C6
330
2
100
AcDbSymbolTableRecord
100
AcDbLayerTableRecord
  2
隠れ線
 70
     0
 62
     5
  6
HIDDEN2
370
    18
390
F
  0
LAYER
  5
4C7
330
2
100
AcDbSymbolTableRecord
100
AcDbLayerTableRecord
  2
中心線
 70
     0
 62
     1
  6
CENTER2
370
    18
390
F
  0
LAYER
  5
4C8
330
2
100
AcDbSymbolTableRecord
100
AcDbLayerTableRecord
  2
太線0.5
 70
     0
 62
     8
  6
Continuous
370
    50
390
F
  0
LAYER
  5
4C9
330
2
100
AcDbSymbolTableRecord
100
AcDbLayerTableRecord
  2
想像線
 70
     0
 62
     5
  6
PHANTOM2
370
    18
390
F
  0
LAYER
  5
4CA
330
2
100
AcDbSymbolTableRecord
100
AcDbLayerTableRecord
  2
一時線
 70
     0
 62
     2
  6
Continuous
290
     0
370
    18
390
F
1001
AcAecLayerStandard
1000

1000

  0
LAYER
  5
4CB
330
2
100
AcDbSymbolTableRecord
100
AcDbLayerTableRecord
  2
切断線
 70
     0
 62
     8
  6
Continuous
370
    25
390
F
1001
AcAecLayerStandard
1000

1000

  0
LAYER
  5
4CC
330
2
100
AcDbSymbolTableRecord
100
AcDbLayerTableRecord
  2
塗潰し
 70
     0
 62
     8
  6
Continuous
370
    18
390
F
1001
AcAecLayerStandard
1000

1000

  0
LAYER
  5
A4A
330
2
100
AcDbSymbolTableRecord
100
AcDbLayerTableRecord
  2
寸法
 70
     0
 62
     3
  6
Continuous
370
    18
390
F
  0
ENDTAB
  0
TABLE
  2
STYLE
  5
3
330
0
100
AcDbSymbolTable
 70
     7
  0
STYLE
  5
11
330
3
100
AcDbSymbolTableRecord
100
AcDbTextStyleTableRecord
  2
Standard
 70
     0
 40
0.0
 41
1.0
 50
0.0
 71
     0
 42
2.5
  3
MS Gothic.ttf
  4

1001
ACAD
1000
MS Gothic
1071
    32817
  0
STYLE
  5
B0
330
3
100
AcDbSymbolTableRecord
100
AcDbTextStyleTableRecord
  2
Roman
 70
     0
 40
0.0
 41
1.0
 50
0.0
 71
     0
 42
5.0
  3
romans.shx
  4
extfont2.shx
  0
STYLE
  5
346
330
3
100
AcDbSymbolTableRecord
100
AcDbTextStyleTableRecord
  2
尺度１／２
 70
     0
 40
0.0
 41
1.0
 50
0.0
 71
     0
 42
8.0
  3
MS Gothic.ttf
  4

1001
ACAD
1000
MS Gothic
1071
    32817
  0
STYLE
  5
68E
330
3
100
AcDbSymbolTableRecord
100
AcDbTextStyleTableRecord
  2
BWH-jdt02
 70
     0
 40
0.0
 41
0.7
 50
0.0
 71
     0
 42
4.752464886293636
  3
SIMSUN.TTF
  4

1001
ACAD
1000
SimSun
1071
    34306
  0
ENDTAB
  0
TABLE
  2
VIEW
  5
6
330
0
100
AcDbSymbolTable
 70
     4
  0
ENDTAB
  0
TABLE
  2
UCS
  5
7
330
0
100
AcDbSymbolTable
 70
     0
  0
ENDTAB
  0
TABLE
  2
APPID
  5
9
330
0
100
AcDbSymbolTable
 70
    10
  0
APPID
  5
12
330
9
100
AcDbSymbolTableRecord
100
AcDbRegAppTableRecord
  2
ACAD
 70
     0
  0
APPID
  5
1B4
330
9
100
AcDbSymbolTableRecord
100
AcDbRegAppTableRecord
  2
ACAD_PSEXT
 70
     0
  0
APPID
  5
27C
330
9
100
AcDbSymbolTableRecord
100
AcDbRegAppTableRecord
  2
ACAUTHENVIRON
 70
     0
  0
APPID
  5
280
330
9
100
AcDbSymbolTableRecord
100
AcDbRegAppTableRecord
  2
AcDbDynamicBlockTrueName
 70
     0
  0
APPID
  5
281
330
9
100
AcDbSymbolTableRecord
100
AcDbRegAppTableRecord
  2
AcDbDynamicBlockGUID
 70
     0
  0
APPID
  5
283
330
9
100
AcDbSymbolTableRecord
100
AcDbRegAppTableRecord
  2
AcDbBlockRepETag
 70
     0
  0
APPID
  5
331
330
9
100
AcDbSymbolTableRecord
100
AcDbRegAppTableRecord
  2
ACAD_EXEMPT_FROM_CAD_STANDARDS
 70
     0
  0
APPID
  5
3DD
330
9
100
AcDbSymbolTableRecord
100
AcDbRegAppTableRecord
  2
AcAecLayerStandard
 70
     0
  0
APPID
  5
692
330
9
100
AcDbSymbolTableRecord
100
AcDbRegAppTableRecord
  2
RAK
 70
     0
  0
ENDTAB
  0
TABLE
  2
DIMSTYLE
  5
A
330
0
100
AcDbSymbolTable
 70
     6
100
AcDbDimStyleTable
 71
     1
340
121
  0
DIMSTYLE
105
121
102
{ACAD_REACTORS
330
E7F
330
E8A
330
FD9
330
FDA
102
}
330
A
100
AcDbSymbolTableRecord
100
AcDbDimStyleTableRecord
  2
JIS
 70
     0
 41
2.5
 42
1.0
 43
7.0
 44
1.0
 73
     0
 74
     0
 77
     1
 78
     8
140
2.5
141
0.0
143
0.0394
147
0.0
172
     1
174
     1
175
     1
340
11
  0
DIMSTYLE
105
292
330
A
100
AcDbSymbolTableRecord
100
AcDbDimStyleTableRecord
  2
ISO-25
 70
     0
 41
2.5
 42
0.625
 43
3.75
 44
1.25
 73
     0
 74
     0
 77
     1
 78
     8
140
2.5
141
2.5
143
0.03937007874016
147
0.625
171
     3
172
     1
271
     2
272
     2
274
     3
278
    44
283
     0
284
     8
340
11
  0
DIMSTYLE
105
347
330
A
100
AcDbSymbolTableRecord
100
AcDbDimStyleTableRecord
  2
JIS１／２
 70
     0
 41
1.5
 42
1.0
 43
7.0
 44
1.0
 73
     0
 74
     0
 77
     1
 78
     8
140
3.0
141
0.0
143
0.0394
147
0.5
172
     1
271
     2
272
     2
340
346
341
33F
342
33F
  0
DIMSTYLE
105
348
330
A
100
AcDbSymbolTableRecord
100
AcDbDimStyleTableRecord
  2
JIS２／１
 70
     0
 41
3.0
 42
1.0
 43
7.0
 44
1.0
 73
     0
 74
     0
 77
     1
 78
     8
140
4.0
141
0.0
143
0.0394
147
1.0
172
     1
271
     2
272
     2
340
11
341
33F
342
33F
  0
ENDTAB
  0
TABLE
  2
BLOCK_RECORD
  5
1
330
0
100
AcDbSymbolTable
 70
    36
  0
BLOCK_RECORD
  5
1F
330
1
100
AcDbSymbolTableRecord
100
AcDbBlockTableRecord
  2
*Model_Space
340
22
  0
BLOCK_RECORD
  5
B15
102
{ACAD_XDICTIONARY
360
B2D
102
}
330
1
100
AcDbSymbolTableRecord
100
AcDbBlockTableRecord
  2
*Paper_Space
340
B12
  0
BLOCK_RECORD
  5
AB
102
{ACAD_XDICTIONARY
360
28E
102
}
330
1
100
AcDbSymbolTableRecord
100
AcDbBlockTableRecord
  2
JIS A4 title block (portrait)
340
0
310
2800000020000000200000000100080000000000000400000000000000000000000000000000000000000000000080000080000000808000800000008000800080800000C0C0C000C0DCC000F0CAA6000020400000206000002080000020A0000020C0000020E00000400000004020000040400000406000004080000040A0
310
000040C0000040E00000600000006020000060400000606000006080000060A0000060C0000060E00000800000008020000080400000806000008080000080A0000080C0000080E00000A0000000A0200000A0400000A0600000A0800000A0A00000A0C00000A0E00000C0000000C0200000C0400000C0600000C0800000C0
310
A00000C0C00000C0E00000E0000000E0200000E0400000E0600000E0800000E0A00000E0C00000E0E00040000000400020004000400040006000400080004000A0004000C0004000E00040200000402020004020400040206000402080004020A0004020C0004020E000404000004040200040404000404060004040800040
310
40A0004040C0004040E00040600000406020004060400040606000406080004060A0004060C0004060E00040800000408020004080400040806000408080004080A0004080C0004080E00040A0000040A0200040A0400040A0600040A0800040A0A00040A0C00040A0E00040C0000040C0200040C0400040C0600040C08000
310
40C0A00040C0C00040C0E00040E0000040E0200040E0400040E0600040E0800040E0A00040E0C00040E0E00080000000800020008000400080006000800080008000A0008000C0008000E00080200000802020008020400080206000802080008020A0008020C0008020E00080400000804020008040400080406000804080
310
008040A0008040C0008040E00080600000806020008060400080606000806080008060A0008060C0008060E00080800000808020008080400080806000808080008080A0008080C0008080E00080A0000080A0200080A0400080A0600080A0800080A0A00080A0C00080A0E00080C0000080C0200080C0400080C0600080C0
310
800080C0A00080C0C00080C0E00080E0000080E0200080E0400080E0600080E0800080E0A00080E0C00080E0E000C0000000C0002000C0004000C0006000C0008000C000A000C000C000C000E000C0200000C0202000C0204000C0206000C0208000C020A000C020C000C020E000C0400000C0402000C0404000C0406000C0
310
408000C040A000C040C000C040E000C0600000C0602000C0604000C0606000C0608000C060A000C060C000C060E000C0800000C0802000C0804000C0806000C0808000C080A000C080C000C080E000C0A00000C0A02000C0A04000C0A06000C0A08000C0A0A000C0A0C000C0A0E000C0C00000C0C02000C0C04000C0C06000
310
C0C08000C0C0A000F0FBFF00A4A0A000808080000000FF0000FF000000FFFF00FF000000FF00FF00FFFF0000FFFFFF00FFFFFFFFFFFFFFFFFFFFFFFFFFFFFFFFFFFFFFFFFFFFFFFFFFFFFFFFFFFFFFFFFFFFFFFFFFFF000000FFFFFFFFFFFFFF00FFFFFFFFFFFFFFFF00FFFFFFFFFFFFFFFFFFFFFFFF000000000000000000
310
0000000000000000000000FFFFFFFFFFFFFFFFFFFFFFFFFFFF00FFFFFF0000000000000000000000000000FFFFFFFFFFFFFFFFFFFFFFFFFFFF00FFFFFF0000000000000000FFFFFFFFFF00FFFFFFFFFFFFFFFFFFFFFFFFFFFF00FFFFFF0000000000000000000000000000FFFFFFFFFFFFFFFFFFFFFFFFFFFF00FFFFFF0000
310
000000000000000000000000FFFFFFFFFFFFFFFFFFFFFFFFFF0000FFFFFFFFFFFFFFFFFFFFFFFFFFFFFFFF00FFFFFFFFFFFFFFFFFFFFFFFFFFFF00FFFFFFFFFFFFFFFFFFFFFFFFFFFFFFFF00FFFFFFFFFFFFFFFFFFFFFFFFFFFF00FFFFFFFFFFFFFFFFFFFFFFFFFFFFFFFF00FFFFFFFFFFFFFFFFFFFFFFFFFFFF00FFFFFFFF
310
FFFFFFFFFFFFFFFFFFFFFFFF00FFFFFFFFFFFFFFFFFFFFFFFFFF0000FFFFFFFFFFFFFFFFFFFFFFFFFFFFFFFF00FFFFFFFFFFFFFFFFFFFFFFFFFFFF00FFFFFFFFFFFFFFFFFFFFFFFFFFFFFFFF00FFFFFFFFFFFFFFFFFFFFFFFFFFFF00FFFFFFFFFFFFFFFFFFFFFFFFFFFFFFFF00FFFFFFFFFFFFFFFFFFFFFFFFFFFF00FFFFFF
310
FFFFFFFFFFFFFFFFFFFFFFFFFF00FFFFFFFFFFFFFFFFFFFFFFFF000000FFFFFFFFFFFFFFFFFFFFFFFFFFFFFFFF00FFFFFFFFFFFFFFFFFFFFFFFFFFFF00FFFFFFFFFFFFFFFFFFFFFFFFFFFFFFFF00FFFFFFFFFFFFFFFFFFFFFFFFFFFF00FFFFFFFFFFFFFFFFFFFFFFFFFFFFFFFF00FFFFFFFFFFFFFFFFFFFFFFFFFFFF00FFFF
310
FFFFFFFFFFFFFFFFFFFFFFFFFFFF00FFFFFFFFFFFFFFFFFFFFFFFFFFFF00FFFFFFFFFFFFFFFFFFFFFFFFFFFFFFFF00FFFFFFFFFFFFFFFFFFFFFFFFFF0000FFFFFFFFFFFFFFFFFFFFFFFFFFFFFFFF00FFFFFFFFFFFFFFFFFFFFFFFFFFFF00FFFFFFFFFFFFFFFFFFFFFFFFFFFFFFFF00FFFFFFFFFFFFFFFFFFFFFFFFFFFF00FF
310
FFFFFFFFFFFFFFFFFFFFFFFFFFFFFF00FFFFFFFFFFFFFFFFFFFFFFFFFFFF00FFFFFFFFFFFFFFFFFFFFFFFFFFFFFFFF00FFFFFFFFFFFFFFFFFFFFFFFFFF0000FFFFFFFFFFFFFFFFFFFFFFFFFFFFFFFF00FFFFFFFFFFFFFFFFFFFFFFFFFFFF00FFFFFFFFFFFFFFFFFFFFFFFFFFFFFFFF00FFFFFFFFFFFFFFFFFFFFFFFFFFFF00
310
00000000000000000000FFFFFFFFFFFF00FFFFFFFFFFFFFFFFFFFFFFFFFFFF0000000000000000000000FFFFFFFFFFFF00FFFFFFFFFFFFFFFFFFFFFFFFFFFF0000000000000000000000FFFFFFFFFFFF00FFFFFFFFFFFFFFFFFFFFFFFF00FF000000000000000000000000000000000000FFFFFFFFFFFFFFFFFFFFFFFF0000
310
00FFFFFFFFFFFFFF00FFFFFFFFFFFFFFFF00FFFFFFFFFFFFFFFFFFFFFFFFFFFFFFFFFFFFFFFFFFFFFFFFFFFFFFFFFFFFFFFFFFFFFFFFFFFF
102
{BLKREFS
331
11A
102
}
1001
AcDbDynamicBlockGUID
1000
{6DB1C6FB-04ED-4989-8D70-427348F3A6A6}
1001
AcDbBlockRepETag
1070
     1
1071
       23
1001
ACAD
1000
DesignCenter Data
1002
{
1070
     1
1070
     4
1002
}
  0
BLOCK_RECORD
  5
33F
330
1
100
AcDbSymbolTableRecord
100
AcDbBlockTableRecord
  2
_Open30
340
0
102
{BLKREFS
331
B59
331
B5A
331
B67
331
B68
331
B40
331
B41
331
B4C
331
B4D
331
C92
331
C93
331
C9B
331
C9C
331
CA5
331
CA6
331
CB0
331
CB1
331
D07
331
D08
331
D14
331
D15
331
CED
331
CEE
331
CF9
331
CFA
331
1013
331
1014
331
101C
331
101D
331
1027
331
1028
331
1031
331
1032
102
}
  0
BLOCK_RECORD
  5
4E7
102
{ACAD_XDICTIONARY
360
4E8
102
}
330
1
100
AcDbSymbolTableRecord
100
AcDbBlockTableRecord
  2
JIS A3 title block
340
0
310
2800000020000000200000000100080000000000000400000000000000000000000000000000000000000000000080000080000000808000800000008000800080800000C0C0C000C0DCC000F0CAA6000020400000206000002080000020A0000020C0000020E00000400000004020000040400000406000004080000040A0
310
000040C0000040E00000600000006020000060400000606000006080000060A0000060C0000060E00000800000008020000080400000806000008080000080A0000080C0000080E00000A0000000A0200000A0400000A0600000A0800000A0A00000A0C00000A0E00000C0000000C0200000C0400000C0600000C0800000C0
310
A00000C0C00000C0E00000E0000000E0200000E0400000E0600000E0800000E0A00000E0C00000E0E00040000000400020004000400040006000400080004000A0004000C0004000E00040200000402020004020400040206000402080004020A0004020C0004020E000404000004040200040404000404060004040800040
310
40A0004040C0004040E00040600000406020004060400040606000406080004060A0004060C0004060E00040800000408020004080400040806000408080004080A0004080C0004080E00040A0000040A0200040A0400040A0600040A0800040A0A00040A0C00040A0E00040C0000040C0200040C0400040C0600040C08000
310
40C0A00040C0C00040C0E00040E0000040E0200040E0400040E0600040E0800040E0A00040E0C00040E0E00080000000800020008000400080006000800080008000A0008000C0008000E00080200000802020008020400080206000802080008020A0008020C0008020E00080400000804020008040400080406000804080
310
008040A0008040C0008040E00080600000806020008060400080606000806080008060A0008060C0008060E00080800000808020008080400080806000808080008080A0008080C0008080E00080A0000080A0200080A0400080A0600080A0800080A0A00080A0C00080A0E00080C0000080C0200080C0400080C0600080C0
310
800080C0A00080C0C00080C0E00080E0000080E0200080E0400080E0600080E0800080E0A00080E0C00080E0E000C0000000C0002000C0004000C0006000C0008000C000A000C000C000C000E000C0200000C0202000C0204000C0206000C0208000C020A000C020C000C020E000C0400000C0402000C0404000C0406000C0
310
408000C040A000C040C000C040E000C0600000C0602000C0604000C0606000C0608000C060A000C060C000C060E000C0800000C0802000C0804000C0806000C0808000C080A000C080C000C080E000C0A00000C0A02000C0A04000C0A06000C0A08000C0A0A000C0A0C000C0A0E000C0C00000C0C02000C0C04000C0C06000
310
C0C08000C0C0A000F0FBFF00A4A0A000808080000000FF0000FF000000FFFF00FF000000FF00FF00FFFF0000FFFFFF00FFFFFFFFFFFFFFFFFFFFFFFFFFFFFFFFFFFFFFFFFFFFFFFFFFFFFFFFFFFFFFFFFFFFFFFFFFFFFFFFFFFFFFFFFFFFFFFFFFFFFFFFFFFFFFFFFFFFFFFFFFFFFFFFFFFFFFFFFFFFFFFFFFFFFFFFFFFFFF
310
FFFFFFFFFFFFFFFFFFFFFFFFFFFFFFFFFFFFFFFFFFFFFFFFFFFFFFFFFFFFFFFFFFFFFFFFFFFFFFFFFFFFFFFFFFFFFFFFFFFFFFFFFFFFFFFFFFFFFFFFFFFFFFFFFFFFFFFFFFFFFFFFFFFFFFFFFFFFFFFFFFFFFFFFFFFFFFFFFFFFFFFFFFFFFFFFFFFFFFFFFFFFFFFFFFFFFFFFFFFFFFFFFFFF00FFFF00000000000000000000
310
000000000000FFFFFFFFFFFF0000FFFF00FFFFFFFF0000000000000000FFFFFFFFFFFFFFFFFFFFFFFFFFFFFFFFFFFFFFFFFFFFFFFF0000000000000000FFFFFFFFFFFFFFFFFFFFFFFFFFFFFFFFFFFF00FFFFFFFFFF00FFFFFFFFFFFFFFFFFFFFFFFFFFFFFFFFFFFFFFFFFFFFFFFFFF00FFFFFFFFFFFFFFFFFFFFFFFFFFFFFF
310
FFFFFFFFFFFFFFFFFFFFFFFFFFFFFFFF00FFFFFFFFFF00FFFFFFFFFFFFFFFFFFFFFFFFFFFFFFFFFFFFFFFFFFFFFFFFFF00FFFFFFFFFF00FFFFFFFFFFFFFFFFFFFFFFFFFFFFFFFFFFFFFFFFFFFFFFFFFF00FFFFFFFFFFFFFFFFFFFFFFFFFFFFFFFFFFFFFFFFFFFFFFFFFFFFFFFFFFFFFF00FFFFFFFFFF00FFFFFFFFFFFFFFFF
310
FFFFFFFFFFFFFFFFFFFFFFFFFFFFFFFFFF00FFFFFFFFFF00FFFFFFFFFFFFFFFFFFFFFFFFFFFFFFFFFFFFFFFFFFFFFFFFFF00FFFFFF000000FFFFFFFFFFFFFFFFFFFFFFFFFFFFFFFFFFFFFFFFFFFFFFFFFF0000FFFFFFFF00FFFFFFFFFFFFFFFFFFFFFFFFFFFFFFFFFFFFFFFFFFFFFFFFFF00FFFFFFFFFF00FFFFFFFFFFFFFF
310
FFFFFFFFFFFFFFFFFFFFFFFFFFFFFFFFFFFF00FFFFFFFFFF00FFFFFFFFFFFFFFFFFFFFFFFFFFFFFFFFFFFFFFFFFFFFFFFFFF00FFFFFFFFFF00FFFFFFFFFFFFFFFFFFFFFFFFFFFFFFFFFFFFFFFFFFFFFFFFFF00FFFFFFFFFF00FFFFFFFFFFFFFFFFFFFFFFFFFFFFFFFFFFFFFFFFFFFFFFFFFF00FFFFFFFFFF00FFFFFFFFFFFF
310
FFFFFFFFFFFFFFFFFFFFFFFFFFFFFFFFFFFFFF00FFFFFFFFFF00FFFFFFFFFFFFFFFFFFFFFFFFFFFFFFFFFFFFFFFFFFFFFFFFFF00FFFFFFFFFF00FFFFFFFFFFFFFFFFFFFFFFFFFFFFFFFFFFFFFFFFFFFFFFFFFF00FFFFFF000000000000000000000000000000000000000000000000000000000000FFFFFFFFFFFFFFFFFFFF
310
FFFFFFFFFFFFFFFFFFFFFFFFFFFFFFFFFFFFFFFFFFFFFFFFFFFFFFFFFFFFFFFFFFFFFFFFFFFFFFFFFFFFFFFFFFFFFFFFFFFFFFFFFFFFFFFFFFFFFFFFFFFFFFFFFFFFFFFFFFFFFFFFFFFFFFFFFFFFFFFFFFFFFFFFFFFFFFFFFFFFFFFFFFFFFFFFFFFFFFFFFFFFFFFFFFFFFFFFFFFFFFFFFFFFFFFFFFFFFFFFFFFFFFFFFFFFFF
310
FFFFFFFFFFFFFFFFFFFFFFFFFFFFFFFFFFFFFFFFFFFFFFFFFFFFFFFFFFFFFFFFFFFFFFFFFFFFFFFFFFFFFFFFFFFFFFFFFFFFFFFFFFFFFFFF
102
{BLKREFS
331
6B2
102
}
1001
AcDbDynamicBlockGUID
1000
{ADD7F6C8-90DF-4B5E-9041-BE536E290B26}
1001
AcDbBlockRepETag
1070
     1
1071
       75
1001
ACAD
1000
DesignCenter Data
1002
{
1070
     1
1070
     4
1002
}
  0
BLOCK_RECORD
  5
6ED
102
{ACAD_XDICTIONARY
360
930
102
}
330
1
100
AcDbSymbolTableRecord
100
AcDbBlockTableRecord
  2
JIS A4 title block (landscape)
340
0
102
{BLKREFS
331
8B6
102
}
1001
AcDbDynamicBlockGUID
1000
{CEEEE382-D703-4645-97A2-E5AB7DAA0D3B}
1001
AcDbBlockRepETag
1070
     1
1071
       77
1001
ACAD
1000
DesignCenter Data
1002
{
1070
     1
1070
     4
1002
}
  0
BLOCK_RECORD
  5
B3B
330
1
100
AcDbSymbolTableRecord
100
AcDbBlockTableRecord
  2
*D18
340
0
  0
BLOCK_RECORD
  5
B47
330
1
100
AcDbSymbolTableRecord
100
AcDbBlockTableRecord
  2
*D19
340
0
  0
BLOCK_RECORD
  5
B53
330
1
100
AcDbSymbolTableRecord
100
AcDbBlockTableRecord
  2
*D20
340
0
  0
BLOCK_RECORD
  5
B60
330
1
100
AcDbSymbolTableRecord
100
AcDbBlockTableRecord
  2
*D21
340
0
  0
BLOCK_RECORD
  5
C5C
330
1
100
AcDbSymbolTableRecord
100
AcDbBlockTableRecord
  2
*D23
340
0
  0
BLOCK_RECORD
  5
C68
330
1
100
AcDbSymbolTableRecord
100
AcDbBlockTableRecord
  2
*D24
340
0
  0
BLOCK_RECORD
  5
C74
330
1
100
AcDbSymbolTableRecord
100
AcDbBlockTableRecord
  2
*D25
340
0
  0
BLOCK_RECORD
  5
C81
330
1
100
AcDbSymbolTableRecord
100
AcDbBlockTableRecord
  2
*D26
340
0
  0
BLOCK_RECORD
  5
CE8
330
1
100
AcDbSymbolTableRecord
100
AcDbBlockTableRecord
  2
*D27
340
0
  0
BLOCK_RECORD
  5
CF4
330
1
100
AcDbSymbolTableRecord
100
AcDbBlockTableRecord
  2
*D28
340
0
  0
BLOCK_RECORD
  5
D00
330
1
100
AcDbSymbolTableRecord
100
AcDbBlockTableRecord
  2
*D29
340
0
  0
BLOCK_RECORD
  5
D0E
330
1
100
AcDbSymbolTableRecord
100
AcDbBlockTableRecord
  2
*D30
340
0
  0
BLOCK_RECORD
  5
FDD
330
1
100
AcDbSymbolTableRecord
100
AcDbBlockTableRecord
  2
*D32
340
0
  0
BLOCK_RECORD
  5
FE9
330
1
100
AcDbSymbolTableRecord
100
AcDbBlockTableRecord
  2
*D33
340
0
  0
BLOCK_RECORD
  5
FF5
330
1
100
AcDbSymbolTableRecord
100
AcDbBlockTableRecord
  2
*D34
340
0
  0
BLOCK_RECORD
  5
1003
330
1
100
AcDbSymbolTableRecord
100
AcDbBlockTableRecord
  2
*D35
340
0
  0
ENDTAB
  0
ENDSEC
  0
SECTION
  2
BLOCKS
  0
BLOCK
  5
20
330
1F
100
AcDbEntity
  8
0
100
AcDbBlockBegin
  2
*Model_Space
 70
     0
 10
0.0
 20
0.0
 30
0.0
  3
*Model_Space
  1

  0
ENDBLK
  5
21
330
1F
100
AcDbEntity
  8
0
100
AcDbBlockEnd
  0
BLOCK
  5
B30
330
B15
100
AcDbEntity
 67
     1
  8
0
100
AcDbBlockBegin
  2
*Paper_Space
 70
     0
 10
0.0
 20
0.0
 30
0.0
  3
*Paper_Space
  1

  0
ENDBLK
  5
B31
330
B15
100
AcDbEntity
 67
     1
  8
0
100
AcDbBlockEnd
  0
BLOCK
  5
116
330
AB
100
AcDbEntity
  8
0
100
AcDbBlockBegin
  2
JIS A4 title block (portrait)
 70
     2
 10
0.0
 20
0.0
 30
0.0
  3
JIS A4 title block (portrait)
  1

  4
JIS A4 title block and attributes (portrait)
  0
LINE
  5
28C
330
AB
100
AcDbEntity
  8
0
100
AcDbLine
 10
0.0
 20
297.0
 30
0.0
 11
25.0
 21
297.0
 31
0.0
1001
AcDbBlockRepETag
1070
     1
1071
        0
1005
28C
  0
LINE
  5
28D
330
AB
100
AcDbEntity
  8
0
100
AcDbLine
 10
0.0
 20
287.0
 30
0.0
 11
0.0
 21
297.0
 31
0.0
1001
AcDbBlockRepETag
1070
     1
1071
        1
1005
28D
  0
LINE
  5
2E7
330
AB
100
AcDbEntity
  8
0
100
AcDbLine
 10
17.5
 20
10.0
 30
0.0
 11
17.5
 21
287.0
 31
0.0
1001
AcDbBlockRepETag
1070
     1
1071
        2
1005
2E7
  0
LINE
  5
2E8
330
AB
100
AcDbEntity
  8
0
100
AcDbLine
 10
192.5
 20
287.0
 30
0.0
 11
192.5
 21
10.0
 31
0.0
1001
AcDbBlockRepETag
1070
     1
1071
        3
1005
2E8
  0
LINE
  5
2E9
330
AB
100
AcDbEntity
  8
0
100
AcDbLine
 10
192.5
 20
10.0
 30
0.0
 11
17.5
 21
10.0
 31
0.0
1001
AcDbBlockRepETag
1070
     1
1071
        4
1005
2E9
  0
LINE
  5
2EA
330
AB
100
AcDbEntity
  8
0
100
AcDbLine
 10
25.0
 20
0.0
 30
0.0
 11
0.0
 21
0.0
 31
0.0
1001
AcDbBlockRepETag
1070
     1
1071
        5
1005
2EA
  0
LINE
  5
2EB
330
AB
100
AcDbEntity
  8
0
100
AcDbLine
 10
0.0
 20
0.0
 30
0.0
 11
0.0
 21
10.0
 31
0.0
1001
AcDbBlockRepETag
1070
     1
1071
        6
1005
2EB
  0
LINE
  5
2EC
330
AB
100
AcDbEntity
  8
0
100
AcDbLine
 10
61.25
 20
10.0
 30
0.0
 11
61.25
 21
5.0
 31
0.0
1001
AcDbBlockRepETag
1070
     1
1071
        7
1005
2EC
  0
LINE
  5
2ED
330
AB
100
AcDbEntity
  8
0
100
AcDbLine
 10
17.5
 20
148.5
 30
0.0
 11
0.0
 21
148.5
 31
0.0
1001
AcDbBlockRepETag
1070
     1
1071
        8
1005
2ED
  0
LINE
  5
2EE
330
AB
100
AcDbEntity
  8
0
100
AcDbLine
 10
17.5
 20
56.16666666666668
 30
0.0
 11
12.5
 21
56.16666666666668
 31
0.0
1001
AcDbBlockRepETag
1070
     1
1071
        9
1005
2EE
  0
LINE
  5
2EF
330
AB
100
AcDbEntity
  8
0
100
AcDbLine
 10
17.5
 20
102.3333333333333
 30
0.0
 11
12.5
 21
102.3333333333333
 31
0.0
1001
AcDbBlockRepETag
1070
     1
1071
       10
1005
2EF
  0
LINE
  5
2F0
330
AB
100
AcDbEntity
  8
0
100
AcDbLine
 10
17.5
 20
148.5
 30
0.0
 11
12.5
 21
148.5
 31
0.0
1001
AcDbBlockRepETag
1070
     1
1071
       11
1005
2F0
  0
LINE
  5
2F1
330
AB
100
AcDbEntity
  8
0
100
AcDbLine
 10
105.0
 20
10.0
 30
0.0
 11
105.0
 21
0.0
 31
0.0
1001
AcDbBlockRepETag
1070
     1
1071
       12
1005
2F1
  0
LINE
  5
2F2
330
AB
100
AcDbEntity
  8
0
100
AcDbLine
 10
210.0
 20
10.0
 30
0.0
 11
210.0
 21
0.0
 31
0.0
1001
AcDbBlockRepETag
1070
     1
1071
       13
1005
2F2
  0
LINE
  5
2F3
330
AB
100
AcDbEntity
  8
0
100
AcDbLine
 10
148.75
 20
10.0
 30
0.0
 11
148.75
 21
5.0
 31
0.0
1001
AcDbBlockRepETag
1070
     1
1071
       14
1005
2F3
  0
LINE
  5
2F4
330
AB
100
AcDbEntity
  8
0
100
AcDbLine
 10
210.0
 20
0.0
 30
0.0
 11
200.0
 21
0.0
 31
0.0
1001
AcDbBlockRepETag
1070
     1
1071
       15
1005
2F4
  0
LINE
  5
2F5
330
AB
100
AcDbEntity
  8
0
100
AcDbLine
 10
192.5
 20
56.16666666666668
 30
0.0
 11
197.5
 21
56.16666666666668
 31
0.0
1001
AcDbBlockRepETag
1070
     1
1071
       16
1005
2F5
  0
LINE
  5
2F6
330
AB
100
AcDbEntity
  8
0
100
AcDbLine
 10
192.5
 20
102.3333333333333
 30
0.0
 11
197.5
 21
102.3333333333333
 31
0.0
1001
AcDbBlockRepETag
1070
     1
1071
       17
1005
2F6
  0
LINE
  5
2F7
330
AB
100
AcDbEntity
  8
0
100
AcDbLine
 10
192.5
 20
148.5
 30
0.0
 11
210.0
 21
148.5
 31
0.0
1001
AcDbBlockRepETag
1070
     1
1071
       18
1005
2F7
  0
LINE
  5
2F8
330
AB
100
AcDbEntity
  8
0
100
AcDbLine
 10
192.5
 20
148.5
 30
0.0
 11
197.5
 21
148.5
 31
0.0
1001
AcDbBlockRepETag
1070
     1
1071
       19
1005
2F8
  0
LINE
  5
2F9
330
AB
100
AcDbEntity
  8
0
100
AcDbLine
 10
17.5
 20
287.0
 30
0.0
 11
192.5
 21
287.0
 31
0.0
1001
AcDbBlockRepETag
1070
     1
1071
       20
1005
2F9
  0
LINE
  5
2FA
330
AB
100
AcDbEntity
  8
0
100
AcDbLine
 10
17.5
 20
194.6666666666666
 30
0.0
 11
12.5
 21
194.6666666666666
 31
0.0
1001
AcDbBlockRepETag
1070
     1
1071
       21
1005
2FA
  0
LINE
  5
2FB
330
AB
100
AcDbEntity
  8
0
100
AcDbLine
 10
17.5
 20
240.8333333333333
 30
0.0
 11
12.5
 21
240.8333333333333
 31
0.0
1001
AcDbBlockRepETag
1070
     1
1071
       22
1005
2FB
  0
LINE
  5
2FC
330
AB
100
AcDbEntity
  8
0
100
AcDbLine
 10
61.25
 20
287.0
 30
0.0
 11
61.25
 21
292.0
 31
0.0
1001
AcDbBlockRepETag
1070
     1
1071
       24
1005
2FC
  0
ATTDEF
  5
2FD
330
AB
100
AcDbEntity
  8
0
 62
     0
380
     1
100
AcDbText
 10
17.5
 20
293.0
 30
0.0
 40
3.0
  1

  7
Roman
100
AcDbAttributeDefinition
  3
Author:
  2
USER
 70
     8
1001
AcDbBlockRepETag
1070
     1
1071
       25
1005
0
  0
LINE
  5
2FE
330
AB
100
AcDbEntity
  8
0
100
AcDbLine
 10
192.5
 20
194.6666666666667
 30
0.0
 11
197.5
 21
194.6666666666667
 31
0.0
1001
AcDbBlockRepETag
1070
     1
1071
       26
1005
2FE
  0
LINE
  5
2FF
330
AB
100
AcDbEntity
  8
0
100
AcDbLine
 10
192.5
 20
240.8333333333334
 30
0.0
 11
197.5
 21
240.8333333333334
 31
0.0
1001
AcDbBlockRepETag
1070
     1
1071
       27
1005
2FF
  0
ATTDEF
  5
300
330
AB
100
AcDbEntity
  8
0
 62
     0
380
     1
100
AcDbText
 10
125.5
 20
293.0
 30
0.0
 40
3.0
  1

  7
Roman
100
AcDbAttributeDefinition
  3
File name:
  2
FNAME
 70
     8
1001
AcDbBlockRepETag
1070
     1
1071
       28
1005
0
  0
LINE
  5
301
330
AB
100
AcDbEntity
  8
0
100
AcDbLine
 10
105.0
 20
287.0
 30
0.0
 11
105.0
 21
297.0
 31
0.0
1001
AcDbBlockRepETag
1070
     1
1071
       29
1005
301
  0
LINE
  5
302
330
AB
100
AcDbEntity
  8
0
100
AcDbLine
 10
105.0
 20
287.0
 30
0.0
 11
105.0
 21
292.0
 31
0.0
1001
AcDbBlockRepETag
1070
     1
1071
       30
1005
302
  0
ATTDEF
  5
303
330
AB
100
AcDbEntity
  8
0
 62
     0
380
     1
100
AcDbText
 10
77.5
 20
293.0
 30
0.0
 40
3.0
  1

  7
Roman
100
AcDbAttributeDefinition
  3
Revision date:
  2
REVDATE
 70
     8
1001
AcDbBlockRepETag
1070
     1
1071
       31
1005
0
  0
LINE
  5
304
330
AB
100
AcDbEntity
  8
0
100
AcDbLine
 10
210.0
 20
297.0
 30
0.0
 11
210.0
 21
287.0
 31
0.0
1001
AcDbBlockRepETag
1070
     1
1071
       32
1005
304
  0
LINE
  5
305
330
AB
100
AcDbEntity
  8
0
100
AcDbLine
 10
148.75
 20
287.0
 30
0.0
 11
148.75
 21
292.0
 31
0.0
1001
AcDbBlockRepETag
1070
     1
1071
       33
1005
305
  0
LINE
  5
306
330
AB
100
AcDbEntity
  8
0
100
AcDbLine
 10
200.0
 20
297.0
 30
0.0
 11
210.0
 21
297.0
 31
0.0
1001
AcDbBlockRepETag
1070
     1
1071
       34
1005
306
  0
TEXT
  5
307
330
AB
100
AcDbEntity
  8
0
100
AcDbText
 10
13.87568307432492
 20
120.75
 30
0.0
 40
3.0
  1
D
  7
Roman
 72
     1
 11
15.4471116457535
 21
120.75
 31
0.0
100
AcDbText
1001
AcDbBlockRepETag
1070
     1
1071
       35
1005
307
  0
TEXT
  5
308
330
AB
100
AcDbEntity
  8
0
100
AcDbText
 10
13.9471116457535
 20
168.25
 30
0.0
 40
3.0
  1
C
  7
Roman
 72
     1
 11
15.4471116457535
 21
168.25
 31
0.0
100
AcDbText
1001
AcDbBlockRepETag
1070
     1
1071
       36
1005
308
  0
TEXT
  5
309
330
AB
100
AcDbEntity
  8
0
100
AcDbText
 10
13.87568307432492
 20
215.75
 30
0.0
 40
3.0
  1
B
  7
Roman
 72
     1
 11
15.4471116457535
 21
215.75
 31
0.0
100
AcDbText
1001
AcDbBlockRepETag
1070
     1
1071
       37
1005
309
  0
TEXT
  5
30A
330
AB
100
AcDbEntity
  8
0
100
AcDbText
 10
14.16139736003921
 20
263.25
 30
0.0
 40
3.0
  1
A
  7
Roman
 72
     1
 11
15.4471116457535
 21
263.25
 31
0.0
100
AcDbText
1001
AcDbBlockRepETag
1070
     1
1071
       38
1005
30A
  0
TEXT
  5
30B
330
AB
100
AcDbEntity
  8
0
100
AcDbText
 10
38.11904761904761
 20
288.0
 30
0.0
 40
3.0
  1
1
  7
Roman
 72
     1
 11
39.33333333333332
 21
288.0
 31
0.0
100
AcDbText
1001
AcDbBlockRepETag
1070
     1
1071
       39
1005
30B
  0
TEXT
  5
30C
330
AB
100
AcDbEntity
  8
0
100
AcDbText
 10
81.57142857142856
 20
288.0
 30
0.0
 40
3.0
  1
2
  7
Roman
 72
     1
 11
83.0
 21
288.0
 31
0.0
100
AcDbText
1001
AcDbBlockRepETag
1070
     1
1071
       40
1005
30C
  0
TEXT
  5
30D
330
AB
100
AcDbEntity
  8
0
100
AcDbText
 10
125.2380952380952
 20
288.0
 30
0.0
 40
3.0
  1
3
  7
Roman
 72
     1
 11
126.6666666666667
 21
288.0
 31
0.0
100
AcDbText
1001
AcDbBlockRepETag
1070
     1
1071
       41
1005
30D
  0
TEXT
  5
30E
330
AB
100
AcDbEntity
  8
0
100
AcDbText
 10
168.8333333333333
 20
288.0
 30
0.0
 40
3.0
  1
4
  7
Roman
 72
     1
 11
170.3333333333333
 21
288.0
 31
0.0
100
AcDbText
1001
AcDbBlockRepETag
1070
     1
1071
       42
1005
30E
  0
TEXT
  5
30F
330
AB
100
AcDbEntity
  8
0
100
AcDbText
 10
13.9471116457535
 20
28.41666666666668
 30
0.0
 40
3.0
  1
F
  7
Roman
 72
     1
 11
15.4471116457535
 21
28.41666666666668
 31
0.0
100
AcDbText
1001
AcDbBlockRepETag
1070
     1
1071
       43
1005
30F
  0
TEXT
  5
310
330
AB
100
AcDbEntity
  8
0
100
AcDbText
 10
13.9471116457535
 20
75.91666666666668
 30
0.0
 40
3.0
  1
E
  7
Roman
 72
     1
 11
15.4471116457535
 21
75.91666666666668
 31
0.0
100
AcDbText
1001
AcDbBlockRepETag
1070
     1
1071
       44
1005
310
  0
LINE
  5
311
330
AB
100
AcDbEntity
  8
0
100
AcDbLine
 10
192.4978723404242
 20
19.0
 30
0.0
 11
75.49787234042418
 21
19.0
 31
0.0
1001
AcDbBlockRepETag
1070
     1
1071
      166
1005
311
  0
LINE
  5
312
330
AB
100
AcDbEntity
  8
0
100
AcDbLine
 10
115.4978723404242
 20
28.0
 30
0.0
 11
75.49787234042418
 21
28.0
 31
0.0
1001
AcDbBlockRepETag
1070
     1
1071
      168
1005
312
  0
LINE
  5
313
330
AB
100
AcDbEntity
  8
0
100
AcDbLine
 10
192.4978723404242
 20
37.0
 30
0.0
 11
75.49787234042418
 21
37.0
 31
0.0
1001
AcDbBlockRepETag
1070
     1
1071
      169
1005
313
  0
LINE
  5
314
330
AB
100
AcDbEntity
  8
0
100
AcDbLine
 10
192.4978723404242
 20
46.0
 30
0.0
 11
75.49787234042418
 21
46.0
 31
0.0
1001
AcDbBlockRepETag
1070
     1
1071
      170
1005
314
  0
MTEXT
  5
315
330
AB
100
AcDbEntity
  8
0
100
AcDbMText
 10
100.9978723404242
 20
14.5
 30
0.0
 40
4.0
 41
51.0
 71
     5
 72
     5
  1
富国石油株式会社
 73
     1
 44
1.0
1001
AcDbBlockRepETag
1070
     1
1071
      171
1005
315
1001
ACAD
1000
MTEXTBEGIN
1070
    73
1070
     1
1070
    44
1040
1.0
1070
    74
1070
     0
1000
MTEXTEND
  0
MTEXT
  5
316
102
{ACAD_XDICTIONARY
360
1046
102
}
330
AB
100
AcDbEntity
  8
0
100
AcDbMText
 10
78.47796344079569
 20
23.5
 30
0.0
 40
2.0
 41
3.960182200742991
 71
     5
 72
     5
  1
検\P図
 73
     1
 44
1.0
1001
AcDbBlockRepETag
1070
     1
1071
      172
1005
316
1001
ACAD
1000
MTEXTBEGIN
1070
    73
1070
     1
1070
    44
1040
1.0
1070
    74
1070
     0
1000
MTEXTEND
1000
ACAD_MTEXT_DEFINED_HEIGHT_BEGIN
1070
    46
1040
9.0
1000
ACAD_MTEXT_DEFINED_HEIGHT_END
  0
MTEXT
  5
317
330
AB
100
AcDbEntity
  8
0
100
AcDbMText
 10
78.47796344079569
 20
32.5
 30
0.0
 40
2.0
 41
3.960182200742991
 71
     5
 72
     5
  1
確\P認
 73
     1
 44
1.0
1001
AcDbBlockRepETag
1070
     1
1071
      173
1005
317
1001
ACAD
1000
MTEXTBEGIN
1070
    73
1070
     1
1070
    44
1040
1.0
1070
    74
1070
     0
1000
MTEXTEND
1000
ACAD_MTEXT_DEFINED_HEIGHT_BEGIN
1070
    46
1040
9.0
1000
ACAD_MTEXT_DEFINED_HEIGHT_END
  0
MTEXT
  5
318
330
AB
100
AcDbEntity
  8
0
100
AcDbMText
 10
78.47796344079569
 20
41.5
 30
0.0
 40
2.0
 41
3.960182200742991
 71
     5
 72
     5
  1
縮\P尺
 73
     1
 44
1.0
1001
AcDbBlockRepETag
1070
     1
1071
      174
1005
318
1001
ACAD
1000
MTEXTBEGIN
1070
    73
1070
     1
1070
    44
1040
1.0
1070
    74
1070
     0
1000
MTEXTEND
1000
ACAD_MTEXT_DEFINED_HEIGHT_BEGIN
1070
    46
1040
9.0
1000
ACAD_MTEXT_DEFINED_HEIGHT_END
  0
LINE
  5
319
330
AB
100
AcDbEntity
  8
0
100
AcDbLine
 10
95.49787234042417
 20
19.0
 30
0.0
 11
95.49787234042417
 21
46.0
 31
0.0
1001
AcDbBlockRepETag
1070
     1
1071
      175
1005
319
  0
LINE
  5
31A
330
AB
100
AcDbEntity
  8
0
100
AcDbLine
 10
115.4978723404242
 20
19.0
 30
0.0
 11
115.4978723404242
 21
46.0
 31
0.0
1001
AcDbBlockRepETag
1070
     1
1071
      176
1005
31A
  0
LINE
  5
31B
330
AB
100
AcDbEntity
  8
0
100
AcDbLine
 10
147.4978723404241
 20
37.0
 30
0.0
 11
147.4978723404241
 21
46.0
 31
0.0
1001
AcDbBlockRepETag
1070
     1
1071
      194
1005
31B
  0
MTEXT
  5
31C
330
AB
100
AcDbEntity
  8
0
100
AcDbMText
 10
98.47796344079569
 20
32.5
 30
0.0
 40
2.0
 41
3.960182200742991
 71
     5
 72
     5
  1
設\P計
 73
     1
 44
1.0
1001
AcDbBlockRepETag
1070
     1
1071
      177
1005
31C
1001
ACAD
1000
MTEXTBEGIN
1070
    73
1070
     1
1070
    44
1040
1.0
1070
    74
1070
     0
1000
MTEXTEND
1000
ACAD_MTEXT_DEFINED_HEIGHT_BEGIN
1070
    46
1040
9.0
1000
ACAD_MTEXT_DEFINED_HEIGHT_END
  0
MTEXT
  5
31D
330
AB
100
AcDbEntity
  8
0
100
AcDbMText
 10
98.47796344079569
 20
23.5
 30
0.0
 40
2.0
 41
3.960182200742991
 71
     5
 72
     5
  1
製\P図
 73
     1
 44
1.0
1001
AcDbBlockRepETag
1070
     1
1071
      178
1005
31D
1001
ACAD
1000
MTEXTBEGIN
1070
    73
1070
     1
1070
    44
1040
1.0
1070
    74
1070
     0
1000
MTEXTEND
1000
ACAD_MTEXT_DEFINED_HEIGHT_BEGIN
1070
    46
1040
9.0
1000
ACAD_MTEXT_DEFINED_HEIGHT_END
  0
MTEXT
  5
31E
330
AB
100
AcDbEntity
  8
0
100
AcDbMText
 10
118.4779634407957
 20
41.5
 30
0.0
 40
2.0
 41
3.960182200742991
 71
     5
 72
     5
  1
材\P料
 73
     1
 44
1.0
1001
AcDbBlockRepETag
1070
     1
1071
      179
1005
31E
1001
ACAD
1000
MTEXTBEGIN
1070
    73
1070
     1
1070
    44
1040
1.0
1070
    74
1070
     0
1000
MTEXTEND
1000
ACAD_MTEXT_DEFINED_HEIGHT_BEGIN
1070
    46
1040
9.0
1000
ACAD_MTEXT_DEFINED_HEIGHT_END
  0
LINE
  5
31F
330
AB
100
AcDbEntity
  8
0
  6
HIDDEN2
 48
0.5
100
AcDbLine
 10
192.4978723404242
 20
32.5
 30
0.0
 11
115.4978723404242
 21
32.5
 31
0.0
1001
AcDbBlockRepETag
1070
     1
1071
      180
1005
31F
  0
POINT
  5
320
330
AB
100
AcDbEntity
  8
0
100
AcDbPoint
 10
101.2478723404242
 20
37.0
 30
0.0
1001
AcDbBlockRepETag
1070
     1
1071
      189
1005
320
  0
POINT
  5
321
330
AB
100
AcDbEntity
  8
0
100
AcDbPoint
 10
101.2478723404242
 20
28.0
 30
0.0
1001
AcDbBlockRepETag
1070
     1
1071
      190
1005
321
  0
MTEXT
  5
322
330
AB
100
AcDbEntity
  8
0
100
AcDbMText
 10
108.3728723404242
 20
23.5
 30
0.0
 40
3.0
 41
14.25
 71
     5
 72
     5
  1
齊藤
 73
     1
 44
1.0
1001
AcDbBlockRepETag
1070
     1
1071
      192
1005
322
1001
ACAD
1000
MTEXTBEGIN
1070
    73
1070
     1
1070
    44
1040
1.0
1070
    74
1070
     0
1000
MTEXTEND
1000
ACAD_MTEXT_DEFINED_HEIGHT_BEGIN
1070
    46
1040
9.0
1000
ACAD_MTEXT_DEFINED_HEIGHT_END
  0
TEXT
  5
323
330
AB
100
AcDbEntity
  8
0
100
AcDbText
 10
38.45238095238097
 20
6.230338100985591
 30
0.0
 40
3.0
  1
1
  7
Roman
 72
     1
 11
39.66666666666668
 21
6.230338100985591
 31
0.0
100
AcDbText
1001
AcDbBlockRepETag
1070
     1
1071
       45
1005
323
  0
TEXT
  5
324
330
AB
100
AcDbEntity
  8
0
100
AcDbText
 10
81.90476190476188
 20
6.230338100985591
 30
0.0
 40
3.0
  1
2
  7
Roman
 72
     1
 11
83.33333333333332
 21
6.230338100985591
 31
0.0
100
AcDbText
1001
AcDbBlockRepETag
1070
     1
1071
       46
1005
324
  0
TEXT
  5
325
330
AB
100
AcDbEntity
  8
0
100
AcDbText
 10
125.5714285714286
 20
6.230338100985591
 30
0.0
 40
3.0
  1
3
  7
Roman
 72
     1
 11
127.0
 21
6.230338100985591
 31
0.0
100
AcDbText
1001
AcDbBlockRepETag
1070
     1
1071
       47
1005
325
  0
TEXT
  5
326
330
AB
100
AcDbEntity
  8
0
100
AcDbText
 10
169.1666666666667
 20
6.230338100985591
 30
0.0
 40
3.0
  1
4
  7
Roman
 72
     1
 11
170.6666666666667
 21
6.230338100985591
 31
0.0
100
AcDbText
1001
AcDbBlockRepETag
1070
     1
1071
       48
1005
326
  0
TEXT
  5
327
330
AB
100
AcDbEntity
  8
0
100
AcDbText
 10
193.2387724536951
 20
33.75
 30
0.0
 40
3.0
  1
F
  7
Roman
 72
     1
 11
194.7387724536952
 21
33.75
 31
0.0
100
AcDbText
1001
AcDbBlockRepETag
1070
     1
1071
       49
1005
327
  0
TEXT
  5
328
330
AB
100
AcDbEntity
  8
0
100
AcDbText
 10
193.2387724536951
 20
81.25
 30
0.0
 40
3.0
  1
E
  7
Roman
 72
     1
 11
194.7387724536952
 21
81.25
 31
0.0
100
AcDbText
1001
AcDbBlockRepETag
1070
     1
1071
       50
1005
328
  0
TEXT
  5
329
330
AB
100
AcDbEntity
  8
0
100
AcDbText
 10
193.1673438822666
 20
221.0833333333333
 30
0.0
 40
3.0
  1
B
  7
Roman
 72
     1
 11
194.7387724536952
 21
221.0833333333333
 31
0.0
100
AcDbText
1001
AcDbBlockRepETag
1070
     1
1071
       51
1005
329
  0
TEXT
  5
32A
330
AB
100
AcDbEntity
  8
0
100
AcDbText
 10
193.4530581679809
 20
268.5833333333333
 30
0.0
 40
3.0
  1
A
  7
Roman
 72
     1
 11
194.7387724536952
 21
268.5833333333333
 31
0.0
100
AcDbText
1001
AcDbBlockRepETag
1070
     1
1071
       52
1005
32A
  0
LINE
  5
32B
330
AB
100
AcDbEntity
  8
0
100
AcDbLine
 10
75.49787234042418
 20
10.0
 30
0.0
 11
75.49787234042418
 21
46.0
 31
0.0
1001
AcDbBlockRepETag
1070
     1
1071
      162
1005
32B
  0
LINE
  5
32C
330
AB
100
AcDbEntity
  8
0
100
AcDbLine
 10
126.4978723404242
 20
10.0
 30
0.0
 11
126.4978723404242
 21
19.0
 31
0.0
1001
AcDbBlockRepETag
1070
     1
1071
      167
1005
32C
  0
TEXT
  5
32D
330
AB
100
AcDbEntity
  8
0
100
AcDbText
 10
193.1673438822666
 20
126.0833333333333
 30
0.0
 40
3.0
  1
D
  7
Roman
 72
     1
 11
194.7387724536952
 21
126.0833333333333
 31
0.0
100
AcDbText
1001
AcDbBlockRepETag
1070
     1
1071
       54
1005
32D
  0
TEXT
  5
32E
330
AB
100
AcDbEntity
  8
0
100
AcDbText
 10
193.2387724536951
 20
173.5833333333333
 30
0.0
 40
3.0
  1
C
  7
Roman
 72
     1
 11
194.7387724536952
 21
173.5833333333333
 31
0.0
100
AcDbText
1001
AcDbBlockRepETag
1070
     1
1071
       53
1005
32E
  0
ENDBLK
  5
117
330
AB
100
AcDbEntity
  8
0
100
AcDbBlockEnd
  0
BLOCK
  5
340
330
33F
100
AcDbEntity
  8
0
100
AcDbBlockBegin
  2
_Open30
 70
     0
 10
0.0
 20
0.0
 30
0.0
  3
_Open30
  1

  0
LINE
  5
341
330
33F
100
AcDbEntity
  8
0
  6
ByBlock
 62
     0
370
    -2
100
AcDbLine
 10
-1.0
 20
0.26794919
 30
0.0
 11
0.0
 21
0.0
 31
0.0
  0
LINE
  5
342
330
33F
100
AcDbEntity
  8
0
  6
ByBlock
 62
     0
370
    -2
100
AcDbLine
 10
0.0
 20
0.0
 30
0.0
 11
-1.0
 21
-0.26794919
 31
0.0
  0
LINE
  5
343
330
33F
100
AcDbEntity
  8
0
  6
ByBlock
 62
     0
370
    -2
100
AcDbLine
 10
0.0
 20
0.0
 30
0.0
 11
-1.0
 21
0.0
 31
0.0
  0
ENDBLK
  5
344
330
33F
100
AcDbEntity
  8
0
100
AcDbBlockEnd
  0
BLOCK
  5
4EA
330
4E7
100
AcDbEntity
  8
0
100
AcDbBlockBegin
  2
JIS A3 title block
 70
     2
 10
0.0
 20
0.0
 30
0.0
  3
JIS A3 title block
  1

  4
JIS A3 title block and attributes
  0
LINE
  5
4EB
330
4E7
100
AcDbEntity
  8
0
100
AcDbLine
 10
402.5
 20
10.0
 30
0.0
 11
17.49999999999999
 21
10.0
 31
0.0
1001
AcDbBlockRepETag
1070
     1
1071
        0
1005
4EB
  0
LINE
  5
4EC
330
4E7
100
AcDbEntity
  8
0
100
AcDbLine
 10
17.5
 20
287.0
 30
0.0
 11
402.5
 21
287.0
 31
0.0
1001
AcDbBlockRepETag
1070
     1
1071
        1
1005
4EC
  0
LINE
  5
4ED
330
4E7
100
AcDbEntity
  8
0
100
AcDbLine
 10
25.0
 20
0.0
 30
0.0
 11
0.0
 21
0.0
 31
0.0
1001
AcDbBlockRepETag
1070
     1
1071
        3
1005
4ED
  0
LINE
  5
4EE
330
4E7
100
AcDbEntity
  8
0
100
AcDbLine
 10
0.0
 20
0.0
 30
0.0
 11
0.0
 21
10.0
 31
0.0
1001
AcDbBlockRepETag
1070
     1
1071
        4
1005
4EE
  0
LINE
  5
4EF
330
4E7
100
AcDbEntity
  8
0
100
AcDbLine
 10
65.625
 20
10.0
 30
0.0
 11
65.625
 21
5.0
 31
0.0
1001
AcDbBlockRepETag
1070
     1
1071
        5
1005
4EF
  0
TEXT
  5
4F0
330
4E7
100
AcDbEntity
  8
0
100
AcDbText
 10
40.34821428571429
 20
6.019997240728748
 30
0.0
 40
3.0
  1
1
  7
Roman
 72
     1
 11
41.5625
 21
6.019997240728748
 31
0.0
100
AcDbText
1001
AcDbBlockRepETag
1070
     1
1071
        6
1005
4F0
  0
ATTDEF
  5
4F1
330
4E7
100
AcDbEntity
  8
0
 62
     0
380
     1
100
AcDbText
 10
11.49999999999999
 20
10.0
 30
0.0
 40
3.0
  1

 50
90.0
  7
Roman
100
AcDbAttributeDefinition
  3
Author:
  2
USER
 70
     8
1001
AcDbBlockRepETag
1070
     1
1071
        7
1005
0
  0
TEXT
  5
4F2
330
4E7
100
AcDbEntity
  8
0
100
AcDbText
 10
13.60716135953389
 20
33.08333333333334
 30
0.0
 40
3.0
  1
F
  7
Roman
 72
     1
 11
15.10716135953388
 21
33.08333333333334
 31
0.0
100
AcDbText
1001
AcDbBlockRepETag
1070
     1
1071
        8
1005
4F2
  0
LINE
  5
4F3
330
4E7
100
AcDbEntity
  8
0
100
AcDbLine
 10
17.49999999999999
 20
148.5
 30
0.0
 11
0.0
 21
148.5
 31
0.0
1001
AcDbBlockRepETag
1070
     1
1071
        9
1005
4F3
  0
ATTDEF
  5
4F4
330
4E7
100
AcDbEntity
  8
0
 62
     0
380
     1
100
AcDbText
 10
11.49999999999999
 20
70.0
 30
0.0
 40
3.0
  1

 50
90.0
  7
Roman
100
AcDbAttributeDefinition
  3
Revision date:
  2
REVDATE
 70
     8
1001
AcDbBlockRepETag
1070
     1
1071
       10
1005
0
  0
LINE
  5
4F5
330
4E7
100
AcDbEntity
  8
0
100
AcDbLine
 10
17.49999999999999
 20
56.16666666666667
 30
0.0
 11
12.49999999999999
 21
56.16666666666667
 31
0.0
1001
AcDbBlockRepETag
1070
     1
1071
       11
1005
4F5
  0
TEXT
  5
4F6
330
4E7
100
AcDbEntity
  8
0
100
AcDbText
 10
13.60716135953389
 20
79.25
 30
0.0
 40
3.0
  1
E
  7
Roman
 72
     1
 11
15.10716135953388
 21
79.25
 31
0.0
100
AcDbText
1001
AcDbBlockRepETag
1070
     1
1071
       12
1005
4F6
  0
ATTDEF
  5
4F7
330
4E7
100
AcDbEntity
  8
0
 62
     0
380
     1
100
AcDbText
 10
11.49999999999999
 20
118.0
 30
0.0
 40
3.0
  1

 50
90.0
  7
Roman
100
AcDbAttributeDefinition
  3
File name:
  2
FNAME
 70
     8
1001
AcDbBlockRepETag
1070
     1
1071
       13
1005
0
  0
LINE
  5
4F8
330
4E7
100
AcDbEntity
  8
0
100
AcDbLine
 10
17.49999999999999
 20
102.3333333333333
 30
0.0
 11
12.49999999999999
 21
102.3333333333333
 31
0.0
1001
AcDbBlockRepETag
1070
     1
1071
       14
1005
4F8
  0
TEXT
  5
4F9
330
4E7
100
AcDbEntity
  8
0
100
AcDbText
 10
13.53573278810531
 20
125.4166666666666
 30
0.0
 40
3.0
  1
D
  7
Roman
 72
     1
 11
15.10716135953388
 21
125.4166666666666
 31
0.0
100
AcDbText
1001
AcDbBlockRepETag
1070
     1
1071
       15
1005
4F9
  0
LINE
  5
4FA
330
4E7
100
AcDbEntity
  8
0
100
AcDbLine
 10
17.49999999999999
 20
148.5
 30
0.0
 11
12.49999999999999
 21
148.5
 31
0.0
1001
AcDbBlockRepETag
1070
     1
1071
       16
1005
4FA
  0
TEXT
  5
4FB
330
4E7
100
AcDbEntity
  8
0
100
AcDbText
 10
136.3839285714286
 20
6.019997240728748
 30
0.0
 40
3.0
  1
3
  7
Roman
 72
     1
 11
137.8125
 21
6.019997240728748
 31
0.0
100
AcDbText
1001
AcDbBlockRepETag
1070
     1
1071
       17
1005
4FB
  0
LINE
  5
4FC
330
4E7
100
AcDbEntity
  8
0
100
AcDbLine
 10
113.75
 20
10.0
 30
0.0
 11
113.75
 21
5.0
 31
0.0
1001
AcDbBlockRepETag
1070
     1
1071
       18
1005
4FC
  0
TEXT
  5
4FD
330
4E7
100
AcDbEntity
  8
0
100
AcDbText
 10
88.25892857142857
 20
6.019997240728748
 30
0.0
 40
3.0
  1
2
  7
Roman
 72
     1
 11
89.6875
 21
6.019997240728748
 31
0.0
100
AcDbText
1001
AcDbBlockRepETag
1070
     1
1071
       19
1005
4FD
  0
LINE
  5
4FE
330
4E7
100
AcDbEntity
  8
0
100
AcDbLine
 10
161.875
 20
10.0
 30
0.0
 11
161.875
 21
5.0
 31
0.0
1001
AcDbBlockRepETag
1070
     1
1071
       20
1005
4FE
  0
TEXT
  5
4FF
330
4E7
100
AcDbEntity
  8
0
100
AcDbText
 10
184.4375
 20
6.019997240728748
 30
0.0
 40
3.0
  1
4
  7
Roman
 72
     1
 11
185.9375
 21
6.019997240728748
 31
0.0
100
AcDbText
1001
AcDbBlockRepETag
1070
     1
1071
       21
1005
4FF
  0
TEXT
  5
500
330
4E7
100
AcDbEntity
  8
0
100
AcDbText
 10
13.60716135953389
 20
171.5833333333333
 30
0.0
 40
3.0
  1
C
  7
Roman
 72
     1
 11
15.10716135953388
 21
171.5833333333333
 31
0.0
100
AcDbText
1001
AcDbBlockRepETag
1070
     1
1071
       22
1005
500
  0
LINE
  5
501
330
4E7
100
AcDbEntity
  8
0
100
AcDbLine
 10
17.49999999999999
 20
194.6666666666666
 30
0.0
 11
12.49999999999999
 21
194.6666666666666
 31
0.0
1001
AcDbBlockRepETag
1070
     1
1071
       23
1005
501
  0
TEXT
  5
502
330
4E7
100
AcDbEntity
  8
0
100
AcDbText
 10
13.53573278810531
 20
217.75
 30
0.0
 40
3.0
  1
B
  7
Roman
 72
     1
 11
15.10716135953388
 21
217.75
 31
0.0
100
AcDbText
1001
AcDbBlockRepETag
1070
     1
1071
       24
1005
502
  0
LINE
  5
503
330
4E7
100
AcDbEntity
  8
0
100
AcDbLine
 10
17.49999999999999
 20
240.8333333333333
 30
0.0
 11
12.49999999999999
 21
240.8333333333333
 31
0.0
1001
AcDbBlockRepETag
1070
     1
1071
       25
1005
503
  0
LINE
  5
504
330
4E7
100
AcDbEntity
  8
0
100
AcDbLine
 10
0.0
 20
297.0
 30
0.0
 11
25.0
 21
297.0
 31
0.0
1001
AcDbBlockRepETag
1070
     1
1071
       26
1005
504
  0
LINE
  5
505
330
4E7
100
AcDbEntity
  8
0
100
AcDbLine
 10
0.0
 20
287.0
 30
0.0
 11
0.0
 21
297.0
 31
0.0
1001
AcDbBlockRepETag
1070
     1
1071
       27
1005
505
  0
LINE
  5
506
330
4E7
100
AcDbEntity
  8
0
100
AcDbLine
 10
65.625
 20
287.0
 30
0.0
 11
65.625
 21
292.0
 31
0.0
1001
AcDbBlockRepETag
1070
     1
1071
       28
1005
506
  0
TEXT
  5
507
330
4E7
100
AcDbEntity
  8
0
100
AcDbText
 10
13.8214470738196
 20
263.9166666666666
 30
0.0
 40
3.0
  1
A
  7
Roman
 72
     1
 11
15.10716135953388
 21
263.9166666666666
 31
0.0
100
AcDbText
1001
AcDbBlockRepETag
1070
     1
1071
       29
1005
507
  0
TEXT
  5
508
330
4E7
100
AcDbEntity
  8
0
100
AcDbText
 10
40.34821428571429
 20
288.0
 30
0.0
 40
3.0
  1
1
  7
Roman
 72
     1
 11
41.5625
 21
288.0
 31
0.0
100
AcDbText
1001
AcDbBlockRepETag
1070
     1
1071
       30
1005
508
  0
TEXT
  5
509
330
4E7
100
AcDbEntity
  8
0
100
AcDbText
 10
136.3839285714286
 20
288.0
 30
0.0
 40
3.0
  1
3
  7
Roman
 72
     1
 11
137.8125
 21
288.0
 31
0.0
100
AcDbText
1001
AcDbBlockRepETag
1070
     1
1071
       31
1005
509
  0
LINE
  5
50A
330
4E7
100
AcDbEntity
  8
0
100
AcDbLine
 10
113.75
 20
287.0
 30
0.0
 11
113.75
 21
292.0
 31
0.0
1001
AcDbBlockRepETag
1070
     1
1071
       32
1005
50A
  0
TEXT
  5
50B
330
4E7
100
AcDbEntity
  8
0
100
AcDbText
 10
88.25892857142857
 20
288.0
 30
0.0
 40
3.0
  1
2
  7
Roman
 72
     1
 11
89.6875
 21
288.0
 31
0.0
100
AcDbText
1001
AcDbBlockRepETag
1070
     1
1071
       33
1005
50B
  0
LINE
  5
50C
330
4E7
100
AcDbEntity
  8
0
100
AcDbLine
 10
161.875
 20
287.0
 30
0.0
 11
161.875
 21
292.0
 31
0.0
1001
AcDbBlockRepETag
1070
     1
1071
       34
1005
50C
  0
TEXT
  5
50D
330
4E7
100
AcDbEntity
  8
0
100
AcDbText
 10
184.4375
 20
288.0
 30
0.0
 40
3.0
  1
4
  7
Roman
 72
     1
 11
185.9375
 21
288.0
 31
0.0
100
AcDbText
1001
AcDbBlockRepETag
1070
     1
1071
       35
1005
50D
  0
LINE
  5
50E
330
4E7
100
AcDbEntity
  8
0
100
AcDbLine
 10
402.5
 20
287.0
 30
0.0
 11
402.5
 21
10.0
 31
0.0
1001
AcDbBlockRepETag
1070
     1
1071
       36
1005
50E
  0
LINE
  5
50F
330
4E7
100
AcDbEntity
  8
0
100
AcDbLine
 10
210.0
 20
10.0
 30
0.0
 11
210.0
 21
0.0
 31
0.0
1001
AcDbBlockRepETag
1070
     1
1071
       37
1005
50F
  0
LINE
  5
510
330
4E7
100
AcDbEntity
  8
0
100
AcDbLine
 10
258.125
 20
10.0
 30
0.0
 11
258.125
 21
5.0
 31
0.0
1001
AcDbBlockRepETag
1070
     1
1071
       39
1005
510
  0
TEXT
  5
511
330
4E7
100
AcDbEntity
  8
0
100
AcDbText
 10
232.6339285714286
 20
6.019997240728748
 30
0.0
 40
3.0
  1
5
  7
Roman
 72
     1
 11
234.0625
 21
6.019997240728748
 31
0.0
100
AcDbText
1001
AcDbBlockRepETag
1070
     1
1071
       40
1005
511
  0
LINE
  5
512
330
4E7
100
AcDbEntity
  8
0
100
AcDbLine
 10
306.25
 20
10.0
 30
0.0
 11
306.25
 21
5.0
 31
0.0
1001
AcDbBlockRepETag
1070
     1
1071
       41
1005
512
  0
TEXT
  5
513
330
4E7
100
AcDbEntity
  8
0
100
AcDbText
 10
280.6875
 20
6.019997240728748
 30
0.0
 40
3.0
  1
6
  7
Roman
 72
     1
 11
282.1875
 21
6.019997240728748
 31
0.0
100
AcDbText
1001
AcDbBlockRepETag
1070
     1
1071
       42
1005
513
  0
TEXT
  5
514
330
4E7
100
AcDbEntity
  8
0
100
AcDbText
 10
328.8839285714285
 20
6.019997240728748
 30
0.0
 40
3.0
  1
7
  7
Roman
 72
     1
 11
330.3125
 21
6.019997240728748
 31
0.0
100
AcDbText
1001
AcDbBlockRepETag
1070
     1
1071
       43
1005
514
  0
LINE
  5
515
330
4E7
100
AcDbEntity
  8
0
100
AcDbLine
 10
354.375
 20
10.0
 30
0.0
 11
354.375
 21
5.0
 31
0.0
1001
AcDbBlockRepETag
1070
     1
1071
       44
1005
515
  0
TEXT
  5
516
330
4E7
100
AcDbEntity
  8
0
100
AcDbText
 10
377.0089285714286
 20
6.019997240728748
 30
0.0
 40
3.0
  1
8
  7
Roman
 72
     1
 11
378.4375
 21
6.019997240728748
 31
0.0
100
AcDbText
1001
AcDbBlockRepETag
1070
     1
1071
       45
1005
516
  0
LINE
  5
517
330
4E7
100
AcDbEntity
  8
0
100
AcDbLine
 10
420.0
 20
10.0
 30
0.0
 11
420.0
 21
0.0
 31
0.0
1001
AcDbBlockRepETag
1070
     1
1071
       46
1005
517
  0
LINE
  5
518
330
4E7
100
AcDbEntity
  8
0
100
AcDbLine
 10
420.0
 20
0.0
 30
0.0
 11
410.0
 21
0.0
 31
0.0
1001
AcDbBlockRepETag
1070
     1
1071
       47
1005
518
  0
LINE
  5
519
330
4E7
100
AcDbEntity
  8
0
 62
     0
380
     1
100
AcDbLine
 10
402.5
 20
49.00000000000036
 30
0.0
 11
402.5
 21
10.0
 31
0.0
1001
AcDbBlockRepETag
1070
     1
1071
       48
1005
519
  0
LINE
  5
51A
330
4E7
100
AcDbEntity
  8
0
 62
     0
380
     1
100
AcDbLine
 10
402.5
 20
10.0
 30
0.0
 11
402.5
 21
49.00000000000036
 31
0.0
1001
AcDbBlockRepETag
1070
     1
1071
       49
1005
51A
  0
TEXT
  5
51B
330
4E7
100
AcDbEntity
  8
0
100
AcDbText
 10
403.8708251683468
 20
33.08333333333334
 30
0.0
 40
3.0
  1
F
  7
Roman
 72
     1
 11
405.3708251683468
 21
33.08333333333334
 31
0.0
100
AcDbText
1001
AcDbBlockRepETag
1070
     1
1071
       50
1005
51B
  0
LINE
  5
51C
330
4E7
100
AcDbEntity
  8
0
100
AcDbLine
 10
402.5
 20
56.16666666666668
 30
0.0
 11
407.5
 21
56.16666666666668
 31
0.0
1001
AcDbBlockRepETag
1070
     1
1071
       51
1005
51C
  0
TEXT
  5
51D
330
4E7
100
AcDbEntity
  8
0
100
AcDbText
 10
403.8708251683468
 20
79.25
 30
0.0
 40
3.0
  1
E
  7
Roman
 72
     1
 11
405.3708251683468
 21
79.25
 31
0.0
100
AcDbText
1001
AcDbBlockRepETag
1070
     1
1071
       52
1005
51D
  0
LINE
  5
51E
330
4E7
100
AcDbEntity
  8
0
100
AcDbLine
 10
402.5
 20
102.3333333333333
 30
0.0
 11
407.5
 21
102.3333333333333
 31
0.0
1001
AcDbBlockRepETag
1070
     1
1071
       53
1005
51E
  0
TEXT
  5
51F
330
4E7
100
AcDbEntity
  8
0
100
AcDbText
 10
403.7993965969183
 20
125.4166666666666
 30
0.0
 40
3.0
  1
D
  7
Roman
 72
     1
 11
405.3708251683468
 21
125.4166666666666
 31
0.0
100
AcDbText
1001
AcDbBlockRepETag
1070
     1
1071
       54
1005
51F
  0
LINE
  5
520
330
4E7
100
AcDbEntity
  8
0
100
AcDbLine
 10
402.5
 20
148.5
 30
0.0
 11
420.0
 21
148.5
 31
0.0
1001
AcDbBlockRepETag
1070
     1
1071
       56
1005
520
  0
LINE
  5
521
330
4E7
100
AcDbEntity
  8
0
100
AcDbLine
 10
210.0
 20
287.0
 30
0.0
 11
210.0
 21
297.0
 31
0.0
1001
AcDbBlockRepETag
1070
     1
1071
       57
1005
521
  0
LINE
  5
522
330
4E7
100
AcDbEntity
  8
0
100
AcDbLine
 10
258.125
 20
287.0
 30
0.0
 11
258.125
 21
292.0
 31
0.0
1001
AcDbBlockRepETag
1070
     1
1071
       58
1005
522
  0
LINE
  5
523
330
4E7
100
AcDbEntity
  8
0
100
AcDbLine
 10
210.0
 20
287.0
 30
0.0
 11
210.0
 21
292.0
 31
0.0
1001
AcDbBlockRepETag
1070
     1
1071
       59
1005
523
  0
TEXT
  5
524
330
4E7
100
AcDbEntity
  8
0
100
AcDbText
 10
232.6339285714286
 20
288.0
 30
0.0
 40
3.0
  1
5
  7
Roman
 72
     1
 11
234.0625
 21
288.0
 31
0.0
100
AcDbText
1001
AcDbBlockRepETag
1070
     1
1071
       60
1005
524
  0
LINE
  5
525
330
4E7
100
AcDbEntity
  8
0
100
AcDbLine
 10
306.25
 20
287.0
 30
0.0
 11
306.25
 21
292.0
 31
0.0
1001
AcDbBlockRepETag
1070
     1
1071
       61
1005
525
  0
TEXT
  5
526
330
4E7
100
AcDbEntity
  8
0
100
AcDbText
 10
280.6875
 20
288.0
 30
0.0
 40
3.0
  1
6
  7
Roman
 72
     1
 11
282.1875
 21
288.0
 31
0.0
100
AcDbText
1001
AcDbBlockRepETag
1070
     1
1071
       62
1005
526
  0
TEXT
  5
527
330
4E7
100
AcDbEntity
  8
0
100
AcDbText
 10
328.8839285714285
 20
288.0
 30
0.0
 40
3.0
  1
7
  7
Roman
 72
     1
 11
330.3125
 21
288.0
 31
0.0
100
AcDbText
1001
AcDbBlockRepETag
1070
     1
1071
       63
1005
527
  0
TEXT
  5
528
330
4E7
100
AcDbEntity
  8
0
100
AcDbText
 10
403.8708251683468
 20
171.5833333333333
 30
0.0
 40
3.0
  1
C
  7
Roman
 72
     1
 11
405.3708251683468
 21
171.5833333333333
 31
0.0
100
AcDbText
1001
AcDbBlockRepETag
1070
     1
1071
       64
1005
528
  0
LINE
  5
529
330
4E7
100
AcDbEntity
  8
0
100
AcDbLine
 10
402.5
 20
194.6666666666667
 30
0.0
 11
407.5
 21
194.6666666666667
 31
0.0
1001
AcDbBlockRepETag
1070
     1
1071
       65
1005
529
  0
TEXT
  5
52A
330
4E7
100
AcDbEntity
  8
0
100
AcDbText
 10
403.7993965969183
 20
217.75
 30
0.0
 40
3.0
  1
B
  7
Roman
 72
     1
 11
405.3708251683468
 21
217.75
 31
0.0
100
AcDbText
1001
AcDbBlockRepETag
1070
     1
1071
       66
1005
52A
  0
LINE
  5
52B
330
4E7
100
AcDbEntity
  8
0
100
AcDbLine
 10
402.5
 20
240.8333333333334
 30
0.0
 11
407.5
 21
240.8333333333334
 31
0.0
1001
AcDbBlockRepETag
1070
     1
1071
       67
1005
52B
  0
LINE
  5
52C
330
4E7
100
AcDbEntity
  8
0
100
AcDbLine
 10
354.375
 20
287.0
 30
0.0
 11
354.375
 21
292.0
 31
0.0
1001
AcDbBlockRepETag
1070
     1
1071
       68
1005
52C
  0
TEXT
  5
52D
330
4E7
100
AcDbEntity
  8
0
100
AcDbText
 10
377.0089285714286
 20
288.0
 30
0.0
 40
3.0
  1
8
  7
Roman
 72
     1
 11
378.4375
 21
288.0
 31
0.0
100
AcDbText
1001
AcDbBlockRepETag
1070
     1
1071
       69
1005
52D
  0
LINE
  5
52E
330
4E7
100
AcDbEntity
  8
0
100
AcDbLine
 10
420.0
 20
297.0
 30
0.0
 11
420.0
 21
287.0
 31
0.0
1001
AcDbBlockRepETag
1070
     1
1071
       70
1005
52E
  0
TEXT
  5
52F
330
4E7
100
AcDbEntity
  8
0
100
AcDbText
 10
404.0851108826325
 20
263.9166666666666
 30
0.0
 40
3.0
  1
A
  7
Roman
 72
     1
 11
405.3708251683468
 21
263.9166666666666
 31
0.0
100
AcDbText
1001
AcDbBlockRepETag
1070
     1
1071
       71
1005
52F
  0
LINE
  5
530
330
4E7
100
AcDbEntity
  8
0
100
AcDbLine
 10
410.0
 20
297.0
 30
0.0
 11
420.0
 21
297.0
 31
0.0
1001
AcDbBlockRepETag
1070
     1
1071
       72
1005
530
  0
LINE
  5
531
330
4E7
100
AcDbEntity
  8
0
100
AcDbLine
 10
286.4978723404242
 20
10.0
 30
0.0
 11
286.4978723404242
 21
10.0
 31
0.0
1001
AcDbBlockRepETag
1070
     1
1071
      161
1005
531
  0
LINE
  5
532
330
4E7
100
AcDbEntity
  8
0
100
AcDbLine
 10
285.4978723404242
 20
10.0
 30
0.0
 11
285.4978723404242
 21
46.0
 31
0.0
1001
AcDbBlockRepETag
1070
     1
1071
      162
1005
532
  0
LINE
  5
533
330
4E7
100
AcDbEntity
  8
0
100
AcDbLine
 10
402.4978723404242
 20
19.0
 30
0.0
 11
285.4978723404242
 21
19.0
 31
0.0
1001
AcDbBlockRepETag
1070
     1
1071
      166
1005
533
  0
LINE
  5
534
330
4E7
100
AcDbEntity
  8
0
100
AcDbLine
 10
336.4978723404242
 20
10.0
 30
0.0
 11
336.4978723404242
 21
19.0
 31
0.0
1001
AcDbBlockRepETag
1070
     1
1071
      167
1005
534
  0
LINE
  5
535
330
4E7
100
AcDbEntity
  8
0
100
AcDbLine
 10
325.4978723404242
 20
28.0
 30
0.0
 11
285.4978723404242
 21
28.0
 31
0.0
1001
AcDbBlockRepETag
1070
     1
1071
      168
1005
535
  0
LINE
  5
536
330
4E7
100
AcDbEntity
  8
0
100
AcDbLine
 10
402.4978723404242
 20
37.0
 30
0.0
 11
285.4978723404242
 21
37.0
 31
0.0
1001
AcDbBlockRepETag
1070
     1
1071
      169
1005
536
  0
LINE
  5
537
330
4E7
100
AcDbEntity
  8
0
100
AcDbLine
 10
402.4978723404242
 20
46.0
 30
0.0
 11
285.4978723404242
 21
46.0
 31
0.0
1001
AcDbBlockRepETag
1070
     1
1071
      170
1005
537
  0
MTEXT
  5
538
330
4E7
100
AcDbEntity
  8
0
100
AcDbMText
 10
310.9978723404242
 20
14.5
 30
0.0
 40
4.0
 41
51.0
 71
     5
 72
     5
  1
富国石油株式会社
 73
     1
 44
1.0
1001
AcDbBlockRepETag
1070
     1
1071
      171
1005
538
1001
ACAD
1000
MTEXTBEGIN
1070
    73
1070
     1
1070
    44
1040
1.0
1070
    74
1070
     0
1000
MTEXTEND
  0
MTEXT
  5
539
102
{ACAD_XDICTIONARY
360
104A
102
}
330
4E7
100
AcDbEntity
  8
0
100
AcDbMText
 10
288.4779634407957
 20
23.5
 30
0.0
 40
2.0
 41
3.960182200742991
 71
     5
 72
     5
  1
検\P図
 73
     1
 44
1.0
1001
AcDbBlockRepETag
1070
     1
1071
      172
1005
539
1001
ACAD
1000
MTEXTBEGIN
1070
    73
1070
     1
1070
    44
1040
1.0
1070
    74
1070
     0
1000
MTEXTEND
1000
ACAD_MTEXT_DEFINED_HEIGHT_BEGIN
1070
    46
1040
9.0
1000
ACAD_MTEXT_DEFINED_HEIGHT_END
  0
MTEXT
  5
53A
330
4E7
100
AcDbEntity
  8
0
100
AcDbMText
 10
288.4779634407957
 20
32.5
 30
0.0
 40
2.0
 41
3.960182200742991
 71
     5
 72
     5
  1
確\P認
 73
     1
 44
1.0
1001
AcDbBlockRepETag
1070
     1
1071
      173
1005
53A
1001
ACAD
1000
MTEXTBEGIN
1070
    73
1070
     1
1070
    44
1040
1.0
1070
    74
1070
     0
1000
MTEXTEND
1000
ACAD_MTEXT_DEFINED_HEIGHT_BEGIN
1070
    46
1040
9.0
1000
ACAD_MTEXT_DEFINED_HEIGHT_END
  0
MTEXT
  5
53B
330
4E7
100
AcDbEntity
  8
0
100
AcDbMText
 10
288.4779634407957
 20
41.5
 30
0.0
 40
2.0
 41
3.960182200742991
 71
     5
 72
     5
  1
縮\P尺
 73
     1
 44
1.0
1001
AcDbBlockRepETag
1070
     1
1071
      174
1005
53B
1001
ACAD
1000
MTEXTBEGIN
1070
    73
1070
     1
1070
    44
1040
1.0
1070
    74
1070
     0
1000
MTEXTEND
1000
ACAD_MTEXT_DEFINED_HEIGHT_BEGIN
1070
    46
1040
9.0
1000
ACAD_MTEXT_DEFINED_HEIGHT_END
  0
LINE
  5
53C
330
4E7
100
AcDbEntity
  8
0
100
AcDbLine
 10
305.4978723404242
 20
19.0
 30
0.0
 11
305.4978723404242
 21
46.0
 31
0.0
1001
AcDbBlockRepETag
1070
     1
1071
      175
1005
53C
  0
LINE
  5
53D
330
4E7
100
AcDbEntity
  8
0
100
AcDbLine
 10
325.4978723404242
 20
19.0
 30
0.0
 11
325.4978723404242
 21
46.0
 31
0.0
1001
AcDbBlockRepETag
1070
     1
1071
      176
1005
53D
  0
LINE
  5
53E
330
4E7
100
AcDbEntity
  8
0
100
AcDbLine
 10
357.4978723404242
 20
37.0
 30
0.0
 11
357.4978723404242
 21
46.0
 31
0.0
1001
AcDbBlockRepETag
1070
     1
1071
      194
1005
53E
  0
MTEXT
  5
53F
330
4E7
100
AcDbEntity
  8
0
100
AcDbMText
 10
308.4779634407957
 20
32.5
 30
0.0
 40
2.0
 41
3.960182200742991
 71
     5
 72
     5
  1
設\P計
 73
     1
 44
1.0
1001
AcDbBlockRepETag
1070
     1
1071
      177
1005
53F
1001
ACAD
1000
MTEXTBEGIN
1070
    73
1070
     1
1070
    44
1040
1.0
1070
    74
1070
     0
1000
MTEXTEND
1000
ACAD_MTEXT_DEFINED_HEIGHT_BEGIN
1070
    46
1040
9.0
1000
ACAD_MTEXT_DEFINED_HEIGHT_END
  0
MTEXT
  5
540
330
4E7
100
AcDbEntity
  8
0
100
AcDbMText
 10
308.4779634407957
 20
23.5
 30
0.0
 40
2.0
 41
3.960182200742991
 71
     5
 72
     5
  1
製\P図
 73
     1
 44
1.0
1001
AcDbBlockRepETag
1070
     1
1071
      178
1005
540
1001
ACAD
1000
MTEXTBEGIN
1070
    73
1070
     1
1070
    44
1040
1.0
1070
    74
1070
     0
1000
MTEXTEND
1000
ACAD_MTEXT_DEFINED_HEIGHT_BEGIN
1070
    46
1040
9.0
1000
ACAD_MTEXT_DEFINED_HEIGHT_END
  0
MTEXT
  5
541
330
4E7
100
AcDbEntity
  8
0
100
AcDbMText
 10
328.4779634407957
 20
41.5
 30
0.0
 40
2.0
 41
3.960182200742991
 71
     5
 72
     5
  1
材\P料
 73
     1
 44
1.0
1001
AcDbBlockRepETag
1070
     1
1071
      179
1005
541
1001
ACAD
1000
MTEXTBEGIN
1070
    73
1070
     1
1070
    44
1040
1.0
1070
    74
1070
     0
1000
MTEXTEND
1000
ACAD_MTEXT_DEFINED_HEIGHT_BEGIN
1070
    46
1040
9.0
1000
ACAD_MTEXT_DEFINED_HEIGHT_END
  0
LINE
  5
542
330
4E7
100
AcDbEntity
  8
0
  6
HIDDEN2
 48
0.5
100
AcDbLine
 10
402.4978723404242
 20
32.5
 30
0.0
 11
325.4978723404242
 21
32.5
 31
0.0
1001
AcDbBlockRepETag
1070
     1
1071
      180
1005
542
  0
POINT
  5
543
330
4E7
100
AcDbEntity
  8
0
100
AcDbPoint
 10
311.2478723404242
 20
37.0
 30
0.0
1001
AcDbBlockRepETag
1070
     1
1071
      189
1005
543
  0
POINT
  5
544
330
4E7
100
AcDbEntity
  8
0
100
AcDbPoint
 10
311.2478723404242
 20
28.0
 30
0.0
1001
AcDbBlockRepETag
1070
     1
1071
      190
1005
544
  0
LINE
  5
545
330
4E7
100
AcDbEntity
  8
0
100
AcDbLine
 10
17.5
 20
10.0
 30
0.0
 11
17.5
 21
287.0
 31
0.0
1001
AcDbBlockRepETag
1070
     1
1071
       74
1005
545
  0
ENDBLK
  5
546
330
4E7
100
AcDbEntity
  8
0
100
AcDbBlockEnd
  0
BLOCK
  5
6F0
330
6ED
100
AcDbEntity
  8
0
100
AcDbBlockBegin
  2
JIS A4 title block (landscape)
 70
     2
 10
0.0
 20
0.0
 30
0.0
  3
JIS A4 title block (landscape)
  1

  4
JIS A3 title block and attributes
  0
LINE
  5
92E
330
6ED
100
AcDbEntity
  8
0
100
AcDbLine
 10
0.0
 20
297.0
 30
0.0
 11
25.0
 21
297.0
 31
0.0
1001
AcDbBlockRepETag
1070
     1
1071
       26
1005
92E
  0
LINE
  5
92F
330
6ED
100
AcDbEntity
  8
0
100
AcDbLine
 10
0.0
 20
287.0
 30
0.0
 11
0.0
 21
297.0
 31
0.0
1001
AcDbBlockRepETag
1070
     1
1071
       27
1005
92F
  0
LINE
  5
989
330
6ED
100
AcDbEntity
  8
0
100
AcDbLine
 10
279.5
 20
97.0
 30
0.0
 11
17.5
 21
97.0
 31
0.0
1001
AcDbBlockRepETag
1070
     1
1071
        0
1005
989
  0
LINE
  5
98A
330
6ED
100
AcDbEntity
  8
0
100
AcDbLine
 10
17.5
 20
287.0
 30
0.0
 11
279.5
 21
287.0
 31
0.0
1001
AcDbBlockRepETag
1070
     1
1071
        1
1005
98A
  0
LINE
  5
98B
330
6ED
100
AcDbEntity
  8
0
100
AcDbLine
 10
17.5
 20
97.0
 30
0.0
 11
17.5
 21
287.0
 31
0.0
1001
AcDbBlockRepETag
1070
     1
1071
        2
1005
98B
  0
LINE
  5
98C
330
6ED
100
AcDbEntity
  8
0
100
AcDbLine
 10
25.0
 20
87.0
 30
0.0
 11
0.0
 21
87.0
 31
0.0
1001
AcDbBlockRepETag
1070
     1
1071
        3
1005
98C
  0
LINE
  5
98D
330
6ED
100
AcDbEntity
  8
0
100
AcDbLine
 10
0.0
 20
87.0
 30
0.0
 11
0.0
 21
97.0
 31
0.0
1001
AcDbBlockRepETag
1070
     1
1071
        4
1005
98D
  0
LINE
  5
98E
330
6ED
100
AcDbEntity
  8
0
100
AcDbLine
 10
61.16666666666668
 20
97.0
 30
0.0
 11
61.16666666666668
 21
92.0
 31
0.0
1001
AcDbBlockRepETag
1070
     1
1071
        5
1005
98E
  0
TEXT
  5
98F
330
6ED
100
AcDbEntity
  8
0
100
AcDbText
 10
38.1190476190476
 20
93.23033810098563
 30
0.0
 40
3.0
  1
1
  7
Roman
 72
     1
 11
39.33333333333332
 21
93.23033810098563
 31
0.0
100
AcDbText
1001
AcDbBlockRepETag
1070
     1
1071
        6
1005
98F
  0
ATTDEF
  5
990
330
6ED
100
AcDbEntity
  8
0
 62
     0
100
AcDbText
 10
11.5
 20
97.0
 30
0.0
 40
3.0
  1

 50
90.0
  7
Roman
100
AcDbAttributeDefinition
  3
Author:
  2
USER
 70
     8
1001
AcDbBlockRepETag
1070
     1
1071
        7
1005
0
  0
TEXT
  5
991
330
6ED
100
AcDbEntity
  8
0
100
AcDbText
 10
13.87568307432492
 20
120.75
 30
0.0
 40
3.0
  1
D
  7
Roman
 72
     1
 11
15.4471116457535
 21
120.75
 31
0.0
100
AcDbText
1001
AcDbBlockRepETag
1070
     1
1071
        8
1005
991
  0
LINE
  5
992
330
6ED
100
AcDbEntity
  8
0
100
AcDbLine
 10
17.5
 20
192.0
 30
0.0
 11
0.0
 21
192.0
 31
0.0
1001
AcDbBlockRepETag
1070
     1
1071
        9
1005
992
  0
ATTDEF
  5
993
330
6ED
100
AcDbEntity
  8
0
 62
     0
100
AcDbText
 10
11.5
 20
157.0
 30
0.0
 40
3.0
  1

 50
90.0
  7
Roman
100
AcDbAttributeDefinition
  3
Revision date:
  2
REVDATE
 70
     8
1001
AcDbBlockRepETag
1070
     1
1071
       10
1005
0
  0
LINE
  5
994
330
6ED
100
AcDbEntity
  8
0
100
AcDbLine
 10
17.5
 20
144.5
 30
0.0
 11
12.5
 21
144.5
 31
0.0
1001
AcDbBlockRepETag
1070
     1
1071
       11
1005
994
  0
TEXT
  5
995
330
6ED
100
AcDbEntity
  8
0
100
AcDbText
 10
13.9471116457535
 20
168.25
 30
0.0
 40
3.0
  1
C
  7
Roman
 72
     1
 11
15.4471116457535
 21
168.25
 31
0.0
100
AcDbText
1001
AcDbBlockRepETag
1070
     1
1071
       12
1005
995
  0
ATTDEF
  5
996
330
6ED
100
AcDbEntity
  8
0
 62
     0
100
AcDbText
 10
11.5
 20
205.0
 30
0.0
 40
3.0
  1

 50
90.0
  7
Roman
100
AcDbAttributeDefinition
  3
File name:
  2
FNAME
 70
     8
1001
AcDbBlockRepETag
1070
     1
1071
       13
1005
0
  0
LINE
  5
997
330
6ED
100
AcDbEntity
  8
0
100
AcDbLine
 10
17.5
 20
192.0
 30
0.0
 11
12.5
 21
192.0
 31
0.0
1001
AcDbBlockRepETag
1070
     1
1071
       14
1005
997
  0
TEXT
  5
998
330
6ED
100
AcDbEntity
  8
0
100
AcDbText
 10
13.87568307432492
 20
215.75
 30
0.0
 40
3.0
  1
B
  7
Roman
 72
     1
 11
15.4471116457535
 21
215.75
 31
0.0
100
AcDbText
1001
AcDbBlockRepETag
1070
     1
1071
       15
1005
998
  0
LINE
  5
999
330
6ED
100
AcDbEntity
  8
0
100
AcDbLine
 10
104.8333333333333
 20
97.0
 30
0.0
 11
104.8333333333333
 21
92.0
 31
0.0
1001
AcDbBlockRepETag
1070
     1
1071
       16
1005
999
  0
TEXT
  5
99A
330
6ED
100
AcDbEntity
  8
0
100
AcDbText
 10
81.57142857142856
 20
93.23033810098563
 30
0.0
 40
3.0
  1
2
  7
Roman
 72
     1
 11
83.0
 21
93.23033810098563
 31
0.0
100
AcDbText
1001
AcDbBlockRepETag
1070
     1
1071
       17
1005
99A
  0
TEXT
  5
99B
330
6ED
100
AcDbEntity
  8
0
100
AcDbText
 10
125.2380952380952
 20
93.23033810098563
 30
0.0
 40
3.0
  1
3
  7
Roman
 72
     1
 11
126.6666666666667
 21
93.23033810098563
 31
0.0
100
AcDbText
1001
AcDbBlockRepETag
1070
     1
1071
       18
1005
99B
  0
LINE
  5
99C
330
6ED
100
AcDbEntity
  8
0
100
AcDbLine
 10
148.5
 20
97.0
 30
0.0
 11
148.5
 21
87.0
 31
0.0
1001
AcDbBlockRepETag
1070
     1
1071
       19
1005
99C
  0
LINE
  5
99D
330
6ED
100
AcDbEntity
  8
0
100
AcDbLine
 10
148.5
 20
97.0
 30
0.0
 11
148.5
 21
92.0
 31
0.0
1001
AcDbBlockRepETag
1070
     1
1071
       20
1005
99D
  0
LINE
  5
99E
330
6ED
100
AcDbEntity
  8
0
100
AcDbLine
 10
192.1666666666667
 20
97.0
 30
0.0
 11
192.1666666666667
 21
92.0
 31
0.0
1001
AcDbBlockRepETag
1070
     1
1071
       21
1005
99E
  0
TEXT
  5
99F
330
6ED
100
AcDbEntity
  8
0
100
AcDbText
 10
168.8333333333333
 20
93.23033810098563
 30
0.0
 40
3.0
  1
4
  7
Roman
 72
     1
 11
170.3333333333333
 21
93.23033810098563
 31
0.0
100
AcDbText
1001
AcDbBlockRepETag
1070
     1
1071
       22
1005
99F
  0
LINE
  5
9A0
330
6ED
100
AcDbEntity
  8
0
100
AcDbLine
 10
17.5
 20
239.5
 30
0.0
 11
12.5
 21
239.5
 31
0.0
1001
AcDbBlockRepETag
1070
     1
1071
       25
1005
9A0
  0
TEXT
  5
9A1
330
6ED
100
AcDbEntity
  8
0
100
AcDbText
 10
14.16139736003921
 20
263.25
 30
0.0
 40
3.0
  1
A
  7
Roman
 72
     1
 11
15.4471116457535
 21
263.25
 31
0.0
100
AcDbText
1001
AcDbBlockRepETag
1070
     1
1071
       75
1005
9A1
  0
TEXT
  5
9A2
330
6ED
100
AcDbEntity
  8
0
100
AcDbText
 10
38.11904761904761
 20
288.0
 30
0.0
 40
3.0
  1
1
  7
Roman
 72
     1
 11
39.33333333333332
 21
288.0
 31
0.0
100
AcDbText
1001
AcDbBlockRepETag
1070
     1
1071
       76
1005
9A2
  0
LINE
  5
9A3
330
6ED
100
AcDbEntity
  8
0
100
AcDbLine
 10
61.16666666666666
 20
287.0
 30
0.0
 11
61.16666666666666
 21
292.0
 31
0.0
1001
AcDbBlockRepETag
1070
     1
1071
       28
1005
9A3
  0
TEXT
  5
9A4
330
6ED
100
AcDbEntity
  8
0
100
AcDbText
 10
81.57142857142856
 20
288.0
 30
0.0
 40
3.0
  1
2
  7
Roman
 72
     1
 11
83.0
 21
288.0
 31
0.0
100
AcDbText
1001
AcDbBlockRepETag
1070
     1
1071
       29
1005
9A4
  0
LINE
  5
9A5
330
6ED
100
AcDbEntity
  8
0
100
AcDbLine
 10
104.8333333333333
 20
287.0
 30
0.0
 11
104.8333333333333
 21
292.0
 31
0.0
1001
AcDbBlockRepETag
1070
     1
1071
       30
1005
9A5
  0
TEXT
  5
9A6
330
6ED
100
AcDbEntity
  8
0
100
AcDbText
 10
125.2380952380952
 20
288.0
 30
0.0
 40
3.0
  1
3
  7
Roman
 72
     1
 11
126.6666666666667
 21
288.0
 31
0.0
100
AcDbText
1001
AcDbBlockRepETag
1070
     1
1071
       31
1005
9A6
  0
TEXT
  5
9A7
330
6ED
100
AcDbEntity
  8
0
100
AcDbText
 10
168.8333333333333
 20
288.0
 30
0.0
 40
3.0
  1
4
  7
Roman
 72
     1
 11
170.3333333333333
 21
288.0
 31
0.0
100
AcDbText
1001
AcDbBlockRepETag
1070
     1
1071
       32
1005
9A7
  0
LINE
  5
9A8
330
6ED
100
AcDbEntity
  8
0
100
AcDbLine
 10
148.5
 20
287.0
 30
0.0
 11
148.5
 21
297.0
 31
0.0
1001
AcDbBlockRepETag
1070
     1
1071
       33
1005
9A8
  0
LINE
  5
9A9
330
6ED
100
AcDbEntity
  8
0
100
AcDbLine
 10
148.5
 20
287.0
 30
0.0
 11
148.5
 21
292.0
 31
0.0
1001
AcDbBlockRepETag
1070
     1
1071
       34
1005
9A9
  0
LINE
  5
9AA
330
6ED
100
AcDbEntity
  8
0
100
AcDbLine
 10
192.1666666666666
 20
287.0
 30
0.0
 11
192.1666666666666
 21
292.0
 31
0.0
1001
AcDbBlockRepETag
1070
     1
1071
       35
1005
9AA
  0
LINE
  5
9AB
330
6ED
100
AcDbEntity
  8
0
100
AcDbLine
 10
279.5
 20
287.0
 30
0.0
 11
279.5
 21
97.0
 31
0.0
1001
AcDbBlockRepETag
1070
     1
1071
       36
1005
9AB
  0
LINE
  5
9AC
330
6ED
100
AcDbEntity
  8
0
100
AcDbLine
 10
235.8333333333334
 20
97.0
 30
0.0
 11
235.8333333333334
 21
92.0
 31
0.0
1001
AcDbBlockRepETag
1070
     1
1071
       37
1005
9AC
  0
TEXT
  5
9AD
330
6ED
100
AcDbEntity
  8
0
100
AcDbText
 10
212.5714285714286
 20
93.23033810098563
 30
0.0
 40
3.0
  1
5
  7
Roman
 72
     1
 11
214.0
 21
93.23033810098563
 31
0.0
100
AcDbText
1001
AcDbBlockRepETag
1070
     1
1071
       38
1005
9AD
  0
TEXT
  5
9AE
330
6ED
100
AcDbEntity
  8
0
100
AcDbText
 10
256.1666666666667
 20
93.23033810098563
 30
0.0
 40
3.0
  1
6
  7
Roman
 72
     1
 11
257.6666666666667
 21
93.23033810098563
 31
0.0
100
AcDbText
1001
AcDbBlockRepETag
1070
     1
1071
       39
1005
9AE
  0
LINE
  5
9AF
330
6ED
100
AcDbEntity
  8
0
100
AcDbLine
 10
297.0
 20
97.0
 30
0.0
 11
297.0
 21
87.0
 31
0.0
1001
AcDbBlockRepETag
1070
     1
1071
       40
1005
9AF
  0
LINE
  5
9B0
330
6ED
100
AcDbEntity
  8
0
100
AcDbLine
 10
297.0
 20
87.0
 30
0.0
 11
287.0
 21
87.0
 31
0.0
1001
AcDbBlockRepETag
1070
     1
1071
       41
1005
9B0
  0
TEXT
  5
9B1
330
6ED
100
AcDbEntity
  8
0
100
AcDbText
 10
280.1673438822666
 20
120.75
 30
0.0
 40
3.0
  1
D
  7
Roman
 72
     1
 11
281.7387724536952
 21
120.75
 31
0.0
100
AcDbText
1001
AcDbBlockRepETag
1070
     1
1071
       42
1005
9B1
  0
LINE
  5
9B2
330
6ED
100
AcDbEntity
  8
0
100
AcDbLine
 10
279.5
 20
144.5
 30
0.0
 11
284.5
 21
144.5
 31
0.0
1001
AcDbBlockRepETag
1070
     1
1071
       43
1005
9B2
  0
TEXT
  5
9B3
330
6ED
100
AcDbEntity
  8
0
100
AcDbText
 10
280.2387724536952
 20
168.25
 30
0.0
 40
3.0
  1
C
  7
Roman
 72
     1
 11
281.7387724536952
 21
168.25
 31
0.0
100
AcDbText
1001
AcDbBlockRepETag
1070
     1
1071
       44
1005
9B3
  0
LINE
  5
9B4
330
6ED
100
AcDbEntity
  8
0
100
AcDbLine
 10
279.5
 20
192.0
 30
0.0
 11
297.0
 21
192.0
 31
0.0
1001
AcDbBlockRepETag
1070
     1
1071
       45
1005
9B4
  0
LINE
  5
9B5
330
6ED
100
AcDbEntity
  8
0
100
AcDbLine
 10
279.5
 20
192.0
 30
0.0
 11
284.5
 21
192.0
 31
0.0
1001
AcDbBlockRepETag
1070
     1
1071
       46
1005
9B5
  0
TEXT
  5
9B6
330
6ED
100
AcDbEntity
  8
0
100
AcDbText
 10
280.1673438822666
 20
215.75
 30
0.0
 40
3.0
  1
B
  7
Roman
 72
     1
 11
281.7387724536952
 21
215.75
 31
0.0
100
AcDbText
1001
AcDbBlockRepETag
1070
     1
1071
       47
1005
9B6
  0
TEXT
  5
9B7
330
6ED
100
AcDbEntity
  8
0
100
AcDbText
 10
212.5714285714286
 20
288.0
 30
0.0
 40
3.0
  1
5
  7
Roman
 72
     1
 11
214.0
 21
288.0
 31
0.0
100
AcDbText
1001
AcDbBlockRepETag
1070
     1
1071
       48
1005
9B7
  0
LINE
  5
9B8
330
6ED
100
AcDbEntity
  8
0
100
AcDbLine
 10
235.8333333333333
 20
287.0
 30
0.0
 11
235.8333333333333
 21
292.0
 31
0.0
1001
AcDbBlockRepETag
1070
     1
1071
       49
1005
9B8
  0
TEXT
  5
9B9
330
6ED
100
AcDbEntity
  8
0
100
AcDbText
 10
256.1666666666667
 20
288.0
 30
0.0
 40
3.0
  1
6
  7
Roman
 72
     1
 11
257.6666666666667
 21
288.0
 31
0.0
100
AcDbText
1001
AcDbBlockRepETag
1070
     1
1071
       50
1005
9B9
  0
LINE
  5
9BA
330
6ED
100
AcDbEntity
  8
0
100
AcDbLine
 10
279.5
 20
239.5
 30
0.0
 11
284.5
 21
239.5
 31
0.0
1001
AcDbBlockRepETag
1070
     1
1071
       51
1005
9BA
  0
TEXT
  5
9BB
330
6ED
100
AcDbEntity
  8
0
100
AcDbText
 10
280.4530581679809
 20
263.25
 30
0.0
 40
3.0
  1
A
  7
Roman
 72
     1
 11
281.7387724536952
 21
263.25
 31
0.0
100
AcDbText
1001
AcDbBlockRepETag
1070
     1
1071
       52
1005
9BB
  0
LINE
  5
9BC
330
6ED
100
AcDbEntity
  8
0
100
AcDbLine
 10
287.0
 20
297.0
 30
0.0
 11
297.0
 21
297.0
 31
0.0
1001
AcDbBlockRepETag
1070
     1
1071
       53
1005
9BC
  0
LINE
  5
9BD
330
6ED
100
AcDbEntity
  8
0
100
AcDbLine
 10
297.0
 20
297.0
 30
0.0
 11
297.0
 21
287.0
 31
0.0
1001
AcDbBlockRepETag
1070
     1
1071
       54
1005
9BD
  0
LINE
  5
9BE
330
6ED
100
AcDbEntity
  8
0
100
AcDbLine
 10
163.4978723404242
 20
97.0
 30
0.0
 11
163.4978723404242
 21
97.0
 31
0.0
1001
AcDbBlockRepETag
1070
     1
1071
      161
1005
9BE
  0
LINE
  5
9BF
330
6ED
100
AcDbEntity
  8
0
100
AcDbLine
 10
162.4978723404242
 20
97.0
 30
0.0
 11
162.4978723404242
 21
133.0
 31
0.0
1001
AcDbBlockRepETag
1070
     1
1071
      162
1005
9BF
  0
LINE
  5
9C0
330
6ED
100
AcDbEntity
  8
0
100
AcDbLine
 10
279.4978723404242
 20
106.0
 30
0.0
 11
162.4978723404242
 21
106.0
 31
0.0
1001
AcDbBlockRepETag
1070
     1
1071
      166
1005
9C0
  0
LINE
  5
9C1
330
6ED
100
AcDbEntity
  8
0
100
AcDbLine
 10
213.4978723404242
 20
97.0
 30
0.0
 11
213.4978723404242
 21
106.0
 31
0.0
1001
AcDbBlockRepETag
1070
     1
1071
      167
1005
9C1
  0
LINE
  5
9C2
330
6ED
100
AcDbEntity
  8
0
100
AcDbLine
 10
202.4978723404242
 20
115.0
 30
0.0
 11
162.4978723404242
 21
115.0
 31
0.0
1001
AcDbBlockRepETag
1070
     1
1071
      168
1005
9C2
  0
LINE
  5
9C3
330
6ED
100
AcDbEntity
  8
0
100
AcDbLine
 10
279.4978723404242
 20
124.0
 30
0.0
 11
162.4978723404242
 21
124.0
 31
0.0
1001
AcDbBlockRepETag
1070
     1
1071
      169
1005
9C3
  0
LINE
  5
9C4
330
6ED
100
AcDbEntity
  8
0
100
AcDbLine
 10
279.4978723404242
 20
133.0
 30
0.0
 11
162.4978723404242
 21
133.0
 31
0.0
1001
AcDbBlockRepETag
1070
     1
1071
      170
1005
9C4
  0
MTEXT
  5
9C5
330
6ED
100
AcDbEntity
  8
0
100
AcDbMText
 10
187.9978723404241
 20
101.5
 30
0.0
 40
4.0
 41
51.0
 71
     5
 72
     5
  1
富国石油株式会社
 73
     1
 44
1.0
1001
AcDbBlockRepETag
1070
     1
1071
      171
1005
9C5
1001
ACAD
1000
MTEXTBEGIN
1070
    73
1070
     1
1070
    44
1040
1.0
1070
    74
1070
     0
1000
MTEXTEND
  0
MTEXT
  5
9C6
102
{ACAD_XDICTIONARY
360
1054
102
}
330
6ED
100
AcDbEntity
  8
0
100
AcDbMText
 10
165.4779634407957
 20
110.5
 30
0.0
 40
2.0
 41
3.960182200742991
 71
     5
 72
     5
  1
検\P図
 73
     1
 44
1.0
1001
AcDbBlockRepETag
1070
     1
1071
      172
1005
9C6
1001
ACAD
1000
MTEXTBEGIN
1070
    73
1070
     1
1070
    44
1040
1.0
1070
    74
1070
     0
1000
MTEXTEND
1000
ACAD_MTEXT_DEFINED_HEIGHT_BEGIN
1070
    46
1040
9.0
1000
ACAD_MTEXT_DEFINED_HEIGHT_END
  0
MTEXT
  5
9C7
330
6ED
100
AcDbEntity
  8
0
100
AcDbMText
 10
165.4779634407957
 20
119.5
 30
0.0
 40
2.0
 41
3.960182200742991
 71
     5
 72
     5
  1
確\P認
 73
     1
 44
1.0
1001
AcDbBlockRepETag
1070
     1
1071
      173
1005
9C7
1001
ACAD
1000
MTEXTBEGIN
1070
    73
1070
     1
1070
    44
1040
1.0
1070
    74
1070
     0
1000
MTEXTEND
1000
ACAD_MTEXT_DEFINED_HEIGHT_BEGIN
1070
    46
1040
9.0
1000
ACAD_MTEXT_DEFINED_HEIGHT_END
  0
MTEXT
  5
9C8
330
6ED
100
AcDbEntity
  8
0
100
AcDbMText
 10
165.4779634407957
 20
128.5
 30
0.0
 40
2.0
 41
3.960182200742991
 71
     5
 72
     5
  1
縮\P尺
 73
     1
 44
1.0
1001
AcDbBlockRepETag
1070
     1
1071
      174
1005
9C8
1001
ACAD
1000
MTEXTBEGIN
1070
    73
1070
     1
1070
    44
1040
1.0
1070
    74
1070
     0
1000
MTEXTEND
1000
ACAD_MTEXT_DEFINED_HEIGHT_BEGIN
1070
    46
1040
9.0
1000
ACAD_MTEXT_DEFINED_HEIGHT_END
  0
LINE
  5
9C9
330
6ED
100
AcDbEntity
  8
0
100
AcDbLine
 10
182.4978723404242
 20
106.0
 30
0.0
 11
182.4978723404242
 21
133.0
 31
0.0
1001
AcDbBlockRepETag
1070
     1
1071
      175
1005
9C9
  0
LINE
  5
9CA
330
6ED
100
AcDbEntity
  8
0
100
AcDbLine
 10
202.4978723404242
 20
106.0
 30
0.0
 11
202.4978723404242
 21
133.0
 31
0.0
1001
AcDbBlockRepETag
1070
     1
1071
      176
1005
9CA
  0
LINE
  5
9CB
330
6ED
100
AcDbEntity
  8
0
100
AcDbLine
 10
234.4978723404242
 20
124.0
 30
0.0
 11
234.4978723404242
 21
133.0
 31
0.0
1001
AcDbBlockRepETag
1070
     1
1071
      194
1005
9CB
  0
MTEXT
  5
9CC
330
6ED
100
AcDbEntity
  8
0
100
AcDbMText
 10
185.4779634407957
 20
119.5
 30
0.0
 40
2.0
 41
3.960182200742991
 71
     5
 72
     5
  1
設\P計
 73
     1
 44
1.0
1001
AcDbBlockRepETag
1070
     1
1071
      177
1005
9CC
1001
ACAD
1000
MTEXTBEGIN
1070
    73
1070
     1
1070
    44
1040
1.0
1070
    74
1070
     0
1000
MTEXTEND
1000
ACAD_MTEXT_DEFINED_HEIGHT_BEGIN
1070
    46
1040
9.0
1000
ACAD_MTEXT_DEFINED_HEIGHT_END
  0
MTEXT
  5
9CD
330
6ED
100
AcDbEntity
  8
0
100
AcDbMText
 10
185.4779634407957
 20
110.5
 30
0.0
 40
2.0
 41
3.960182200742991
 71
     5
 72
     5
  1
製\P図
 73
     1
 44
1.0
1001
AcDbBlockRepETag
1070
     1
1071
      178
1005
9CD
1001
ACAD
1000
MTEXTBEGIN
1070
    73
1070
     1
1070
    44
1040
1.0
1070
    74
1070
     0
1000
MTEXTEND
1000
ACAD_MTEXT_DEFINED_HEIGHT_BEGIN
1070
    46
1040
9.0
1000
ACAD_MTEXT_DEFINED_HEIGHT_END
  0
MTEXT
  5
9CE
330
6ED
100
AcDbEntity
  8
0
100
AcDbMText
 10
205.4779634407957
 20
128.5
 30
0.0
 40
2.0
 41
3.960182200742991
 71
     5
 72
     5
  1
材\P料
 73
     1
 44
1.0
1001
AcDbBlockRepETag
1070
     1
1071
      179
1005
9CE
1001
ACAD
1000
MTEXTBEGIN
1070
    73
1070
     1
1070
    44
1040
1.0
1070
    74
1070
     0
1000
MTEXTEND
1000
ACAD_MTEXT_DEFINED_HEIGHT_BEGIN
1070
    46
1040
9.0
1000
ACAD_MTEXT_DEFINED_HEIGHT_END
  0
LINE
  5
9CF
330
6ED
100
AcDbEntity
  8
0
  6
HIDDEN2
 48
0.5
100
AcDbLine
 10
279.4978723404242
 20
119.5
 30
0.0
 11
202.4978723404242
 21
119.5
 31
0.0
1001
AcDbBlockRepETag
1070
     1
1071
      180
1005
9CF
  0
POINT
  5
9D0
330
6ED
100
AcDbEntity
  8
0
100
AcDbPoint
 10
188.2478723404242
 20
124.0
 30
0.0
1001
AcDbBlockRepETag
1070
     1
1071
      189
1005
9D0
  0
POINT
  5
9D1
330
6ED
100
AcDbEntity
  8
0
100
AcDbPoint
 10
188.2478723404242
 20
115.0
 30
0.0
1001
AcDbBlockRepETag
1070
     1
1071
      190
1005
9D1
  0
ENDBLK
  5
74C
330
6ED
100
AcDbEntity
  8
0
100
AcDbBlockEnd
  0
BLOCK
  5
B3C
330
B3B
100
AcDbEntity
  8
0
100
AcDbBlockBegin
  2
*D18
 70
     1
 10
0.0
 20
0.0
 30
0.0
  3
*D18
  1

  0
LINE
  5
B3D
330
B3B
100
AcDbEntity
  8
0
  6
HIDDEN2
 62
     0
 48
3.0
370
    -2
100
AcDbLine
 10
-182.6015554895849
 20
1743.101199955092
 30
0.0
 11
-182.6015554895849
 21
1823.101199955092
 31
0.0
  0
LINE
  5
B3E
330
B3B
100
AcDbEntity
  8
0
  6
HIDDEN2
 62
     0
 48
3.0
370
    -2
100
AcDbLine
 10
-137.061555489585
 20
1745.081199955092
 30
0.0
 11
-137.061555489585
 21
1823.101199955092
 31
0.0
  0
LINE
  5
B3F
330
B3B
100
AcDbEntity
  8
0
  6
HIDDEN2
 62
     0
 48
3.0
370
    -2
100
AcDbLine
 10
-174.6015554895849
 20
1822.101199955093
 30
0.0
 11
-145.061555489585
 21
1822.101199955093
 31
0.0
  0
INSERT
  5
B40
330
B3B
100
AcDbEntity
  8
0
  6
HIDDEN2
 62
     0
 48
3.0
370
    -2
100
AcDbBlockReference
  2
_Open30
 10
-182.6015554895849
 20
1822.101199955093
 30
0.0
 41
8.0
 42
8.0
 43
8.0
 50
180.0
  0
INSERT
  5
B41
330
B3B
100
AcDbEntity
  8
0
  6
HIDDEN2
 62
     0
 48
3.0
370
    -2
100
AcDbBlockReference
  2
_Open30
 10
-137.061555489585
 20
1822.101199955093
 30
0.0
 41
8.0
 42
8.0
 43
8.0
  0
MTEXT
  5
B42
330
B3B
100
AcDbEntity
  8
0
  6
HIDDEN2
 62
     0
 48
3.0
100
AcDbMText
 10
-160.0705731353388
 20
1830.150915864183
 30
0.0
 40
7.5
 41
0.0
 71
     5
 72
     1
  1
\A1;{\fＭＳ Ｐゴシック|b0|i0|c128|p50;カブリ}
 73
     1
 44
1.0
1001
ACAD
1000
MTEXTBEGIN
1070
    73
1070
     1
1070
    44
1040
1.0
1070
    74
1070
     0
1000
MTEXTEND
  0
POINT
  5
B43
330
B3B
100
AcDbEntity
  8
Defpoints
  6
HIDDEN2
 62
     0
 48
3.0
100
AcDbPoint
 10
-182.6015554895849
 20
1742.101199955093
 30
0.0
  0
POINT
  5
B44
330
B3B
100
AcDbEntity
  8
Defpoints
  6
HIDDEN2
 62
     0
 48
3.0
100
AcDbPoint
 10
-137.061555489585
 20
1744.081199955092
 30
0.0
  0
POINT
  5
B45
330
B3B
100
AcDbEntity
  8
Defpoints
  6
HIDDEN2
 62
     0
 48
3.0
100
AcDbPoint
 10
-137.061555489585
 20
1822.101199955093
 30
0.0
  0
ENDBLK
  5
B46
330
B3B
100
AcDbEntity
  8
0
100
AcDbBlockEnd
  0
BLOCK
  5
B48
330
B47
100
AcDbEntity
  8
0
100
AcDbBlockBegin
  2
*D19
 70
     1
 10
0.0
 20
0.0
 30
0.0
  3
*D19
  1

  0
LINE
  5
B49
330
B47
100
AcDbEntity
  8
0
  6
HIDDEN2
 62
     0
 48
3.0
370
    -2
100
AcDbLine
 10
-236.0448129102014
 20
1742.844255796969
 30
0.0
 11
-236.0448129102014
 21
1853.101199955093
 31
0.0
  0
LINE
  5
B4A
330
B47
100
AcDbEntity
  8
0
  6
HIDDEN2
 62
     0
 48
3.0
370
    -2
100
AcDbLine
 10
-137.061555489585
 20
1743.101199955092
 30
0.0
 11
-137.061555489585
 21
1853.101199955093
 31
0.0
  0
LINE
  5
B4B
330
B47
100
AcDbEntity
  8
0
  6
HIDDEN2
 62
     0
 48
3.0
370
    -2
100
AcDbLine
 10
-228.0448129102015
 20
1852.101199955091
 30
0.0
 11
-145.061555489585
 21
1852.101199955091
 31
0.0
  0
INSERT
  5
B4C
330
B47
100
AcDbEntity
  8
0
  6
HIDDEN2
 62
     0
 48
3.0
370
    -2
100
AcDbBlockReference
  2
_Open30
 10
-236.0448129102014
 20
1852.101199955091
 30
0.0
 41
8.0
 42
8.0
 43
8.0
 50
180.0
  0
INSERT
  5
B4D
330
B47
100
AcDbEntity
  8
0
  6
HIDDEN2
 62
     0
 48
3.0
370
    -2
100
AcDbBlockReference
  2
_Open30
 10
-137.061555489585
 20
1852.101199955091
 30
0.0
 41
8.0
 42
8.0
 43
8.0
  0
MTEXT
  5
B4E
330
B47
100
AcDbEntity
  8
0
  6
HIDDEN2
 62
     0
 48
3.0
100
AcDbMText
 10
-186.5531841998932
 20
1859.959154500547
 30
0.0
 40
7.5
 41
0.0
 71
     5
 72
     1
  1
\A1;{\fＭＳ Ｐゴシック|b0|i0|c128|p50;外径（ｄ）}
 73
     1
 44
1.0
1001
ACAD
1000
MTEXTBEGIN
1070
    73
1070
     1
1070
    44
1040
1.0
1070
    74
1070
     0
1000
MTEXTEND
  0
POINT
  5
B4F
330
B47
100
AcDbEntity
  8
Defpoints
  6
HIDDEN2
 62
     0
 48
3.0
100
AcDbPoint
 10
-236.0448129102014
 20
1741.844255796969
 30
0.0
  0
POINT
  5
B50
330
B47
100
AcDbEntity
  8
Defpoints
  6
HIDDEN2
 62
     0
 48
3.0
100
AcDbPoint
 10
-137.061555489585
 20
1742.101199955092
 30
0.0
  0
POINT
  5
B51
330
B47
100
AcDbEntity
  8
Defpoints
  6
HIDDEN2
 62
     0
 48
3.0
100
AcDbPoint
 10
-137.061555489585
 20
1852.101199955091
 30
0.0
  0
ENDBLK
  5
B52
330
B47
100
AcDbEntity
  8
0
100
AcDbBlockEnd
  0
BLOCK
  5
B54
330
B53
100
AcDbEntity
  8
0
100
AcDbBlockBegin
  2
*D20
 70
     1
 10
0.0
 20
0.0
 30
0.0
  3
*D20
  1

  0
LINE
  5
B55
330
B53
100
AcDbEntity
  8
0
  6
HIDDEN2
 62
     0
 48
3.0
370
    -2
100
AcDbLine
 10
-76.56155548958512
 20
1750.26434215959
 30
0.0
 11
-76.56155548958512
 21
1853.101199955093
 31
0.0
  0
LINE
  5
B56
330
B53
100
AcDbEntity
  8
0
  6
HIDDEN2
 62
     0
 48
3.0
370
    -2
100
AcDbLine
 10
-53.79155548958489
 20
1750.26434215959
 30
0.0
 11
-53.79155548958486
 21
1853.101199955093
 31
0.0
  0
LINE
  5
B57
330
B53
100
AcDbEntity
  8
0
  6
HIDDEN2
 62
     0
 48
3.0
370
    -2
100
AcDbLine
 10
-61.79155548958487
 20
1852.101199955091
 30
0.0
 11
-68.56155548958511
 21
1852.101199955091
 31
0.0
  0
LINE
  5
B58
330
B53
100
AcDbEntity
  8
0
  6
HIDDEN2
 62
     0
 48
3.0
370
    -2
100
AcDbLine
 10
-76.56155548958512
 20
1852.101199955091
 30
0.0
 11
-136.4820100350397
 21
1852.101199955091
 31
0.0
  0
INSERT
  5
B59
330
B53
100
AcDbEntity
  8
0
  6
HIDDEN2
 62
     0
 48
3.0
370
    -2
100
AcDbBlockReference
  2
_Open30
 10
-53.79155548958486
 20
1852.101199955091
 30
0.0
 41
8.0
 42
8.0
 43
8.0
  0
INSERT
  5
B5A
330
B53
100
AcDbEntity
  8
0
  6
HIDDEN2
 62
     0
 48
3.0
370
    -2
100
AcDbBlockReference
  2
_Open30
 10
-76.56155548958512
 20
1852.101199955091
 30
0.0
 41
8.0
 42
8.0
 43
8.0
 50
180.0
  0
MTEXT
  5
B5B
330
B53
100
AcDbEntity
  8
0
  6
HIDDEN2
 62
     0
 48
3.0
100
AcDbMText
 10
-116.5217827623124
 20
1859.895234046001
 30
0.0
 40
7.5
 41
0.0
 71
     5
 72
     1
  1
\A1;{\fＭＳ Ｐゴシック|b0|i0|c128|p50;厚さ（ａ）}
 73
     1
 44
1.0
1001
ACAD
1000
MTEXTBEGIN
1070
    73
1070
     1
1070
    44
1040
1.0
1070
    74
1070
     0
1000
MTEXTEND
  0
POINT
  5
B5C
330
B53
100
AcDbEntity
  8
Defpoints
  6
HIDDEN2
 62
     0
 48
3.0
100
AcDbPoint
 10
-76.56155548958512
 20
1749.26434215959
 30
0.0
  0
POINT
  5
B5D
330
B53
100
AcDbEntity
  8
Defpoints
  6
HIDDEN2
 62
     0
 48
3.0
100
AcDbPoint
 10
-53.79155548958489
 20
1749.264342159589
 30
0.0
  0
POINT
  5
B5E
330
B53
100
AcDbEntity
  8
Defpoints
  6
HIDDEN2
 62
     0
 48
3.0
100
AcDbPoint
 10
-53.79155548958486
 20
1852.101199955091
 30
0.0
  0
ENDBLK
  5
B5F
330
B53
100
AcDbEntity
  8
0
100
AcDbBlockEnd
  0
BLOCK
  5
B61
330
B60
100
AcDbEntity
  8
0
100
AcDbBlockBegin
  2
*D21
 70
     1
 10
0.0
 20
0.0
 30
0.0
  3
*D21
  1

  0
LINE
  5
B62
330
B60
100
AcDbEntity
  8
0
  6
HIDDEN2
 62
     0
 48
3.0
370
    -2
100
AcDbLine
 10
-69.63155548958488
 20
1790.533543009059
 30
0.0
 11
-69.63155548958488
 21
1823.101199955092
 31
0.0
  0
LINE
  5
B63
330
B60
100
AcDbEntity
  8
0
  6
HIDDEN2
 62
     0
 48
3.0
370
    -2
100
AcDbLine
 10
-60.72155548958489
 20
1790.533543009059
 30
0.0
 11
-60.72155548958489
 21
1823.101199955092
 31
0.0
  0
LINE
  5
B64
330
B60
100
AcDbEntity
  8
0
  6
HIDDEN2
 62
     0
 48
3.0
370
    -2
100
AcDbLine
 10
-52.72155548958489
 20
1822.101199955093
 30
0.0
 11
-44.72155548958489
 21
1822.101199955093
 31
0.0
  0
LINE
  5
B65
330
B60
100
AcDbEntity
  8
0
  6
HIDDEN2
 62
     0
 48
3.0
370
    -2
100
AcDbLine
 10
-77.63155548958486
 20
1822.101199955093
 30
0.0
 11
-130.1453054895848
 21
1822.101199955093
 31
0.0
  0
LINE
  5
B66
330
B60
100
AcDbEntity
  8
0
  6
HIDDEN2
 62
     0
 48
3.0
370
    -2
100
AcDbLine
 10
-60.72155548958489
 20
1822.101199955093
 30
0.0
 11
-69.63155548958488
 21
1822.101199955093
 31
0.0
  0
INSERT
  5
B67
330
B60
100
AcDbEntity
  8
0
  6
HIDDEN2
 62
     0
 48
3.0
370
    -2
100
AcDbBlockReference
  2
_Open30
 10
-60.72155548958489
 20
1822.101199955093
 30
0.0
 41
8.0
 42
8.0
 43
8.0
 50
180.0
  0
INSERT
  5
B68
330
B60
100
AcDbEntity
  8
0
  6
HIDDEN2
 62
     0
 48
3.0
370
    -2
100
AcDbBlockReference
  2
_Open30
 10
-69.63155548958488
 20
1822.101199955093
 30
0.0
 41
8.0
 42
8.0
 43
8.0
  0
MTEXT
  5
B69
330
B60
100
AcDbEntity
  8
0
  6
HIDDEN2
 62
     0
 48
3.0
100
AcDbMText
 10
-110.0359304895848
 20
1829.895234046001
 30
0.0
 40
7.5
 41
0.0
 71
     5
 72
     1
  1
\A1;{\fＭＳ Ｐゴシック|b0|i0|c128|p50;厚さ（ｂ）}
 73
     1
 44
1.0
1001
ACAD
1000
MTEXTBEGIN
1070
    73
1070
     1
1070
    44
1040
1.0
1070
    74
1070
     0
1000
MTEXTEND
  0
POINT
  5
B6A
330
B60
100
AcDbEntity
  8
Defpoints
  6
HIDDEN2
 62
     0
 48
3.0
100
AcDbPoint
 10
-69.63155548958488
 20
1789.533543009059
 30
0.0
  0
POINT
  5
B6B
330
B60
100
AcDbEntity
  8
Defpoints
  6
HIDDEN2
 62
     0
 48
3.0
100
AcDbPoint
 10
-60.72155548958489
 20
1789.533543009059
 30
0.0
  0
POINT
  5
B6C
330
B60
100
AcDbEntity
  8
Defpoints
  6
HIDDEN2
 62
     0
 48
3.0
100
AcDbPoint
 10
-60.72155548958489
 20
1822.101199955093
 30
0.0
  0
ENDBLK
  5
B6D
330
B60
100
AcDbEntity
  8
0
100
AcDbBlockEnd
  0
BLOCK
  5
C66
330
C5C
100
AcDbEntity
  8
0
100
AcDbBlockBegin
  2
*D23
 70
     1
 10
0.0
 20
0.0
 30
0.0
  3
*D23
  1

  0
LINE
  5
C8F
330
C5C
100
AcDbEntity
  8
0
  6
HIDDEN2
 62
     0
 48
3.0
370
    -2
100
AcDbLine
 10
-86.84669913639371
 20
1786.622814650693
 30
0.0
 11
-86.84669913639371
 21
1866.622814650693
 31
0.0
  0
LINE
  5
C90
330
C5C
100
AcDbEntity
  8
0
  6
HIDDEN2
 62
     0
 48
3.0
370
    -2
100
AcDbLine
 10
-41.3066991363938
 20
1788.602814650692
 30
0.0
 11
-41.30669913639379
 21
1866.622814650693
 31
0.0
  0
LINE
  5
C91
330
C5C
100
AcDbEntity
  8
0
  6
HIDDEN2
 62
     0
 48
3.0
370
    -2
100
AcDbLine
 10
-78.8466991363937
 20
1865.622814650693
 30
0.0
 11
-49.3066991363938
 21
1865.622814650693
 31
0.0
  0
INSERT
  5
C92
330
C5C
100
AcDbEntity
  8
0
  6
HIDDEN2
 62
     0
 48
3.0
370
    -2
100
AcDbBlockReference
  2
_Open30
 10
-86.84669913639371
 20
1865.622814650693
 30
0.0
 41
8.0
 42
8.0
 43
8.0
 50
180.0
  0
INSERT
  5
C93
330
C5C
100
AcDbEntity
  8
0
  6
HIDDEN2
 62
     0
 48
3.0
370
    -2
100
AcDbBlockReference
  2
_Open30
 10
-41.30669913639379
 20
1865.622814650693
 30
0.0
 41
8.0
 42
8.0
 43
8.0
  0
MTEXT
  5
C94
330
C5C
100
AcDbEntity
  8
0
  6
HIDDEN2
 62
     0
 48
3.0
100
AcDbMText
 10
-64.31571678214763
 20
1873.672530559784
 30
0.0
 40
7.5
 41
0.0
 71
     5
 72
     1
  1
\A1;{\fＭＳ Ｐゴシック|b0|i0|c128|p50;カブリ}
 73
     1
 44
1.0
1001
ACAD
1000
MTEXTBEGIN
1070
    73
1070
     1
1070
    44
1040
1.0
1070
    74
1070
     0
1000
MTEXTEND
  0
POINT
  5
C95
330
C5C
100
AcDbEntity
  8
Defpoints
  6
HIDDEN2
 62
     0
 48
3.0
100
AcDbPoint
 10
-86.84669913639371
 20
1785.622814650693
 30
0.0
  0
POINT
  5
C96
330
C5C
100
AcDbEntity
  8
Defpoints
  6
HIDDEN2
 62
     0
 48
3.0
100
AcDbPoint
 10
-41.3066991363938
 20
1787.602814650692
 30
0.0
  0
POINT
  5
C97
330
C5C
100
AcDbEntity
  8
Defpoints
  6
HIDDEN2
 62
     0
 48
3.0
100
AcDbPoint
 10
-41.30669913639379
 20
1865.622814650693
 30
0.0
  0
ENDBLK
  5
C67
330
C5C
100
AcDbEntity
  8
0
100
AcDbBlockEnd
  0
BLOCK
  5
C72
330
C68
100
AcDbEntity
  8
0
100
AcDbBlockBegin
  2
*D24
 70
     1
 10
0.0
 20
0.0
 30
0.0
  3
*D24
  1

  0
LINE
  5
C98
330
C68
100
AcDbEntity
  8
0
  6
HIDDEN2
 62
     0
 48
3.0
370
    -2
100
AcDbLine
 10
-140.2899565570102
 20
1786.365870492569
 30
0.0
 11
-140.2899565570102
 21
1896.622814650692
 31
0.0
  0
LINE
  5
C99
330
C68
100
AcDbEntity
  8
0
  6
HIDDEN2
 62
     0
 48
3.0
370
    -2
100
AcDbLine
 10
-41.3066991363938
 20
1786.622814650692
 30
0.0
 11
-41.30669913639379
 21
1896.622814650692
 31
0.0
  0
LINE
  5
C9A
330
C68
100
AcDbEntity
  8
0
  6
HIDDEN2
 62
     0
 48
3.0
370
    -2
100
AcDbLine
 10
-132.2899565570102
 20
1895.622814650692
 30
0.0
 11
-49.3066991363938
 21
1895.622814650692
 31
0.0
  0
INSERT
  5
C9B
330
C68
100
AcDbEntity
  8
0
  6
HIDDEN2
 62
     0
 48
3.0
370
    -2
100
AcDbBlockReference
  2
_Open30
 10
-140.2899565570102
 20
1895.622814650692
 30
0.0
 41
8.0
 42
8.0
 43
8.0
 50
180.0
  0
INSERT
  5
C9C
330
C68
100
AcDbEntity
  8
0
  6
HIDDEN2
 62
     0
 48
3.0
370
    -2
100
AcDbBlockReference
  2
_Open30
 10
-41.30669913639379
 20
1895.622814650692
 30
0.0
 41
8.0
 42
8.0
 43
8.0
  0
MTEXT
  5
C9D
330
C68
100
AcDbEntity
  8
0
  6
HIDDEN2
 62
     0
 48
3.0
100
AcDbMText
 10
-90.798327846702
 20
1903.480769196147
 30
0.0
 40
7.5
 41
0.0
 71
     5
 72
     1
  1
\A1;{\fＭＳ Ｐゴシック|b0|i0|c128|p50;外径（ｄ）}
 73
     1
 44
1.0
1001
ACAD
1000
MTEXTBEGIN
1070
    73
1070
     1
1070
    44
1040
1.0
1070
    74
1070
     0
1000
MTEXTEND
  0
POINT
  5
C9E
330
C68
100
AcDbEntity
  8
Defpoints
  6
HIDDEN2
 62
     0
 48
3.0
100
AcDbPoint
 10
-140.2899565570102
 20
1785.365870492569
 30
0.0
  0
POINT
  5
C9F
330
C68
100
AcDbEntity
  8
Defpoints
  6
HIDDEN2
 62
     0
 48
3.0
100
AcDbPoint
 10
-41.3066991363938
 20
1785.622814650692
 30
0.0
  0
POINT
  5
CA0
330
C68
100
AcDbEntity
  8
Defpoints
  6
HIDDEN2
 62
     0
 48
3.0
100
AcDbPoint
 10
-41.30669913639379
 20
1895.622814650692
 30
0.0
  0
ENDBLK
  5
C73
330
C68
100
AcDbEntity
  8
0
100
AcDbBlockEnd
  0
BLOCK
  5
C7F
330
C74
100
AcDbEntity
  8
0
100
AcDbBlockBegin
  2
*D25
 70
     1
 10
0.0
 20
0.0
 30
0.0
  3
*D25
  1

  0
LINE
  5
CA1
330
C74
100
AcDbEntity
  8
0
  6
HIDDEN2
 62
     0
 48
3.0
370
    -2
100
AcDbLine
 10
19.19330086360608
 20
1793.78595685519
 30
0.0
 11
19.19330086360609
 21
1896.622814650692
 31
0.0
  0
LINE
  5
CA2
330
C74
100
AcDbEntity
  8
0
  6
HIDDEN2
 62
     0
 48
3.0
370
    -2
100
AcDbLine
 10
41.96330086360632
 20
1793.785956855189
 30
0.0
 11
41.96330086360632
 21
1896.622814650692
 31
0.0
  0
LINE
  5
CA3
330
C74
100
AcDbEntity
  8
0
  6
HIDDEN2
 62
     0
 48
3.0
370
    -2
100
AcDbLine
 10
33.96330086360633
 20
1895.622814650692
 30
0.0
 11
27.19330086360609
 21
1895.622814650692
 31
0.0
  0
LINE
  5
CA4
330
C74
100
AcDbEntity
  8
0
  6
HIDDEN2
 62
     0
 48
3.0
370
    -2
100
AcDbLine
 10
19.19330086360609
 20
1895.622814650692
 30
0.0
 11
-40.72715368184849
 21
1895.622814650692
 31
0.0
  0
INSERT
  5
CA5
330
C74
100
AcDbEntity
  8
0
  6
HIDDEN2
 62
     0
 48
3.0
370
    -2
100
AcDbBlockReference
  2
_Open30
 10
41.96330086360632
 20
1895.622814650692
 30
0.0
 41
8.0
 42
8.0
 43
8.0
  0
INSERT
  5
CA6
330
C74
100
AcDbEntity
  8
0
  6
HIDDEN2
 62
     0
 48
3.0
370
    -2
100
AcDbBlockReference
  2
_Open30
 10
19.19330086360609
 20
1895.622814650692
 30
0.0
 41
8.0
 42
8.0
 43
8.0
 50
180.0
  0
MTEXT
  5
CA7
330
C74
100
AcDbEntity
  8
0
  6
HIDDEN2
 62
     0
 48
3.0
100
AcDbMText
 10
-20.76692640912121
 20
1903.416848741601
 30
0.0
 40
7.5
 41
0.0
 71
     5
 72
     1
  1
\A1;{\fＭＳ Ｐゴシック|b0|i0|c128|p50;厚さ（ａ）}
 73
     1
 44
1.0
1001
ACAD
1000
MTEXTBEGIN
1070
    73
1070
     1
1070
    44
1040
1.0
1070
    74
1070
     0
1000
MTEXTEND
  0
POINT
  5
CA8
330
C74
100
AcDbEntity
  8
Defpoints
  6
HIDDEN2
 62
     0
 48
3.0
100
AcDbPoint
 10
19.19330086360608
 20
1792.78595685519
 30
0.0
  0
POINT
  5
CA9
330
C74
100
AcDbEntity
  8
Defpoints
  6
HIDDEN2
 62
     0
 48
3.0
100
AcDbPoint
 10
41.96330086360632
 20
1792.785956855189
 30
0.0
  0
POINT
  5
CAA
330
C74
100
AcDbEntity
  8
Defpoints
  6
HIDDEN2
 62
     0
 48
3.0
100
AcDbPoint
 10
41.96330086360632
 20
1895.622814650692
 30
0.0
  0
ENDBLK
  5
C80
330
C74
100
AcDbEntity
  8
0
100
AcDbBlockEnd
  0
BLOCK
  5
C8D
330
C81
100
AcDbEntity
  8
0
100
AcDbBlockBegin
  2
*D26
 70
     1
 10
0.0
 20
0.0
 30
0.0
  3
*D26
  1

  0
LINE
  5
CAB
330
C81
100
AcDbEntity
  8
0
  6
HIDDEN2
 62
     0
 48
3.0
370
    -2
100
AcDbLine
 10
26.12330086360632
 20
1834.055157704659
 30
0.0
 11
26.12330086360632
 21
1866.622814650693
 31
0.0
  0
LINE
  5
CAC
330
C81
100
AcDbEntity
  8
0
  6
HIDDEN2
 62
     0
 48
3.0
370
    -2
100
AcDbLine
 10
35.03330086360632
 20
1834.055157704659
 30
0.0
 11
35.03330086360632
 21
1866.622814650693
 31
0.0
  0
LINE
  5
CAD
330
C81
100
AcDbEntity
  8
0
  6
HIDDEN2
 62
     0
 48
3.0
370
    -2
100
AcDbLine
 10
43.03330086360631
 20
1865.622814650693
 30
0.0
 11
51.03330086360632
 21
1865.622814650693
 31
0.0
  0
LINE
  5
CAE
330
C81
100
AcDbEntity
  8
0
  6
HIDDEN2
 62
     0
 48
3.0
370
    -2
100
AcDbLine
 10
18.12330086360632
 20
1865.622814650693
 30
0.0
 11
-34.39044913639359
 21
1865.622814650693
 31
0.0
  0
LINE
  5
CAF
330
C81
100
AcDbEntity
  8
0
  6
HIDDEN2
 62
     0
 48
3.0
370
    -2
100
AcDbLine
 10
35.03330086360632
 20
1865.622814650693
 30
0.0
 11
26.12330086360632
 21
1865.622814650693
 31
0.0
  0
INSERT
  5
CB0
330
C81
100
AcDbEntity
  8
0
  6
HIDDEN2
 62
     0
 48
3.0
370
    -2
100
AcDbBlockReference
  2
_Open30
 10
35.03330086360632
 20
1865.622814650693
 30
0.0
 41
8.0
 42
8.0
 43
8.0
 50
180.0
  0
INSERT
  5
CB1
330
C81
100
AcDbEntity
  8
0
  6
HIDDEN2
 62
     0
 48
3.0
370
    -2
100
AcDbBlockReference
  2
_Open30
 10
26.12330086360632
 20
1865.622814650693
 30
0.0
 41
8.0
 42
8.0
 43
8.0
  0
MTEXT
  5
CB2
330
C81
100
AcDbEntity
  8
0
  6
HIDDEN2
 62
     0
 48
3.0
100
AcDbMText
 10
-14.28107413639358
 20
1873.416848741602
 30
0.0
 40
7.5
 41
0.0
 71
     5
 72
     1
  1
\A1;{\fＭＳ Ｐゴシック|b0|i0|c128|p50;厚さ（ｂ）}
 73
     1
 44
1.0
1001
ACAD
1000
MTEXTBEGIN
1070
    73
1070
     1
1070
    44
1040
1.0
1070
    74
1070
     0
1000
MTEXTEND
  0
POINT
  5
CB3
330
C81
100
AcDbEntity
  8
Defpoints
  6
HIDDEN2
 62
     0
 48
3.0
100
AcDbPoint
 10
26.12330086360632
 20
1833.055157704659
 30
0.0
  0
POINT
  5
CB4
330
C81
100
AcDbEntity
  8
Defpoints
  6
HIDDEN2
 62
     0
 48
3.0
100
AcDbPoint
 10
35.03330086360632
 20
1833.055157704659
 30
0.0
  0
POINT
  5
CB5
330
C81
100
AcDbEntity
  8
Defpoints
  6
HIDDEN2
 62
     0
 48
3.0
100
AcDbPoint
 10
35.03330086360632
 20
1865.622814650693
 30
0.0
  0
ENDBLK
  5
C8E
330
C81
100
AcDbEntity
  8
0
100
AcDbBlockEnd
  0
BLOCK
  5
CE9
330
CE8
100
AcDbEntity
  8
0
100
AcDbBlockBegin
  2
*D27
 70
     1
 10
0.0
 20
0.0
 30
0.0
  3
*D27
  1

  0
LINE
  5
CEA
330
CE8
100
AcDbEntity
  8
0
  6
HIDDEN2
 62
     0
 48
3.0
370
    -2
100
AcDbLine
 10
48.44964451041508
 20
1743.101199955092
 30
0.0
 11
48.44964451041509
 21
1823.101199955095
 31
0.0
  0
LINE
  5
CEB
330
CE8
100
AcDbEntity
  8
0
  6
HIDDEN2
 62
     0
 48
3.0
370
    -2
100
AcDbLine
 10
93.38499188700906
 20
1748.261475576741
 30
0.0
 11
93.38499188700906
 21
1823.101199955095
 31
0.0
  0
LINE
  5
CEC
330
CE8
100
AcDbEntity
  8
0
  6
HIDDEN2
 62
     0
 48
3.0
370
    -2
100
AcDbLine
 10
56.44964451041508
 20
1822.101199955096
 30
0.0
 11
85.38499188700905
 21
1822.101199955096
 31
0.0
  0
INSERT
  5
CED
330
CE8
100
AcDbEntity
  8
0
  6
HIDDEN2
 62
     0
 48
3.0
370
    -2
100
AcDbBlockReference
  2
_Open30
 10
48.44964451041509
 20
1822.101199955096
 30
0.0
 41
8.0
 42
8.0
 43
8.0
 50
180.0
  0
INSERT
  5
CEE
330
CE8
100
AcDbEntity
  8
0
  6
HIDDEN2
 62
     0
 48
3.0
370
    -2
100
AcDbBlockReference
  2
_Open30
 10
93.38499188700906
 20
1822.101199955096
 30
0.0
 41
8.0
 42
8.0
 43
8.0
  0
MTEXT
  5
CEF
330
CE8
100
AcDbEntity
  8
0
  6
HIDDEN2
 62
     0
 48
3.0
370
    35
100
AcDbMText
 10
70.91731819871206
 20
1830.150915864187
 30
0.0
 40
7.5
 41
0.0
 71
     5
 72
     1
  1
\A1;{\fＭＳ Ｐゴシック|b0|i0|c128|p50;カブリ}
 73
     1
 44
1.0
1001
ACAD
1000
MTEXTBEGIN
1070
    73
1070
     1
1070
    44
1040
1.0
1070
    74
1070
     0
1000
MTEXTEND
  0
POINT
  5
CF0
330
CE8
100
AcDbEntity
  8
Defpoints
  6
HIDDEN2
 62
     0
 48
3.0
100
AcDbPoint
 10
48.44964451041508
 20
1742.101199955093
 30
0.0
  0
POINT
  5
CF1
330
CE8
100
AcDbEntity
  8
Defpoints
  6
HIDDEN2
 62
     0
 48
3.0
100
AcDbPoint
 10
93.38499188700906
 20
1747.261475576741
 30
0.0
  0
POINT
  5
CF2
330
CE8
100
AcDbEntity
  8
Defpoints
  6
HIDDEN2
 62
     0
 48
3.0
100
AcDbPoint
 10
93.38499188700906
 20
1822.101199955096
 30
0.0
  0
ENDBLK
  5
CF3
330
CE8
100
AcDbEntity
  8
0
100
AcDbBlockEnd
  0
BLOCK
  5
CF5
330
CF4
100
AcDbEntity
  8
0
100
AcDbBlockBegin
  2
*D28
 70
     1
 10
0.0
 20
0.0
 30
0.0
  3
*D28
  1

  0
LINE
  5
CF6
330
CF4
100
AcDbEntity
  8
0
  6
HIDDEN2
 62
     0
 48
3.0
370
    -2
100
AcDbLine
 10
93.38499188700906
 20
1747.101475576742
 30
0.0
 11
93.38499188700906
 21
1853.101199955094
 31
0.0
  0
LINE
  5
CF7
330
CF4
100
AcDbEntity
  8
0
  6
HIDDEN2
 62
     0
 48
3.0
370
    -2
100
AcDbLine
 10
-6.502397603113667
 20
1747.239416115397
 30
0.0
 11
-6.50239760311366
 21
1853.101199955094
 31
0.0
  0
LINE
  5
CF8
330
CF4
100
AcDbEntity
  8
0
  6
HIDDEN2
 62
     0
 48
3.0
370
    -2
100
AcDbLine
 10
85.38499188700905
 20
1852.101199955096
 30
0.0
 11
1.497602396886337
 21
1852.101199955096
 31
0.0
  0
INSERT
  5
CF9
330
CF4
100
AcDbEntity
  8
0
  6
HIDDEN2
 62
     0
 48
3.0
370
    -2
100
AcDbBlockReference
  2
_Open30
 10
93.38499188700906
 20
1852.101199955096
 30
0.0
 41
8.0
 42
8.0
 43
8.0
  0
INSERT
  5
CFA
330
CF4
100
AcDbEntity
  8
0
  6
HIDDEN2
 62
     0
 48
3.0
370
    -2
100
AcDbBlockReference
  2
_Open30
 10
-6.50239760311366
 20
1852.101199955096
 30
0.0
 41
8.0
 42
8.0
 43
8.0
 50
180.0
  0
MTEXT
  5
CFB
330
CF4
100
AcDbEntity
  8
0
  6
HIDDEN2
 62
     0
 48
3.0
100
AcDbMText
 10
43.44129714194768
 20
1859.95915450055
 30
0.0
 40
7.5
 41
0.0
 71
     5
 72
     1
  1
\A1;{\fＭＳ Ｐゴシック|b0|i0|c128|p50;外径（ｄ）}
 73
     1
 44
1.0
1001
ACAD
1000
MTEXTBEGIN
1070
    73
1070
     1
1070
    44
1040
1.0
1070
    74
1070
     0
1000
MTEXTEND
  0
POINT
  5
CFC
330
CF4
100
AcDbEntity
  8
Defpoints
  6
HIDDEN2
 62
     0
 48
3.0
100
AcDbPoint
 10
93.38499188700906
 20
1746.101475576742
 30
0.0
  0
POINT
  5
CFD
330
CF4
100
AcDbEntity
  8
Defpoints
  6
HIDDEN2
 62
     0
 48
3.0
100
AcDbPoint
 10
-6.502397603113667
 20
1746.239416115397
 30
0.0
  0
POINT
  5
CFE
330
CF4
100
AcDbEntity
  8
Defpoints
  6
HIDDEN2
 62
     0
 48
3.0
100
AcDbPoint
 10
-6.50239760311366
 20
1852.101199955096
 30
0.0
  0
ENDBLK
  5
CFF
330
CF4
100
AcDbEntity
  8
0
100
AcDbBlockEnd
  0
BLOCK
  5
D01
330
D00
100
AcDbEntity
  8
0
100
AcDbBlockBegin
  2
*D29
 70
     1
 10
0.0
 20
0.0
 30
0.0
  3
*D29
  1

  0
LINE
  5
D02
330
D00
100
AcDbEntity
  8
0
  6
HIDDEN2
 62
     0
 48
3.0
370
    -2
100
AcDbLine
 10
161.7904445104147
 20
1788.931016884282
 30
0.0
 11
161.7904445104147
 21
1823.119534934655
 31
0.0
  0
LINE
  5
D03
330
D00
100
AcDbEntity
  8
0
  6
HIDDEN2
 62
     0
 48
3.0
370
    -2
100
AcDbLine
 10
170.1424445104149
 20
1788.931016884282
 30
0.0
 11
170.1424445104149
 21
1823.119534934655
 31
0.0
  0
LINE
  5
D04
330
D00
100
AcDbEntity
  8
0
  6
HIDDEN2
 62
     0
 48
3.0
370
    -2
100
AcDbLine
 10
178.1424445104149
 20
1822.119534934655
 30
0.0
 11
186.1424445104149
 21
1822.119534934655
 31
0.0
  0
LINE
  5
D05
330
D00
100
AcDbEntity
  8
0
  6
HIDDEN2
 62
     0
 48
3.0
370
    -2
100
AcDbLine
 10
153.7904445104147
 20
1822.119534934655
 30
0.0
 11
101.5716945104147
 21
1822.119534934655
 31
0.0
  0
LINE
  5
D06
330
D00
100
AcDbEntity
  8
0
  6
HIDDEN2
 62
     0
 48
3.0
370
    -2
100
AcDbLine
 10
170.1424445104149
 20
1822.119534934655
 30
0.0
 11
161.7904445104147
 21
1822.119534934655
 31
0.0
  0
INSERT
  5
D07
330
D00
100
AcDbEntity
  8
0
  6
HIDDEN2
 62
     0
 48
3.0
370
    -2
100
AcDbBlockReference
  2
_Open30
 10
170.1424445104149
 20
1822.119534934655
 30
0.0
 41
8.0
 42
8.0
 43
8.0
 50
180.0
  0
INSERT
  5
D08
330
D00
100
AcDbEntity
  8
0
  6
HIDDEN2
 62
     0
 48
3.0
370
    -2
100
AcDbBlockReference
  2
_Open30
 10
161.7904445104147
 20
1822.119534934655
 30
0.0
 41
8.0
 42
8.0
 43
8.0
  0
MTEXT
  5
D09
330
D00
100
AcDbEntity
  8
0
  6
HIDDEN2
 62
     0
 48
3.0
100
AcDbMText
 10
121.6810695104147
 20
1829.913569025564
 30
0.0
 40
7.5
 41
0.0
 71
     5
 72
     1
  1
\A1;{\fＭＳ Ｐゴシック|b0|i0|c128|p50;厚さ（ｂ）}
 73
     1
 44
1.0
1001
ACAD
1000
MTEXTBEGIN
1070
    73
1070
     1
1070
    44
1040
1.0
1070
    74
1070
     0
1000
MTEXTEND
  0
POINT
  5
D0A
330
D00
100
AcDbEntity
  8
Defpoints
  6
HIDDEN2
 62
     0
 48
3.0
100
AcDbPoint
 10
161.7904445104147
 20
1787.931016884282
 30
0.0
  0
POINT
  5
D0B
330
D00
100
AcDbEntity
  8
Defpoints
  6
HIDDEN2
 62
     0
 48
3.0
100
AcDbPoint
 10
170.1424445104149
 20
1787.931016884282
 30
0.0
  0
POINT
  5
D0C
330
D00
100
AcDbEntity
  8
Defpoints
  6
HIDDEN2
 62
     0
 48
3.0
100
AcDbPoint
 10
170.1424445104149
 20
1822.119534934655
 30
0.0
  0
ENDBLK
  5
D0D
330
D00
100
AcDbEntity
  8
0
100
AcDbBlockEnd
  0
BLOCK
  5
D0F
330
D0E
100
AcDbEntity
  8
0
100
AcDbBlockBegin
  2
*D30
 70
     1
 10
0.0
 20
0.0
 30
0.0
  3
*D30
  1

  0
LINE
  5
D10
330
D0E
100
AcDbEntity
  8
0
  6
HIDDEN2
 62
     0
 48
3.0
370
    -2
100
AcDbLine
 10
153.4384445104151
 20
1748.947599955074
 30
0.0
 11
153.4384445104151
 21
1853.101199955092
 31
0.0
  0
LINE
  5
D11
330
D0E
100
AcDbEntity
  8
0
  6
HIDDEN2
 62
     0
 48
3.0
370
    -2
100
AcDbLine
 10
178.4944445104148
 20
1748.947599955074
 30
0.0
 11
178.4944445104148
 21
1853.101199955092
 31
0.0
  0
LINE
  5
D12
330
D0E
100
AcDbEntity
  8
0
  6
HIDDEN2
 62
     0
 48
3.0
370
    -2
100
AcDbLine
 10
170.4944445104148
 20
1852.101199955091
 30
0.0
 11
161.4384445104151
 21
1852.101199955091
 31
0.0
  0
LINE
  5
D13
330
D0E
100
AcDbEntity
  8
0
  6
HIDDEN2
 62
     0
 48
3.0
370
    -2
100
AcDbLine
 10
153.4384445104151
 20
1852.101199955091
 30
0.0
 11
93.51798996496052
 21
1852.101199955091
 31
0.0
  0
INSERT
  5
D14
330
D0E
100
AcDbEntity
  8
0
  6
HIDDEN2
 62
     0
 48
3.0
370
    -2
100
AcDbBlockReference
  2
_Open30
 10
178.4944445104148
 20
1852.101199955091
 30
0.0
 41
8.0
 42
8.0
 43
8.0
  0
INSERT
  5
D15
330
D0E
100
AcDbEntity
  8
0
  6
HIDDEN2
 62
     0
 48
3.0
370
    -2
100
AcDbBlockReference
  2
_Open30
 10
153.4384445104151
 20
1852.101199955091
 30
0.0
 41
8.0
 42
8.0
 43
8.0
 50
180.0
  0
MTEXT
  5
D16
330
D0E
100
AcDbEntity
  8
0
  6
HIDDEN2
 62
     0
 48
3.0
100
AcDbMText
 10
113.4782172376878
 20
1859.895234046001
 30
0.0
 40
7.5
 41
0.0
 71
     5
 72
     1
  1
\A1;{\fＭＳ Ｐゴシック|b0|i0|c128|p50;厚さ（ａ）}
 73
     1
 44
1.0
1001
ACAD
1000
MTEXTBEGIN
1070
    73
1070
     1
1070
    44
1040
1.0
1070
    74
1070
     0
1000
MTEXTEND
  0
POINT
  5
D17
330
D0E
100
AcDbEntity
  8
Defpoints
  6
HIDDEN2
 62
     0
 48
3.0
100
AcDbPoint
 10
153.4384445104151
 20
1747.947599955073
 30
0.0
  0
POINT
  5
D18
330
D0E
100
AcDbEntity
  8
Defpoints
  6
HIDDEN2
 62
     0
 48
3.0
100
AcDbPoint
 10
178.4944445104148
 20
1747.947599955073
 30
0.0
  0
POINT
  5
D19
330
D0E
100
AcDbEntity
  8
Defpoints
  6
HIDDEN2
 62
     0
 48
3.0
100
AcDbPoint
 10
178.4944445104148
 20
1852.101199955091
 30
0.0
  0
ENDBLK
  5
D1A
330
D0E
100
AcDbEntity
  8
0
100
AcDbBlockEnd
  0
BLOCK
  5
FE7
330
FDD
100
AcDbEntity
  8
0
100
AcDbBlockBegin
  2
*D32
 70
     1
 10
0.0
 20
0.0
 30
0.0
  3
*D32
  1

  0
LINE
  5
1010
330
FDD
100
AcDbEntity
  8
0
  6
HIDDEN2
 62
     0
 48
3.0
370
    -2
100
AcDbLine
 10
-133.2957917613725
 20
2252.399708155818
 30
0.0
 11
-133.2957917613725
 21
2332.399708155821
 31
0.0
  0
LINE
  5
1011
330
FDD
100
AcDbEntity
  8
0
  6
HIDDEN2
 62
     0
 48
3.0
370
    -2
100
AcDbLine
 10
-88.36044438477857
 20
2257.559983777466
 30
0.0
 11
-88.36044438477857
 21
2332.399708155821
 31
0.0
  0
LINE
  5
1012
330
FDD
100
AcDbEntity
  8
0
  6
HIDDEN2
 62
     0
 48
3.0
370
    -2
100
AcDbLine
 10
-125.2957917613725
 20
2331.399708155821
 30
0.0
 11
-96.36044438477858
 21
2331.399708155821
 31
0.0
  0
INSERT
  5
1013
330
FDD
100
AcDbEntity
  8
0
  6
HIDDEN2
 62
     0
 48
3.0
370
    -2
100
AcDbBlockReference
  2
_Open30
 10
-133.2957917613725
 20
2331.399708155821
 30
0.0
 41
8.0
 42
8.0
 43
8.0
 50
180.0
  0
INSERT
  5
1014
330
FDD
100
AcDbEntity
  8
0
  6
HIDDEN2
 62
     0
 48
3.0
370
    -2
100
AcDbBlockReference
  2
_Open30
 10
-88.36044438477857
 20
2331.399708155821
 30
0.0
 41
8.0
 42
8.0
 43
8.0
  0
MTEXT
  5
1015
330
FDD
100
AcDbEntity
  8
0
  6
HIDDEN2
 62
     0
 48
3.0
370
    35
100
AcDbMText
 10
-110.8281180730755
 20
2339.449424064912
 30
0.0
 40
7.5
 41
0.0
 71
     5
 72
     1
  1
\A1;{\fＭＳ Ｐゴシック|b0|i0|c128|p50;カブリ}
 73
     1
 44
1.0
1001
ACAD
1000
MTEXTBEGIN
1070
    73
1070
     1
1070
    44
1040
1.0
1070
    74
1070
     0
1000
MTEXTEND
  0
POINT
  5
1016
330
FDD
100
AcDbEntity
  8
Defpoints
  6
HIDDEN2
 62
     0
 48
3.0
100
AcDbPoint
 10
-133.2957917613725
 20
2251.399708155819
 30
0.0
  0
POINT
  5
1017
330
FDD
100
AcDbEntity
  8
Defpoints
  6
HIDDEN2
 62
     0
 48
3.0
100
AcDbPoint
 10
-88.36044438477857
 20
2256.559983777466
 30
0.0
  0
POINT
  5
1018
330
FDD
100
AcDbEntity
  8
Defpoints
  6
HIDDEN2
 62
     0
 48
3.0
100
AcDbPoint
 10
-88.36044438477857
 20
2331.399708155821
 30
0.0
  0
ENDBLK
  5
FE8
330
FDD
100
AcDbEntity
  8
0
100
AcDbBlockEnd
  0
BLOCK
  5
FF3
330
FE9
100
AcDbEntity
  8
0
100
AcDbBlockBegin
  2
*D33
 70
     1
 10
0.0
 20
0.0
 30
0.0
  3
*D33
  1

  0
LINE
  5
1019
330
FE9
100
AcDbEntity
  8
0
  6
HIDDEN2
 62
     0
 48
3.0
370
    -2
100
AcDbLine
 10
-88.36044438477857
 20
2256.399983777467
 30
0.0
 11
-88.36044438477857
 21
2362.399708155821
 31
0.0
  0
LINE
  5
101A
330
FE9
100
AcDbEntity
  8
0
  6
HIDDEN2
 62
     0
 48
3.0
370
    -2
100
AcDbLine
 10
-188.2478338749013
 20
2256.537924316122
 30
0.0
 11
-188.2478338749013
 21
2362.399708155821
 31
0.0
  0
LINE
  5
101B
330
FE9
100
AcDbEntity
  8
0
  6
HIDDEN2
 62
     0
 48
3.0
370
    -2
100
AcDbLine
 10
-96.36044438477858
 20
2361.399708155821
 30
0.0
 11
-180.2478338749013
 21
2361.399708155821
 31
0.0
  0
INSERT
  5
101C
330
FE9
100
AcDbEntity
  8
0
  6
HIDDEN2
 62
     0
 48
3.0
370
    -2
100
AcDbBlockReference
  2
_Open30
 10
-88.36044438477857
 20
2361.399708155821
 30
0.0
 41
8.0
 42
8.0
 43
8.0
  0
INSERT
  5
101D
330
FE9
100
AcDbEntity
  8
0
  6
HIDDEN2
 62
     0
 48
3.0
370
    -2
100
AcDbBlockReference
  2
_Open30
 10
-188.2478338749013
 20
2361.399708155821
 30
0.0
 41
8.0
 42
8.0
 43
8.0
 50
180.0
  0
MTEXT
  5
101E
330
FE9
100
AcDbEntity
  8
0
  6
HIDDEN2
 62
     0
 48
3.0
100
AcDbMText
 10
-138.3041391298399
 20
2369.257662701276
 30
0.0
 40
7.5
 41
0.0
 71
     5
 72
     1
  1
\A1;{\fＭＳ Ｐゴシック|b0|i0|c128|p50;外径（ｄ）}
 73
     1
 44
1.0
1001
ACAD
1000
MTEXTBEGIN
1070
    73
1070
     1
1070
    44
1040
1.0
1070
    74
1070
     0
1000
MTEXTEND
  0
POINT
  5
101F
330
FE9
100
AcDbEntity
  8
Defpoints
  6
HIDDEN2
 62
     0
 48
3.0
100
AcDbPoint
 10
-88.36044438477857
 20
2255.399983777467
 30
0.0
  0
POINT
  5
1020
330
FE9
100
AcDbEntity
  8
Defpoints
  6
HIDDEN2
 62
     0
 48
3.0
100
AcDbPoint
 10
-188.2478338749013
 20
2255.537924316122
 30
0.0
  0
POINT
  5
1021
330
FE9
100
AcDbEntity
  8
Defpoints
  6
HIDDEN2
 62
     0
 48
3.0
100
AcDbPoint
 10
-188.2478338749013
 20
2361.399708155821
 30
0.0
  0
ENDBLK
  5
FF4
330
FE9
100
AcDbEntity
  8
0
100
AcDbBlockEnd
  0
BLOCK
  5
1001
330
FF5
100
AcDbEntity
  8
0
100
AcDbBlockBegin
  2
*D34
 70
     1
 10
0.0
 20
0.0
 30
0.0
  3
*D34
  1

  0
LINE
  5
1022
330
FF5
100
AcDbEntity
  8
0
  6
HIDDEN2
 62
     0
 48
3.0
370
    -2
100
AcDbLine
 10
-19.95499176137295
 20
2298.229525085007
 30
0.0
 11
-19.95499176137295
 21
2332.41804313538
 31
0.0
  0
LINE
  5
1023
330
FF5
100
AcDbEntity
  8
0
  6
HIDDEN2
 62
     0
 48
3.0
370
    -2
100
AcDbLine
 10
-11.60299176137272
 20
2298.229525085007
 30
0.0
 11
-11.60299176137272
 21
2332.41804313538
 31
0.0
  0
LINE
  5
1024
330
FF5
100
AcDbEntity
  8
0
  6
HIDDEN2
 62
     0
 48
3.0
370
    -2
100
AcDbLine
 10
-3.602991761372718
 20
2331.41804313538
 30
0.0
 11
4.397008238627281
 21
2331.41804313538
 31
0.0
  0
LINE
  5
1025
330
FF5
100
AcDbEntity
  8
0
  6
HIDDEN2
 62
     0
 48
3.0
370
    -2
100
AcDbLine
 10
-27.95499176137295
 20
2331.41804313538
 30
0.0
 11
-80.17374176137295
 21
2331.41804313538
 31
0.0
  0
LINE
  5
1026
330
FF5
100
AcDbEntity
  8
0
  6
HIDDEN2
 62
     0
 48
3.0
370
    -2
100
AcDbLine
 10
-11.60299176137272
 20
2331.41804313538
 30
0.0
 11
-19.95499176137295
 21
2331.41804313538
 31
0.0
  0
INSERT
  5
1027
330
FF5
100
AcDbEntity
  8
0
  6
HIDDEN2
 62
     0
 48
3.0
370
    -2
100
AcDbBlockReference
  2
_Open30
 10
-11.60299176137272
 20
2331.41804313538
 30
0.0
 41
8.0
 42
8.0
 43
8.0
 50
180.0
  0
INSERT
  5
1028
330
FF5
100
AcDbEntity
  8
0
  6
HIDDEN2
 62
     0
 48
3.0
370
    -2
100
AcDbBlockReference
  2
_Open30
 10
-19.95499176137295
 20
2331.41804313538
 30
0.0
 41
8.0
 42
8.0
 43
8.0
  0
MTEXT
  5
1029
330
FF5
100
AcDbEntity
  8
0
  6
HIDDEN2
 62
     0
 48
3.0
100
AcDbMText
 10
-60.06436676137294
 20
2339.212077226289
 30
0.0
 40
7.5
 41
0.0
 71
     5
 72
     1
  1
\A1;{\fＭＳ Ｐゴシック|b0|i0|c128|p50;厚さ（ｂ）}
 73
     1
 44
1.0
1001
ACAD
1000
MTEXTBEGIN
1070
    73
1070
     1
1070
    44
1040
1.0
1070
    74
1070
     0
1000
MTEXTEND
  0
POINT
  5
102A
330
FF5
100
AcDbEntity
  8
Defpoints
  6
HIDDEN2
 62
     0
 48
3.0
100
AcDbPoint
 10
-19.95499176137295
 20
2297.229525085007
 30
0.0
  0
POINT
  5
102B
330
FF5
100
AcDbEntity
  8
Defpoints
  6
HIDDEN2
 62
     0
 48
3.0
100
AcDbPoint
 10
-11.60299176137272
 20
2297.229525085007
 30
0.0
  0
POINT
  5
102C
330
FF5
100
AcDbEntity
  8
Defpoints
  6
HIDDEN2
 62
     0
 48
3.0
100
AcDbPoint
 10
-11.60299176137272
 20
2331.41804313538
 30
0.0
  0
ENDBLK
  5
1002
330
FF5
100
AcDbEntity
  8
0
100
AcDbBlockEnd
  0
BLOCK
  5
100E
330
1003
100
AcDbEntity
  8
0
100
AcDbBlockBegin
  2
*D35
 70
     1
 10
0.0
 20
0.0
 30
0.0
  3
*D35
  1

  0
LINE
  5
102D
330
1003
100
AcDbEntity
  8
0
  6
HIDDEN2
 62
     0
 48
3.0
370
    -2
100
AcDbLine
 10
-28.30699176137253
 20
2258.246108155798
 30
0.0
 11
-28.30699176137252
 21
2362.399708155817
 31
0.0
  0
LINE
  5
102E
330
1003
100
AcDbEntity
  8
0
  6
HIDDEN2
 62
     0
 48
3.0
370
    -2
100
AcDbLine
 10
-3.25099176137283
 20
2258.246108155798
 30
0.0
 11
-3.250991761372824
 21
2362.399708155817
 31
0.0
  0
LINE
  5
102F
330
1003
100
AcDbEntity
  8
0
  6
HIDDEN2
 62
     0
 48
3.0
370
    -2
100
AcDbLine
 10
-11.25099176137282
 20
2361.399708155818
 30
0.0
 11
-20.30699176137252
 21
2361.399708155818
 31
0.0
  0
LINE
  5
1030
330
1003
100
AcDbEntity
  8
0
  6
HIDDEN2
 62
     0
 48
3.0
370
    -2
100
AcDbLine
 10
-28.30699176137252
 20
2361.399708155818
 30
0.0
 11
-88.22744630682711
 21
2361.399708155818
 31
0.0
  0
INSERT
  5
1031
330
1003
100
AcDbEntity
  8
0
  6
HIDDEN2
 62
     0
 48
3.0
370
    -2
100
AcDbBlockReference
  2
_Open30
 10
-3.250991761372824
 20
2361.399708155818
 30
0.0
 41
8.0
 42
8.0
 43
8.0
  0
INSERT
  5
1032
330
1003
100
AcDbEntity
  8
0
  6
HIDDEN2
 62
     0
 48
3.0
370
    -2
100
AcDbBlockReference
  2
_Open30
 10
-28.30699176137252
 20
2361.399708155818
 30
0.0
 41
8.0
 42
8.0
 43
8.0
 50
180.0
  0
MTEXT
  5
1033
330
1003
100
AcDbEntity
  8
0
  6
HIDDEN2
 62
     0
 48
3.0
100
AcDbMText
 10
-68.26721903409984
 20
2369.193742246726
 30
0.0
 40
7.5
 41
0.0
 71
     5
 72
     1
  1
\A1;{\fＭＳ Ｐゴシック|b0|i0|c128|p50;厚さ（ａ）}
 73
     1
 44
1.0
1001
ACAD
1000
MTEXTBEGIN
1070
    73
1070
     1
1070
    44
1040
1.0
1070
    74
1070
     0
1000
MTEXTEND
  0
POINT
  5
1034
330
1003
100
AcDbEntity
  8
Defpoints
  6
HIDDEN2
 62
     0
 48
3.0
100
AcDbPoint
 10
-28.30699176137253
 20
2257.246108155798
 30
0.0
  0
POINT
  5
1035
330
1003
100
AcDbEntity
  8
Defpoints
  6
HIDDEN2
 62
     0
 48
3.0
100
AcDbPoint
 10
-3.25099176137283
 20
2257.246108155798
 30
0.0
  0
POINT
  5
1036
330
1003
100
AcDbEntity
  8
Defpoints
  6
HIDDEN2
 62
     0
 48
3.0
100
AcDbPoint
 10
-3.250991761372824
 20
2361.399708155818
 30
0.0
  0
ENDBLK
  5
100F
330
1003
100
AcDbEntity
  8
0
100
AcDbBlockEnd
  0
ENDSEC
  0
SECTION
  2
ENTITIES
  0
DIMENSION
  5
E7F
330
1F
100
AcDbEntity
  8
0
  6
HIDDEN2
 48
3.0
370
    35
100
AcDbDimension
  2
*D32
 10
-88.36044438477857
 20
2331.399708155821
 30
0.0
 11
-110.8281180730755
 21
2339.449424064912
 31
0.0
 70
    32
  1
{\fＭＳ Ｐゴシック|b0|i0|c128|p50;カブリ}
 71
     5
 42
44.93534737659397
  3
JIS
100
AcDbAlignedDimension
 13
-133.2957917613725
 23
2251.399708155819
 33
0.0
 14
-88.36044438477857
 24
2256.559983777466
 34
0.0
100
AcDbRotatedDimension
1001
ACAD
1000
DSTYLE
1002
{
1070
   343
1005
33F
1070
   342
1005
0
1070
   173
1070
     1
1070
   344
1005
33F
1070
    41
1040
8.0
1070
   147
1040
3.0
1070
   140
1040
7.5
1002
}
  0
ARC
  5
E80
330
1F
100
AcDbEntity
  8
Object
100
AcDbCircle
 39
6.681599999999998
 10
-138.3069917613649
 20
2251.399708155821
 30
0.0
 40
8.351999999999996
100
AcDbArc
 50
357.4669484747381
 51
180.000000000026
  0
LINE
  5
E81
330
1F
100
AcDbEntity
  8
Object
100
AcDbLine
 39
6.681599999999998
 10
-133.6694784126588
 20
2248.195650910197
 30
0.0
 11
-130.082738868085
 21
2250.017844961119
 31
0.0
  0
ARC
  5
E82
330
1F
100
AcDbEntity
  8
Object
100
AcDbCircle
 39
6.681599999999998
 10
-130.3337664568259
 20
2299.180627870729
 30
0.0
 40
1.670400000000005
100
AcDbArc
 50
80.52631578946845
 51
162.146995389891
  0
ARC
  5
E83
330
1F
100
AcDbEntity
  8
Object
100
AcDbCircle
 39
6.681599999999998
 10
-131.2077917613692
 20
2286.604651336
 30
0.0
 40
3.340799999999998
100
AcDbArc
 50
78.59900179461354
 51
180.0
  0
ARC
  5
E84
330
1F
100
AcDbEntity
  8
Object
100
AcDbCircle
 39
6.681599999999998
 10
-132.9196410991802
 20
2260.826474865709
 30
0.0
 40
2.505599999999998
100
AcDbArc
 50
240.2522467421887
 51
310.0000000000008
  0
ARC
  5
E85
330
1F
100
AcDbEntity
  8
Object
100
AcDbCircle
 10
-125.3121968557151
 20
2234.173797116321
 30
0.0
 40
7.099199999999985
100
AcDbArc
 50
206.9322247903794
 51
299.2246675663433
  0
ARC
  5
E86
330
1F
100
AcDbEntity
  8
Object
100
AcDbCircle
 39
6.681599999999998
 10
-161.6925917613649
 20
2216.351163193479
 30
0.0
 40
33.408
100
AcDbArc
 50
0.0
 51
26.93222479037944
  0
LINE
  5
E87
330
1F
100
AcDbEntity
  8
Object
100
AcDbLine
 39
6.681599999999998
 10
-128.6629717899473
 20
2232.471481663734
 30
0.0
 11
-133.3671131745632
 21
2241.730940017757
 31
0.0
  0
LINE
  5
E88
330
1F
100
AcDbEntity
  8
Object
100
AcDbLine
 39
6.681599999999998
 10
-131.8044793381489
 20
2261.7622066881
 30
0.0
 11
-113.7542936201176
 21
2276.908110866781
 31
0.0
  0
ARC
  5
E89
330
1F
100
AcDbEntity
  8
Object
100
AcDbCircle
 39
6.681599999999998
 10
-138.3069917613711
 20
2251.399708155816
 30
0.0
 40
43.43039999999999
100
AcDbArc
 50
46.57959294499041
 51
83.42040705502087
  0
DIMENSION
  5
E8A
330
1F
100
AcDbEntity
  8
0
  6
HIDDEN2
 48
3.0
100
AcDbDimension
  2
*D33
 10
-188.2478338749013
 20
2361.399708155821
 30
0.0
 11
-138.3041391298399
 21
2369.257662701276
 31
0.0
 70
    32
  1
{\fＭＳ Ｐゴシック|b0|i0|c128|p50;外径（ｄ）}
 71
     5
 42
99.88738949012272
  3
JIS
100
AcDbAlignedDimension
 13
-88.36044438477857
 23
2255.399983777467
 33
0.0
 14
-188.2478338749013
 24
2255.537924316122
 34
0.0
100
AcDbRotatedDimension
1001
ACAD
1000
DSTYLE
1002
{
1070
   343
1005
33F
1070
   342
1005
0
1070
   173
1070
     1
1070
   344
1005
33F
1070
    41
1040
8.0
1070
   147
1040
3.0
1070
   140
1040
7.5
1002
}
  0
LINE
  5
E8B
330
1F
100
AcDbEntity
  8
Object
100
AcDbLine
 39
6.681599999999998
 10
-149.6412100890894
 20
2256.004003818063
 30
0.0
 11
-167.6913958071179
 21
2271.149907996746
 31
0.0
  0
ARC
  5
E8C
330
1F
100
AcDbEntity
  8
Object
100
AcDbCircle
 39
6.681599999999998
 10
-138.3069917613711
 20
2251.399708155816
 30
0.0
 40
43.43039999999999
100
AcDbArc
 50
146.5795929449755
 51
183.4204070550016
  0
ARC
  5
E8D
330
1F
100
AcDbEntity
  8
Object
100
AcDbCircle
 39
6.681599999999998
 10
-138.3069917613589
 20
2251.399708155816
 30
0.0
 40
39.25439999999999
100
AcDbArc
 50
151.4009982054046
 51
178.599001794627
  0
ARC
  5
E8E
330
1F
100
AcDbEntity
  8
Object
100
AcDbCircle
 39
6.681599999999998
 10
-138.3069917613587
 20
2251.399708155816
 30
0.0
 40
5.011199999999997
100
AcDbArc
 50
102.4292571326354
 51
127.5707428675619
  0
ARC
  5
E8F
330
1F
100
AcDbEntity
  8
Object
100
AcDbCircle
 39
6.681599999999998
 10
-138.3069917613711
 20
2251.399708155816
 30
0.0
 40
5.011199999999997
100
AcDbArc
 50
52.42925713254186
 51
77.57074286746079
  0
ARC
  5
E90
330
1F
100
AcDbEntity
  8
Object
100
AcDbCircle
 39
6.681599999999998
 10
-148.5260483280424
 20
2255.068271995669
 30
0.0
 40
2.505599999999998
100
AcDbArc
 50
340.2522467422159
 51
50.00000000001115
  0
ARC
  5
E91
330
1F
100
AcDbEntity
  8
Object
100
AcDbCircle
 39
6.681599999999998
 10
-186.5831391377959
 20
2255.399983777289
 30
0.0
 40
1.670400000000005
100
AcDbArc
 50
93.64247829430878
 51
175.2631578947348
  0
LINE
  5
E92
330
1F
100
AcDbEntity
  8
Object
100
AcDbLine
 39
6.681599999999998
 10
-144.3410819477652
 20
2243.265070813147
 30
0.0
 11
-143.5811324762747
 21
2244.760927316406
 31
0.0
  0
ARC
  5
E93
330
1F
100
AcDbEntity
  8
Object
100
AcDbCircle
 39
6.681599999999998
 10
-138.3069917613725
 20
2251.399708155819
 30
0.0
 40
5.011199999999997
100
AcDbArc
 50
152.4292571325064
 51
212.9356390574463
  0
ARC
  5
E94
330
1F
100
AcDbEntity
  8
Object
100
AcDbCircle
 39
6.681599999999998
 10
-142.7931881809521
 20
2248.493497571017
 30
0.0
 40
0.3340799999999999
100
AcDbArc
 50
243.0677752096126
 51
32.9356390573533
  0
ARC
  5
E95
330
1F
100
AcDbEntity
  8
Object
100
AcDbCircle
 39
6.681599999999998
 10
-141.5662255408719
 20
2255.636382966203
 30
0.0
 40
0.3340799999999999
100
AcDbArc
 50
240.2865606114558
 51
307.5707428674575
  0
ARC
  5
E96
330
1F
100
AcDbEntity
  8
Object
100
AcDbCircle
 39
6.681599999999998
 10
-143.0452619680299
 20
2253.873735990561
 30
0.0
 40
0.3340799999999999
100
AcDbArc
 50
332.4292571325064
 51
39.71343938850773
  0
ARC
  5
E97
330
1F
100
AcDbEntity
  8
Object
100
AcDbCircle
 39
6.681599999999998
 10
-142.1457936747276
 20
2254.620845425479
 30
0.0
 40
0.8352000000000032
100
AcDbArc
 50
60.28656061145301
 51
219.7134393885077
  0
LINE
  5
E98
330
1F
100
AcDbEntity
  8
Object
100
AcDbLine
 39
6.681599999999998
 10
-132.2729015749538
 20
2243.265070813146
 30
0.0
 11
-133.032851046444
 21
2244.760927316404
 31
0.0
  0
ARC
  5
E99
330
1F
100
AcDbEntity
  8
Object
100
AcDbCircle
 39
6.681599999999998
 10
-138.3069917613725
 20
2251.399708155819
 30
0.0
 40
5.011199999999997
100
AcDbArc
 50
327.0643609426467
 51
27.57074286752003
  0
ARC
  5
E9A
330
1F
100
AcDbEntity
  8
Object
100
AcDbCircle
 39
6.681599999999998
 10
-133.8207953417778
 20
2248.493497571017
 30
0.0
 40
0.3340799999999999
100
AcDbArc
 50
147.0643609426467
 51
296.9322247903874
  0
ARC
  5
E9B
330
1F
100
AcDbEntity
  8
Object
100
AcDbCircle
 39
6.681599999999998
 10
-133.5687215547038
 20
2253.873735990569
 30
0.0
 40
0.3340799999999999
100
AcDbArc
 50
140.2865606115867
 51
207.5707428675821
  0
ARC
  5
E9C
330
1F
100
AcDbEntity
  8
Object
100
AcDbCircle
 39
6.681599999999998
 10
-135.0477579818645
 20
2255.636382966208
 30
0.0
 40
0.3340799999999999
100
AcDbArc
 50
232.4292571326375
 51
299.7134393886336
  0
ARC
  5
E9D
330
1F
100
AcDbEntity
  8
Object
100
AcDbCircle
 39
6.681599999999998
 10
-134.4681898480071
 20
2254.620845425487
 30
0.0
 40
0.8352000000000032
100
AcDbArc
 50
320.2865606115867
 51
119.713439388635
  0
ARC
  5
E9E
330
1F
100
AcDbEntity
  8
Object
100
AcDbCircle
 39
6.681599999999998
 10
-155.4285917613537
 20
2245.412413051049
 30
0.0
 40
1.670399999999998
100
AcDbArc
 50
333.0677752095944
 51
99.99999999997983
  0
ARC
  5
E9F
330
1F
100
AcDbEntity
  8
Object
100
AcDbCircle
 39
6.681599999999998
 10
-158.4330541557363
 20
2243.186476655902
 30
0.0
 40
0.8352
100
AcDbArc
 50
333.0677752095944
 51
99.99999999997504
  0
ARC
  5
EA0
330
1F
100
AcDbEntity
  8
Object
100
AcDbCircle
 39
6.681599999999998
 10
-144.9820631243642
 20
2251.104410240375
 30
0.0
 40
1.670399999999998
100
AcDbArc
 50
169.8175797938416
 51
243.0677752096111
  0
ARC
  5
EA1
330
1F
100
AcDbEntity
  8
Object
100
AcDbCircle
 39
6.681599999999998
 10
-146.9095369774422
 20
2249.273228309067
 30
0.0
 40
0.8352
100
AcDbArc
 50
63.06777520961113
 51
153.0677752096206
  0
ARC
  5
EA2
330
1F
100
AcDbEntity
  8
Object
100
AcDbCircle
 39
6.681599999999998
 10
-150.7149225123127
 20
2254.724403180272
 30
0.0
 40
1.670399999999998
100
AcDbArc
 50
279.9999999999855
 51
49.9999999999893
  0
LINE
  5
EA3
330
1F
100
AcDbEntity
  8
Object
100
AcDbLine
 39
6.681599999999998
 10
-158.5780851137344
 20
2244.008988091214
 30
0.0
 11
-172.3244534386151
 21
2241.585132468785
 31
0.0
  0
ARC
  5
EA4
330
1F
100
AcDbEntity
  8
Object
100
AcDbCircle
 39
6.681599999999998
 10
-178.3251778091789
 20
2249.007885920944
 30
0.0
 40
3.340799999999998
100
AcDbArc
 50
183.4204070550016
 51
279.9999999999855
  0
ARC
  5
EA5
330
1F
100
AcDbEntity
  8
Object
100
AcDbCircle
 39
6.681599999999998
 10
-138.3069917613687
 20
2251.399708155803
 30
0.0
 40
48.44159999999999
100
AcDbArc
 50
186.7586916630896
 51
192.1886767579456
  0
ARC
  5
EA6
330
1F
100
AcDbEntity
  8
Object
100
AcDbCircle
 39
6.681599999999998
 10
-186.8440859313598
 20
2243.300299652105
 30
0.0
 40
2.437030293083787
100
AcDbArc
 50
292.5898467153558
 51
86.35752170568798
  0
ARC
  5
EA7
330
1F
100
AcDbEntity
  8
Object
100
AcDbCircle
 39
6.681599999999998
 10
-138.30699176137
 20
2251.399708155803
 30
0.0
 40
48.44159999999999
100
AcDbArc
 50
177.2850074525782
 51
182.7149925474217
  0
ARC
  5
EA8
330
1F
100
AcDbEntity
  8
Object
100
AcDbCircle
 39
6.681599999999998
 10
-174.2098558924661
 20
2252.277781127902
 30
0.0
 40
3.340799999999998
100
AcDbArc
 50
178.5990017946009
 51
279.9999999999855
  0
ARC
  5
EA9
330
1F
100
AcDbEntity
  8
Object
100
AcDbCircle
 39
6.681599999999998
 10
-186.5831391377807
 20
2255.399983777277
 30
0.0
 40
1.670400000000005
100
AcDbArc
 50
175.2631578947348
 51
256.883837495159
  0
ARC
  5
EAA
330
1F
100
AcDbEntity
  8
Object
100
AcDbCircle
 39
6.681599999999998
 10
-186.583139137781
 20
2247.399432534011
 30
0.0
 40
1.670400000000005
100
AcDbArc
 50
103.1161625048295
 51
184.7368421052652
  0
ARC
  5
EAB
330
1F
100
AcDbEntity
  8
Object
100
AcDbCircle
 39
6.681599999999998
 10
-186.5831391377641
 20
2247.399432534001
 30
0.0
 40
1.670400000000005
100
AcDbArc
 50
184.7368421052652
 51
266.3575217056879
  0
ARC
  5
EAC
330
1F
100
AcDbEntity
  8
Object
100
AcDbCircle
 39
6.681599999999998
 10
-187.5152220544328
 20
2251.399708155645
 30
0.0
 40
2.437030293083787
100
AcDbArc
 50
283.1161625048295
 51
76.8838374951614
  0
LINE
  5
EAD
330
1F
100
AcDbEntity
  8
Object
100
AcDbLine
 39
6.681599999999998
 10
-151.8257486378893
 20
2250.288113032216
 30
0.0
 11
-177.7450539772139
 21
2245.717840179672
 31
0.0
  0
LINE
  5
EAE
330
1F
100
AcDbEntity
  8
Object
100
AcDbLine
 39
6.681599999999998
 10
-155.7186536773395
 20
2247.057435921678
 30
0.0
 11
-177.3099611032514
 21
2243.250305873722
 31
0.0
  0
LINE
  5
EAF
330
1F
100
AcDbEntity
  8
Object
100
AcDbLine
 39
6.681599999999998
 10
-150.4248605963382
 20
2253.079380309641
 30
0.0
 11
-173.629732060517
 21
2248.987735386639
 31
0.0
  0
LINE
  5
EB0
330
1F
100
AcDbEntity
  8
Object
100
AcDbLine
 39
6.681599999999998
 10
-142.944505110071
 20
2248.195650910197
 30
0.0
 11
-146.5312446546448
 21
2250.017844961119
 31
0.0
  0
ARC
  5
EB1
330
1F
100
AcDbEntity
  8
Object
100
AcDbCircle
 39
6.681599999999998
 10
-185.2662916838408
 20
2239.507998381748
 30
0.0
 40
1.670400000000005
100
AcDbArc
 50
194.210526315786
 51
275.8312059162141
  0
LINE
  5
EB2
330
1F
100
AcDbEntity
  8
Object
100
AcDbLine
 39
6.681599999999998
 10
-154.6525616012516
 20
2235.876112568917
 30
0.0
 11
-147.6541536294943
 21
2249.651520631867
 31
0.0
  0
ARC
  5
EB3
330
1F
100
AcDbEntity
  8
Object
100
AcDbCircle
 39
6.681599999999998
 10
-185.2662916838592
 20
2239.507998381753
 30
0.0
 40
1.670400000000005
100
AcDbArc
 50
112.5898467153558
 51
194.210526315786
  0
ARC
  5
EB4
330
1F
100
AcDbEntity
  8
Object
100
AcDbCircle
 39
6.681599999999998
 10
-171.7443296066656
 20
2238.295086727521
 30
0.0
 40
3.340799999999998
100
AcDbArc
 50
99.99999999999026
 51
201.4009982053697
  0
ARC
  5
EB5
330
1F
100
AcDbEntity
  8
Object
100
AcDbCircle
 39
6.681599999999998
 10
-171.7443296066656
 20
2238.295086727521
 30
0.0
 40
3.340799999999998
100
AcDbArc
 50
99.99999999999026
 51
201.4009982053697
  0
ARC
  5
EB6
330
1F
100
AcDbEntity
  8
Object
100
AcDbCircle
 39
6.681599999999998
 10
-176.7298372713024
 20
2239.960260132459
 30
0.0
 40
3.340799999999998
100
AcDbArc
 50
99.99999999999026
 51
196.5795929449722
  0
ARC
  5
EB7
330
1F
100
AcDbEntity
  8
Object
100
AcDbCircle
 39
6.681599999999998
 10
-182.668516941808
 20
2231.940939072757
 30
0.0
 40
1.670400000000005
100
AcDbArc
 50
122.0635309258907
 51
203.6842105263239
  0
ARC
  5
EB8
330
1F
100
AcDbEntity
  8
Object
100
AcDbCircle
 39
6.681599999999998
 10
-167.6154881175281
 20
2230.644017218131
 30
0.0
 40
3.340799999999998
100
AcDbArc
 50
215.3053628701969
 51
333.0677752096205
  0
ARC
  5
EB9
330
1F
100
AcDbEntity
  8
Object
100
AcDbCircle
 39
6.681599999999998
 10
-182.6685169417889
 20
2231.940939072753
 30
0.0
 40
1.670400000000005
100
AcDbArc
 50
203.6842105263239
 51
285.3048901267367
  0
ARC
  5
EBA
330
1F
100
AcDbEntity
  8
Object
100
AcDbCircle
 39
6.681599999999998
 10
-167.9643814692506
 20
2224.425363606325
 30
0.0
 40
3.340799999999998
100
AcDbArc
 50
222.2875225782374
 51
333.0677752096205
  0
ARC
  5
EBB
330
1F
100
AcDbEntity
  8
Object
100
AcDbCircle
 39
6.681599999999998
 10
-154.8839054746482
 20
2219.540759700112
 30
0.0
 40
3.340799999999998
100
AcDbArc
 50
242.511045162008
 51
355.4366276270521
  0
LINE
  5
EBC
330
1F
100
AcDbEntity
  8
Object
100
AcDbLine
 39
6.681599999999998
 10
-151.6701917613587
 20
2216.351163193482
 30
0.0
 11
-151.6701917613612
 21
2202.122908155818
 31
0.0
  0
LINE
  5
EBD
330
1F
100
AcDbEntity
  8
Object
100
AcDbLine
 39
6.681599999999998
 10
-148.3293917613587
 20
2216.351163193481
 30
0.0
 11
-148.3293917613612
 21
2202.122908155817
 31
0.0
  0
ARC
  5
EBE
330
1F
100
AcDbEntity
  8
Object
100
AcDbCircle
 39
6.681599999999998
 10
-168.0604383042656
 20
2213.172479255653
 30
0.0
 40
1.670400000000005
100
AcDbArc
 50
232.1052631579004
 51
323.0931703771276
  0
ARC
  5
EBF
330
1F
100
AcDbEntity
  8
Object
100
AcDbCircle
 39
6.681599999999998
 10
-138.3069917613634
 20
2251.399708155802
 30
0.0
 40
48.44159999999999
100
AcDbArc
 50
224.6534285052118
 51
230.083413600047
  0
ARC
  5
EC0
330
1F
100
AcDbEntity
  8
Object
100
AcDbCircle
 39
6.681599999999998
 10
-168.0604383042844
 20
2213.172479255647
 30
0.0
 40
1.670400000000005
100
AcDbArc
 50
150.4845835574711
 51
232.105263157901
  0
ARC
  5
EC1
330
1F
100
AcDbEntity
  8
Object
100
AcDbCircle
 39
6.681599999999998
 10
-171.6348193110777
 20
2215.196036527092
 30
0.0
 40
2.437030293083787
100
AcDbArc
 50
330.4845835574711
 51
124.2522585477957
  0
ARC
  5
EC2
330
1F
100
AcDbEntity
  8
Object
100
AcDbCircle
 39
6.681599999999998
 10
-138.3069917613609
 20
2251.399708155811
 30
0.0
 40
48.44159999999999
100
AcDbArc
 50
234.0810775910666
 51
253.9866055760489
  0
ARC
  5
EC3
330
1F
100
AcDbEntity
  8
Object
100
AcDbCircle
 39
6.681599999999998
 10
-138.3069917613724
 20
2251.399708155807
 30
0.0
 40
39.25439999999999
100
AcDbArc
 50
236.3505670102026
 51
242.511045162008
  0
LINE
  5
EC4
330
1F
100
AcDbEntity
  8
Object
100
AcDbLine
 39
6.681599999999998
 10
-166.7040597667885
 20
2212.154388189538
 30
0.0
 11
-159.377431198598
 21
2226.575853565643
 31
0.0
  0
ARC
  5
EC5
330
1F
100
AcDbEntity
  8
Object
100
AcDbCircle
 39
6.681599999999998
 10
-158.2070752690416
 20
2221.50366592029
 30
0.0
 40
3.340799999999998
100
AcDbArc
 50
153.0677752095944
 51
236.3505670102026
  0
ARC
  5
EC6
330
1F
100
AcDbEntity
  8
Object
100
AcDbCircle
 39
6.681599999999998
 10
-178.8606754346779
 20
2224.904664259119
 30
0.0
 40
1.670400000000005
100
AcDbArc
 50
213.1578947368296
 51
294.778574337266
  0
ARC
  5
EC7
330
1F
100
AcDbEntity
  8
Object
100
AcDbCircle
 39
6.681599999999998
 10
-178.8606754346974
 20
2224.904664259119
 30
0.0
 40
1.670400000000005
100
AcDbArc
 50
131.5372151364086
 51
213.1578947368296
  0
ARC
  5
EC8
330
1F
100
AcDbEntity
  8
Object
100
AcDbCircle
 39
6.681599999999998
 10
-173.9466351525396
 20
2218.591105175555
 30
0.0
 40
1.670400000000005
100
AcDbArc
 50
141.0108993469329
 51
222.6315789473749
  0
ARC
  5
EC9
330
1F
100
AcDbEntity
  8
Object
100
AcDbCircle
 39
6.681599999999998
 10
-138.3069917613649
 20
2251.399708155802
 30
0.0
 40
48.44159999999999
100
AcDbArc
 50
215.1797442946791
 51
220.6097293895165
  0
ARC
  5
ECA
330
1F
100
AcDbEntity
  8
Object
100
AcDbCircle
 39
6.681599999999998
 10
-177.139199681255
 20
2221.175387540649
 30
0.0
 40
2.437030293083787
100
AcDbArc
 50
321.0108993469329
 51
114.778574337266
  0
ARC
  5
ECB
330
1F
100
AcDbEntity
  8
Object
100
AcDbCircle
 39
6.681599999999998
 10
-173.94663515252
 20
2218.591105175558
 30
0.0
 40
1.670400000000005
100
AcDbArc
 50
222.6315789473743
 51
304.2522585477957
  0
ARC
  5
ECC
330
1F
100
AcDbEntity
  8
Object
100
AcDbCircle
 39
6.681599999999998
 10
-149.9997917613612
 20
2202.122908155818
 30
0.0
 40
1.670399999999969
100
AcDbArc
 50
179.9999999999739
 51
359.999999999974
  0
ARC
  5
ECD
330
1F
100
AcDbEntity
  8
Object
100
AcDbCircle
 39
6.681599999999998
 10
-138.3069917613662
 20
2251.399708155802
 30
0.0
 40
48.44159999999999
100
AcDbArc
 50
205.7060600841568
 51
211.1360451789933
  0
ARC
  5
ECE
330
1F
100
AcDbEntity
  8
Object
100
AcDbCircle
 39
6.681599999999998
 10
-181.5843386473865
 20
2227.979179231661
 30
0.0
 40
2.437030293083787
100
AcDbArc
 50
311.5372151364086
 51
105.3048901267398
  0
ARC
  5
ECF
330
1F
100
AcDbEntity
  8
Object
100
AcDbCircle
 39
6.681599999999998
 10
-114.9213917613587
 20
2216.351163193476
 30
0.0
 40
33.408
100
AcDbArc
 50
153.0677752095944
 51
179.9999999999739
  0
ARC
  5
ED0
330
1F
100
AcDbEntity
  8
Object
100
AcDbCircle
 39
6.681599999999998
 10
-151.3017866670053
 20
2234.173797116324
 30
0.0
 40
3.758399999999986
100
AcDbArc
 50
153.0677752095944
 51
333.0677752095944
  0
ARC
  5
ED1
330
1F
100
AcDbEntity
  8
Object
100
AcDbCircle
 39
6.681599999999998
 10
-138.3069917613574
 20
2251.399708155807
 30
0.0
 40
39.25439999999999
100
AcDbArc
 50
201.4009982053697
 51
215.3053628701969
  0
LINE
  5
ED2
330
1F
100
AcDbEntity
  8
Object
100
AcDbLine
 39
6.681599999999998
 10
-144.7060578434192
 20
2231.482856105379
 30
0.0
 11
-138.9628054649708
 21
2242.787662204273
 31
0.0
  0
LINE
  5
ED3
330
1F
100
AcDbEntity
  8
Object
100
AcDbLine
 39
6.681599999999998
 10
-164.6370215093134
 20
2229.130847926945
 30
0.0
 11
-157.6884375036848
 21
2242.808184333105
 31
0.0
  0
LINE
  5
ED4
330
1F
100
AcDbEntity
  8
Object
100
AcDbLine
 39
6.681599999999998
 10
-131.9079256793017
 20
2231.482856105378
 30
0.0
 11
-137.6511780577482
 21
2242.787662204273
 31
0.0
  0
ARC
  5
ED5
330
1F
100
AcDbEntity
  8
Object
100
AcDbCircle
 39
6.681599999999998
 10
-138.3069917613573
 20
2251.399708155807
 30
0.0
 40
43.43039999999999
100
AcDbArc
 50
196.5795929449452
 51
222.2875225782297
  0
LINE
  5
ED6
330
1F
100
AcDbEntity
  8
Object
100
AcDbLine
 39
6.681599999999998
 10
-164.9859148610443
 20
2222.912194315135
 30
0.0
 11
-150.6298136468383
 21
2251.170214312964
 31
0.0
  0
ARC
  5
ED7
330
1F
100
AcDbEntity
  8
Object
100
AcDbCircle
 39
6.681599999999998
 10
-184.8489844060884
 20
2235.42182189896
 30
0.0
 40
2.437030293083787
100
AcDbArc
 50
302.0635309258907
 51
95.83120591621415
  0
ARC
  5
ED8
330
1F
100
AcDbEntity
  8
Object
100
AcDbCircle
 39
6.681599999999998
 10
-138.3069917613675
 20
2251.399708155803
 30
0.0
 40
48.44159999999999
100
AcDbArc
 50
196.2323758736275
 51
201.6623609684575
  0
LINE
  5
ED9
330
1F
100
AcDbEntity
  8
Object
100
AcDbLine
 39
6.681599999999998
 10
-147.9510117327735
 20
2232.471481663735
 30
0.0
 11
-143.246870348156
 21
2241.730940017757
 31
0.0
  0
ARC
  5
EDA
330
1F
100
AcDbEntity
  8
Object
100
AcDbCircle
 10
-151.3017866670053
 20
2234.173797116324
 30
0.0
 40
7.099199999999985
100
AcDbArc
 50
240.7753324336425
 51
333.0677752095944
  0
ARC
  5
EDB
330
1F
100
AcDbEntity
  8
Object
100
AcDbCircle
 10
-151.3017866670053
 20
2234.173797116324
 30
0.0
 40
7.099199999999985
100
AcDbArc
 50
153.0677752095944
 51
240.7753324336447
  0
ARC
  5
EDC
330
1F
100
AcDbEntity
  8
Object
100
AcDbCircle
 10
-154.2437357995653
 20
2224.156884652825
 30
0.0
 40
3.340799999999998
100
AcDbArc
 50
348.7723983870438
 51
73.63258144852811
  0
ARC
  5
EDD
330
1F
100
AcDbEntity
  8
Object
100
AcDbCircle
 10
-114.9213917613587
 20
2216.351163193476
 30
0.0
 40
36.7488
100
AcDbArc
 50
168.7723983870438
 51
175.4366276270521
  0
ARC
  5
EDE
330
1F
100
AcDbEntity
  8
Object
100
AcDbCircle
 10
-114.9213917613587
 20
2216.351163193476
 30
0.0
 40
36.7488
100
AcDbArc
 50
175.4366276270521
 51
179.9999999999739
  0
ARC
  5
EDF
330
1F
100
AcDbEntity
  8
Object
100
AcDbCircle
 10
-156.3989645903918
 20
2225.062684274451
 30
0.0
 40
3.340799999999998
100
AcDbArc
 50
60.77533243364467
 51
153.0677752095944
  0
ARC
  5
EE0
330
1F
100
AcDbEntity
  8
Object
100
AcDbCircle
 10
-151.3017866670053
 20
2234.173797116324
 30
0.0
 40
7.099199999999985
100
AcDbArc
 50
249.1889132814213
 51
253.6325814485281
  0
ARC
  5
EE1
330
1F
100
AcDbEntity
  8
Object
100
AcDbCircle
 10
-146.9095369774559
 20
2249.273228309063
 30
0.0
 40
4.175999999999998
100
AcDbArc
 50
97.0907801184602
 51
153.0677752096264
  0
ARC
  5
EE2
330
1F
100
AcDbEntity
  8
Object
100
AcDbCircle
 10
-152.1158105538637
 20
2251.933135902859
 30
0.0
 40
1.670399999999998
100
AcDbArc
 50
279.9999999999525
 51
332.9373153131378
  0
ARC
  5
EE3
330
1F
100
AcDbEntity
  8
Object
100
AcDbCircle
 10
-133.0175182270053
 20
2242.886778490348
 30
0.0
 40
0.8352
100
AcDbArc
 50
301.8545796504895
 51
26.93222479037944
  0
ARC
  5
EE4
330
1F
100
AcDbEntity
  8
Object
100
AcDbCircle
 10
-143.5964652957137
 20
2242.886778490349
 30
0.0
 40
0.8352
100
AcDbArc
 50
153.0677752095944
 51
238.1454203495064
  0
ARC
  5
EE5
330
1F
100
AcDbEntity
  8
Object
100
AcDbCircle
 10
-138.306991761345
 20
2251.399708155819
 30
0.0
 40
10.8576
100
AcDbArc
 50
238.1454203495064
 51
257.3990361310318
  0
ARC
  5
EE6
330
1F
100
AcDbEntity
  8
Object
100
AcDbCircle
 10
-136.1205083959354
 20
2241.618716782105
 30
0.0
 40
0.8352
100
AcDbArc
 50
206.9322247903794
 51
282.600963868957
  0
ARC
  5
EE7
330
1F
100
AcDbEntity
  8
Object
100
AcDbCircle
 10
-140.4934751267838
 20
2241.618716782105
 30
0.0
 40
0.8352
100
AcDbArc
 50
257.3990361310318
 51
333.0677752095944
  0
ARC
  5
EE8
330
1F
100
AcDbEntity
  8
Object
100
AcDbCircle
 10
-138.3069917613725
 20
2251.399708155819
 30
0.0
 40
10.8576
100
AcDbArc
 50
282.600963868957
 51
301.8545796504895
  0
ARC
  5
EE9
330
1F
100
AcDbEntity
  8
Object
100
AcDbCircle
 10
-138.306991761345
 20
2251.399708155819
 30
0.0
 40
7.516799999999999
100
AcDbArc
 50
237.1577380964263
 51
260.3472730063832
  0
ARC
  5
EEA
330
1F
100
AcDbEntity
  8
Object
100
AcDbCircle
 10
-142.8365158242232
 20
2244.382634993608
 30
0.0
 40
0.8352
100
AcDbArc
 50
57.1577380964263
 51
153.067775209594
  0
ARC
  5
EEB
330
1F
100
AcDbEntity
  8
Object
100
AcDbCircle
 10
-147.6312270688738
 20
2255.074913958249
 30
0.0
 40
1.670399999999998
100
AcDbArc
 50
277.0907801184319
 51
338.4878097485032
  0
ARC
  5
EEC
330
1F
100
AcDbEntity
  8
Object
100
AcDbCircle
 10
-138.3069917613725
 20
2251.399708155819
 30
0.0
 40
7.516799999999999
100
AcDbArc
 50
279.6527269936071
 51
302.8422619035562
  0
ARC
  5
EED
330
1F
100
AcDbEntity
  8
Object
100
AcDbCircle
 10
-136.9065614056966
 20
2243.165954527071
 30
0.0
 40
0.8352
100
AcDbArc
 50
99.6527269936071
 51
206.9322247903794
  0
ARC
  5
EEE
330
1F
100
AcDbEntity
  8
Object
100
AcDbCircle
 10
-139.7074221170224
 20
2243.165954527071
 30
0.0
 40
0.8352
100
AcDbArc
 50
333.0677752095944
 51
80.34727300638328
  0
ARC
  5
EEF
330
1F
100
AcDbEntity
  8
Object
100
AcDbCircle
 10
-133.7774676984954
 20
2244.382634993607
 30
0.0
 40
0.8352
100
AcDbArc
 50
26.93222479037944
 51
122.8422619035561
  0
LINE
  5
EF0
330
1F
100
AcDbEntity
  8
Object
100
AcDbLine
 39
6.681599999999998
 10
-146.9154796932124
 20
2256.987672952349
 30
0.0
 11
-169.6204215282557
 21
2276.039381272024
 31
0.0
  0
ARC
  5
EF1
330
1F
100
AcDbEntity
  8
Object
100
AcDbCircle
 39
6.681599999999998
 10
-138.3069917613711
 20
2251.399708155804
 30
0.0
 40
48.44159999999999
100
AcDbArc
 50
167.8113232420544
 51
173.2413083368842
  0
ARC
  5
EF2
330
1F
100
AcDbEntity
  8
Object
100
AcDbCircle
 39
6.681599999999998
 10
-186.8440859313913
 20
2259.499116659187
 30
0.0
 40
2.437030293083787
100
AcDbArc
 50
273.6424782943088
 51
67.41015328464115
  0
ARC
  5
EF3
330
1F
100
AcDbEntity
  8
Object
100
AcDbCircle
 39
6.681599999999998
 10
-139.4574778666327
 20
2256.619708155802
 30
0.0
 40
0.3340799999999999
100
AcDbArc
 50
282.4292571325249
 51
349.7134393885436
  0
ARC
  5
EF4
330
1F
100
AcDbEntity
  8
Object
100
AcDbCircle
 39
6.681599999999998
 10
-138.3069917613711
 20
2256.410908155801
 30
0.0
 40
0.8352000000000032
100
AcDbArc
 50
10.28656061148246
 51
169.7134393885436
  0
ARC
  5
EF5
330
1F
100
AcDbEntity
  8
Object
100
AcDbCircle
 39
6.681599999999998
 10
-137.1565056561096
 20
2256.619708155802
 30
0.0
 40
0.3340799999999999
100
AcDbArc
 50
190.2865606114824
 51
257.5707428674815
  0
ARC
  5
EF6
330
1F
100
AcDbEntity
  8
Object
100
AcDbCircle
 39
6.681599999999998
 10
-138.3069917613805
 20
2299.841308155799
 30
0.0
 40
1.670400000000005
100
AcDbArc
 50
89.99999999999674
 51
171.6206796004084
  0
ARC
  5
EF7
330
1F
100
AcDbEntity
  8
Object
100
AcDbCircle
 39
6.681599999999998
 10
-138.306991761372
 20
2251.399708155815
 30
0.0
 40
48.44159999999999
100
AcDbArc
 50
92.02184955784415
 51
97.45183465267787
  0
ARC
  5
EF8
330
1F
100
AcDbEntity
  8
Object
100
AcDbCircle
 39
6.681599999999998
 10
-142.3705752108352
 20
2300.439867394188
 30
0.0
 40
2.437030293083787
100
AcDbArc
 50
197.853004610109
 51
351.6206796004341
  0
ARC
  5
EF9
330
1F
100
AcDbEntity
  8
Object
100
AcDbCircle
 39
6.681599999999998
 10
-138.3069917613692
 20
2299.841308155816
 30
0.0
 40
1.670400000000005
100
AcDbArc
 50
8.379320399565859
 51
90.0
  0
ARC
  5
EFA
330
1F
100
AcDbEntity
  8
Object
100
AcDbCircle
 39
6.681599999999998
 10
-138.3069917613711
 20
2251.399708155816
 30
0.0
 40
48.44159999999999
100
AcDbArc
 50
82.5481653473189
 51
87.97815044215258
  0
ARC
  5
EFB
330
1F
100
AcDbEntity
  8
Object
100
AcDbCircle
 39
6.681599999999998
 10
-134.2434083119145
 20
2300.439867394204
 30
0.0
 40
2.437030293083787
100
AcDbArc
 50
188.3793203995656
 51
342.146995389891
  0
ARC
  5
EFC
330
1F
100
AcDbEntity
  8
Object
100
AcDbCircle
 39
6.681599999999998
 10
-142.9005917613652
 20
2291.225263609569
 30
0.0
 40
3.340799999999998
100
AcDbArc
 50
0.0
 51
96.5795929449856
  0
ARC
  5
EFD
330
1F
100
AcDbEntity
  8
Object
100
AcDbCircle
 39
6.681599999999998
 10
-133.713391761371
 20
2291.225263609569
 30
0.0
 40
3.340799999999998
100
AcDbArc
 50
83.42040705502087
 51
180.0
  0
ARC
  5
EFE
330
1F
100
AcDbEntity
  8
Object
100
AcDbCircle
 39
6.681599999999998
 10
-143.7357917613625
 20
2263.041807325885
 30
0.0
 40
1.670399999999998
100
AcDbArc
 50
230.0000000000018
 51
0.0
  0
ARC
  5
EFF
330
1F
100
AcDbEntity
  8
Object
100
AcDbCircle
 39
6.681599999999998
 10
-132.8781917613692
 20
2263.041807325885
 30
0.0
 40
1.670399999999998
100
AcDbArc
 50
180.0
 51
310.0000000000008
  0
ARC
  5
F00
330
1F
100
AcDbEntity
  8
Object
100
AcDbCircle
 39
6.681599999999998
 10
-143.6943424235511
 20
2260.826474865708
 30
0.0
 40
2.505599999999998
100
AcDbArc
 50
230.0000000000018
 51
299.7477532578141
  0
ARC
  5
F01
330
1F
100
AcDbEntity
  8
Object
100
AcDbCircle
 39
6.681599999999998
 10
-142.0653917613604
 20
2261.586067034244
 30
0.0
 40
2.505599999999998
100
AcDbArc
 50
290.2522467421565
 51
0.0
  0
ARC
  5
F02
330
1F
100
AcDbEntity
  8
Object
100
AcDbCircle
 39
6.681599999999998
 10
-134.5485917613711
 20
2261.586067034245
 30
0.0
 40
2.505599999999998
100
AcDbArc
 50
180.0
 51
249.747753257848
  0
LINE
  5
F03
330
1F
100
AcDbEntity
  8
Object
100
AcDbLine
 39
6.681599999999998
 10
-139.5597917613603
 20
2261.586067034245
 30
0.0
 11
-139.5597917613652
 21
2291.225263609569
 31
0.0
  0
LINE
  5
F04
330
1F
100
AcDbEntity
  8
Object
100
AcDbLine
 39
6.681599999999998
 10
-142.0653917613624
 20
2263.041807325885
 30
0.0
 11
-142.0653917613662
 21
2286.604651335999
 31
0.0
  0
LINE
  5
F05
330
1F
100
AcDbEntity
  8
Object
100
AcDbLine
 39
6.681599999999998
 10
-137.0541917613711
 20
2261.586067034245
 30
0.0
 11
-137.0541917613711
 21
2291.225263609569
 31
0.0
  0
LINE
  5
F06
330
1F
100
AcDbEntity
  8
Object
100
AcDbLine
 39
6.681599999999998
 10
-134.5485917613692
 20
2263.041807325885
 30
0.0
 11
-134.5485917613692
 21
2286.604651336
 31
0.0
  0
ARC
  5
F07
330
1F
100
AcDbEntity
  8
Object
100
AcDbCircle
 39
6.681599999999998
 10
-154.0359535688149
 20
2297.216608651348
 30
0.0
 40
1.670400000000005
100
AcDbArc
 50
27.32668882063516
 51
108.9473684210538
  0
ARC
  5
F08
330
1F
100
AcDbEntity
  8
Object
100
AcDbCircle
 39
6.681599999999998
 10
-146.2802170659323
 20
2299.180627870696
 30
0.0
 40
1.670400000000005
100
AcDbArc
 50
99.47368421052834
 51
181.0943638109573
  0
ARC
  5
F09
330
1F
100
AcDbEntity
  8
Object
100
AcDbCircle
 39
6.681599999999998
 10
-165.2213426846812
 20
2292.595189011836
 30
0.0
 40
2.437030293083787
100
AcDbArc
 50
226.2740572416831
 51
20.04173223199815
  0
ARC
  5
F0A
330
1F
100
AcDbEntity
  8
Object
100
AcDbCircle
 39
6.681599999999998
 10
-165.2213426846639
 20
2292.595189011737
 30
0.0
 40
2.437030293083787
100
AcDbArc
 50
226.2740572416807
 51
20.04173223199815
  0
ARC
  5
F0B
330
1F
100
AcDbEntity
  8
Object
100
AcDbCircle
 39
6.681599999999998
 10
-168.0604383044421
 20
2289.62693705582
 30
0.0
 40
1.670400000000005
100
AcDbArc
 50
46.27405724169009
 51
127.8947368421093
  0
ARC
  5
F0C
330
1F
100
AcDbEntity
  8
Object
100
AcDbCircle
 39
6.681599999999998
 10
-168.0604383044254
 20
2289.626937055721
 30
0.0
 40
1.670400000000005
100
AcDbArc
 50
46.27405724168069
 51
127.894736842099
  0
ARC
  5
F0D
330
1F
100
AcDbEntity
  8
Object
100
AcDbCircle
 39
6.681599999999998
 10
-138.3069917613732
 20
2251.399708155809
 30
0.0
 40
48.44159999999999
100
AcDbArc
 50
129.9165863999517
 51
135.3465714947807
  0
ARC
  5
F0E
330
1F
100
AcDbEntity
  8
Object
100
AcDbCircle
 39
6.681599999999998
 10
-168.0604383044608
 20
2289.626937055826
 30
0.0
 40
1.670400000000005
100
AcDbArc
 50
127.8947368421093
 51
209.5154164425289
  0
ARC
  5
F0F
330
1F
100
AcDbEntity
  8
Object
100
AcDbCircle
 39
6.681599999999998
 10
-168.0604383044245
 20
2289.626937055701
 30
0.0
 40
1.670400000000005
100
AcDbArc
 50
127.894736842099
 51
209.5154164425257
  0
ARC
  5
F10
330
1F
100
AcDbEntity
  8
Object
100
AcDbCircle
 39
6.681599999999998
 10
-171.6348193112181
 20
2287.603379784258
 30
0.0
 40
2.437030293083787
100
AcDbArc
 50
235.7477414521949
 51
29.51541644252571
  0
ARC
  5
F11
330
1F
100
AcDbEntity
  8
Object
100
AcDbCircle
 39
6.681599999999998
 10
-138.3069917613732
 20
2251.399708155811
 30
0.0
 40
48.44159999999999
100
AcDbArc
 50
120.4429021894189
 51
125.8728872842634
  0
ARC
  5
F12
330
1F
100
AcDbEntity
  8
Object
100
AcDbCircle
 39
6.681599999999998
 10
-161.3626449959597
 20
2294.002823822289
 30
0.0
 40
1.670400000000005
100
AcDbArc
 50
118.4210526315931
 51
200.0417322319982
  0
ARC
  5
F13
330
1F
100
AcDbEntity
  8
Object
100
AcDbCircle
 39
6.681599999999998
 10
-161.362644995942
 20
2294.002823822189
 30
0.0
 40
1.670400000000005
100
AcDbArc
 50
118.421052631575
 51
200.0417322319982
  0
ARC
  5
F14
330
1F
100
AcDbEntity
  8
Object
100
AcDbCircle
 39
6.681599999999998
 10
-161.3626449959422
 20
2294.002823822281
 30
0.0
 40
1.670400000000005
100
AcDbArc
 50
36.80037303116696
 51
118.4210526315931
  0
ARC
  5
F15
330
1F
100
AcDbEntity
  8
Object
100
AcDbCircle
 39
6.681599999999998
 10
-161.3626449959399
 20
2294.002823822208
 30
0.0
 40
1.670400000000005
100
AcDbArc
 50
36.80037303114561
 51
118.4210526315758
  0
ARC
  5
F16
330
1F
100
AcDbEntity
  8
Object
100
AcDbCircle
 39
6.681599999999998
 10
-158.0737127253964
 20
2296.463292910069
 30
0.0
 40
2.437030293083787
100
AcDbArc
 50
216.8003730311456
 51
10.56804802146953
  0
ARC
  5
F17
330
1F
100
AcDbEntity
  8
Object
100
AcDbCircle
 39
6.681599999999998
 10
-138.3069917613587
 20
2251.399708155816
 30
0.0
 40
39.25439999999999
100
AcDbArc
 50
101.4009982053944
 51
128.5990017946186
  0
ARC
  5
F18
330
1F
100
AcDbEntity
  8
Object
100
AcDbCircle
 39
6.681599999999998
 10
-138.3069917613731
 20
2251.399708155812
 30
0.0
 40
48.44159999999999
100
AcDbArc
 50
110.969217978895
 51
116.3992030737283
  0
ARC
  5
F19
330
1F
100
AcDbEntity
  8
Object
100
AcDbCircle
 39
6.681599999999998
 10
-154.0359535688205
 20
2297.216608651329
 30
0.0
 40
1.670400000000005
100
AcDbArc
 50
108.9473684210538
 51
190.5680480214695
  0
ARC
  5
F1A
330
1F
100
AcDbEntity
  8
Object
100
AcDbCircle
 39
6.681599999999998
 10
-138.3069917613725
 20
2251.399708155813
 30
0.0
 40
48.44159999999999
100
AcDbArc
 50
101.4955337683683
 51
106.9255188632124
  0
ARC
  5
F1B
330
1F
100
AcDbEntity
  8
Object
100
AcDbCircle
 39
6.681599999999998
 10
-150.3868981462236
 20
2299.102179688302
 30
0.0
 40
2.437030293083787
100
AcDbArc
 50
207.3266888206351
 51
1.094363810957299
  0
ARC
  5
F1C
330
1F
100
AcDbEntity
  8
Object
100
AcDbCircle
 39
6.681599999999998
 10
-173.9466351526564
 20
2284.208311135772
 30
0.0
 40
1.670400000000005
100
AcDbArc
 50
137.3684210526251
 51
218.9891006530463
  0
ARC
  5
F1D
330
1F
100
AcDbEntity
  8
Object
100
AcDbCircle
 39
6.681599999999998
 10
-138.3069917613729
 20
2251.399708155808
 30
0.0
 40
48.44159999999999
100
AcDbArc
 50
139.3902706104835
 51
144.8202557053161
  0
ARC
  5
F1E
330
1F
100
AcDbEntity
  8
Object
100
AcDbCircle
 39
6.681599999999998
 10
-178.8606754347952
 20
2277.894752052209
 30
0.0
 40
1.670400000000005
100
AcDbArc
 50
65.22142566273171
 51
146.8421052631704
  0
ARC
  5
F1F
330
1F
100
AcDbEntity
  8
Object
100
AcDbCircle
 39
6.681599999999998
 10
-173.9466351526606
 20
2284.208311135791
 30
0.0
 40
1.670400000000005
100
AcDbArc
 50
55.74774145220428
 51
137.3684210526251
  0
ARC
  5
F20
330
1F
100
AcDbEntity
  8
Object
100
AcDbCircle
 39
6.681599999999998
 10
-169.838820653555
 20
2268.590706721157
 30
0.0
 40
3.340799999999998
100
AcDbArc
 50
50.00000000000988
 51
151.4009982054011
  0
ARC
  5
F21
330
1F
100
AcDbEntity
  8
Object
100
AcDbCircle
 39
6.681599999999998
 10
-182.6685169418697
 20
2270.858477238541
 30
0.0
 40
1.670400000000005
100
AcDbArc
 50
156.3157894736761
 51
237.9364690741065
  0
ARC
  5
F22
330
1F
100
AcDbEntity
  8
Object
100
AcDbCircle
 39
6.681599999999998
 10
-184.8489844061504
 20
2267.377594412337
 30
0.0
 40
2.437030293083787
100
AcDbArc
 50
264.1687940837794
 51
57.93646907410646
  0
ARC
  5
F23
330
1F
100
AcDbEntity
  8
Object
100
AcDbCircle
 39
6.681599999999998
 10
-138.3069917613719
 20
2251.399708155806
 30
0.0
 40
48.44159999999999
100
AcDbArc
 50
158.3376390315182
 51
163.7676241263713
  0
ARC
  5
F24
330
1F
100
AcDbEntity
  8
Object
100
AcDbCircle
 39
6.681599999999998
 10
-182.6685169418799
 20
2270.858477238557
 30
0.0
 40
1.670400000000005
100
AcDbArc
 50
74.69510987325705
 51
156.3157894736761
  0
ARC
  5
F25
330
1F
100
AcDbEntity
  8
Object
100
AcDbCircle
 39
6.681599999999998
 10
-138.3069917613725
 20
2251.399708155806
 30
0.0
 40
48.44159999999999
100
AcDbArc
 50
148.8639548210029
 51
154.2939399158432
  0
ARC
  5
F26
330
1F
100
AcDbEntity
  8
Object
100
AcDbCircle
 39
6.681599999999998
 10
-181.5843386474773
 20
2274.820237079649
 30
0.0
 40
2.437030293083787
100
AcDbArc
 50
254.6951098732571
 51
48.4627848635914
  0
ARC
  5
F27
330
1F
100
AcDbEntity
  8
Object
100
AcDbCircle
 39
6.681599999999998
 10
-185.2662916838903
 20
2263.291417929536
 30
0.0
 40
1.670400000000005
100
AcDbArc
 50
165.7894736842139
 51
247.4101532846411
  0
ARC
  5
F28
330
1F
100
AcDbEntity
  8
Object
100
AcDbCircle
 39
6.681599999999998
 10
-185.2662916839031
 20
2263.291417929551
 30
0.0
 40
1.670400000000005
100
AcDbArc
 50
84.16879408377937
 51
165.7894736842139
  0
ARC
  5
F29
330
1F
100
AcDbEntity
  8
Object
100
AcDbCircle
 39
6.681599999999998
 10
-171.7678463747001
 20
2273.480179996467
 30
0.0
 40
3.340799999999998
100
AcDbArc
 50
49.9999999999893
 51
146.579592944971
  0
ARC
  5
F2A
330
1F
100
AcDbEntity
  8
Object
100
AcDbCircle
 39
6.681599999999998
 10
-178.8606754347879
 20
2277.894752052191
 30
0.0
 40
1.670400000000005
100
AcDbArc
 50
146.8421052631486
 51
228.4627848635914
  0
ARC
  5
F2B
330
1F
100
AcDbEntity
  8
Object
100
AcDbCircle
 39
6.681599999999998
 10
-165.8624280469802
 20
2280.517983504287
 30
0.0
 40
3.340799999999998
100
AcDbArc
 50
133.4204070550369
 51
230.0000000000018
  0
ARC
  5
F2C
330
1F
100
AcDbEntity
  8
Object
100
AcDbCircle
 39
6.681599999999998
 10
-177.1391996813722
 20
2281.624028770679
 30
0.0
 40
2.437030293083787
100
AcDbArc
 50
245.2214256627317
 51
38.98910065304629
  0
ARC
  5
F2D
330
1F
100
AcDbEntity
  8
Object
100
AcDbCircle
 39
6.681599999999998
 10
-160.7122650561759
 20
2279.467312142349
 30
0.0
 40
3.340799999999998
100
AcDbArc
 50
128.5990017946287
 51
230.0000000000018
  0
ARC
  5
F2E
330
1F
100
AcDbEntity
  8
Object
100
AcDbCircle
 39
6.681599999999998
 10
-138.3069917613587
 20
2251.399708155816
 30
0.0
 40
43.43039999999999
100
AcDbArc
 50
96.5795929449856
 51
133.4204070550287
  0
LINE
  5
F2F
330
1F
100
AcDbEntity
  8
Object
100
AcDbLine
 39
6.681599999999998
 10
-145.3049110583814
 20
2258.907073909029
 30
0.0
 11
-168.0098528934215
 21
2277.958782228707
 31
0.0
  0
LINE
  5
F30
330
1F
100
AcDbEntity
  8
Object
100
AcDbLine
 39
6.681599999999998
 10
-144.8095041845826
 20
2261.762206688098
 30
0.0
 11
-162.8596899026164
 21
2276.908110866777
 31
0.0
  0
ARC
  5
F31
330
1F
100
AcDbEntity
  8
Object
100
AcDbCircle
 39
6.681599999999998
 10
-145.4061917613663
 20
2286.604651335998
 30
0.0
 40
3.340799999999998
100
AcDbArc
 50
0.0
 51
101.4009982053944
  0
ARC
  5
F32
330
1F
100
AcDbEntity
  8
Object
100
AcDbCircle
 39
6.681599999999998
 10
-146.2802170659239
 20
2299.180627870713
 30
0.0
 40
1.670400000000005
100
AcDbArc
 50
17.85300461010899
 51
99.47368421052834
  0
ARC
  5
F33
330
1F
100
AcDbEntity
  8
Object
100
AcDbCircle
 39
6.681599999999998
 10
-138.306991761371
 20
2251.399708155816
 30
0.0
 40
39.25439999999999
100
AcDbArc
 50
1.400998205373024
 51
28.59900179462173
  0
ARC
  5
F34
330
1F
100
AcDbEntity
  8
Object
100
AcDbCircle
 39
6.681599999999998
 10
-138.3069917613711
 20
2251.399708155816
 30
0.0
 40
43.43039999999999
100
AcDbArc
 50
356.5795929449723
 51
33.42040705502444
  0
LINE
  5
F35
330
1F
100
AcDbEntity
  8
Object
100
AcDbLine
 39
6.681599999999998
 10
-3.250991761372631
 20
2248.159417571014
 30
0.0
 11
-3.25099176137283
 21
2257.246108155818
 31
0.0
  0
LINE
  5
F36
330
1F
100
AcDbEntity
  8
Object
100
AcDbLine
 39
6.681599999999998
 10
-28.30699176137253
 20
2248.159417571014
 30
0.0
 11
-28.30699176137253
 21
2257.246108155818
 31
0.0
  0
ARC
  5
F37
330
1F
100
AcDbEntity
  8
Object
100
AcDbCircle
 39
6.681599999999998
 10
-90.03084438479552
 20
2255.399983777477
 30
0.0
 40
1.670400000000005
100
AcDbArc
 50
4.736842105265217
 51
86.35752170568798
  0
ARC
  5
F38
330
1F
100
AcDbEntity
  8
Object
100
AcDbCircle
 39
6.681599999999998
 10
-128.0879351946884
 20
2255.068271995672
 30
0.0
 40
2.505599999999998
100
AcDbArc
 50
130.0000000000007
 51
199.74775325781
  0
LINE
  5
F39
330
1F
100
AcDbEntity
  8
Object
100
AcDbLine
 39
6.681599999999998
 10
-126.9727734336544
 20
2256.004003818059
 30
0.0
 11
-108.922587715623
 21
2271.149907996741
 31
0.0
  0
LINE
  5
F3A
330
1F
100
AcDbEntity
  8
Object
100
AcDbLine
 39
6.681599999999998
 10
-3.25099176137283
 20
2243.368812691296
 30
0.0
 11
-3.250991761372631
 21
2245.217834993604
 31
0.0
  0
LINE
  5
F3B
330
1F
100
AcDbEntity
  8
Object
100
AcDbLine
 39
6.681599999999998
 10
-4.872704574525727
 20
2248.159417571014
 30
0.0
 11
-5.229057937964256
 21
2245.217834993604
 31
0.0
  0
LINE
  5
F3C
330
1F
100
AcDbEntity
  8
Object
100
AcDbLine
 39
6.681599999999998
 10
-15.77899176137274
 20
2240.863212691296
 30
0.0
 11
-5.756591761372703
 21
2240.863212691296
 31
0.0
  0
LINE
  5
F3D
330
1F
100
AcDbEntity
  8
Object
100
AcDbLine
 39
6.681599999999998
 10
-26.68527894821944
 20
2248.159417571014
 30
0.0
 11
-26.32892558478082
 21
2245.217834993604
 31
0.0
  0
LINE
  5
F3E
330
1F
100
AcDbEntity
  8
Object
100
AcDbLine
 39
6.681599999999998
 10
-28.30699176137253
 20
2243.368812691296
 30
0.0
 11
-28.30699176137253
 21
2245.217834993604
 31
0.0
  0
ARC
  5
F3F
330
1F
100
AcDbEntity
  8
Object
100
AcDbCircle
 39
6.681599999999998
 10
-25.80139176137246
 20
2243.368812691296
 30
0.0
 40
2.505599999999998
100
AcDbArc
 50
180.0
 51
270.0
  0
LINE
  5
F40
330
1F
100
AcDbEntity
  8
Object
100
AcDbLine
 39
6.681599999999998
 10
-15.77899176137234
 20
2240.863212691296
 30
0.0
 11
-25.80139176137234
 21
2240.863212691296
 31
0.0
  0
LINE
  5
F41
330
1F
100
AcDbEntity
  8
Object
100
AcDbLine
 39
6.681599999999998
 10
-15.77899176137245
 20
2245.217834993604
 30
0.0
 11
-28.30699176137253
 21
2245.217834993604
 31
0.0
  0
LINE
  5
F42
330
1F
100
AcDbEntity
  8
Object
100
AcDbLine
 39
6.681599999999998
 10
-15.77899176137265
 20
2243.541323735419
 30
0.0
 11
-28.30699176137253
 21
2243.541323735419
 31
0.0
  0
LINE
  5
F43
330
1F
100
AcDbEntity
  8
Object
100
AcDbLine
 39
6.681599999999998
 10
-15.77899176137245
 20
2240.863212691296
 30
0.0
 11
-25.80139176137246
 21
2240.863212691296
 31
0.0
  0
LINE
  5
F44
330
1F
100
AcDbEntity
  8
Object
100
AcDbLine
 39
6.681599999999998
 10
-15.77899176137245
 20
2255.303088006802
 30
0.0
 11
-28.30699176137253
 21
2255.303088006802
 31
0.0
  0
LINE
  5
F45
330
1F
100
AcDbEntity
  8
Object
100
AcDbLine
 39
6.681599999999998
 10
-15.77899176137245
 20
2248.159417571014
 30
0.0
 11
-28.30699176137253
 21
2248.159417571014
 31
0.0
  0
LINE
  5
F46
330
1F
100
AcDbEntity
  8
Object
100
AcDbLine
 39
6.681599999999998
 10
-15.77899176137274
 20
2243.541323735419
 30
0.0
 11
-3.25099176137283
 21
2243.541323735419
 31
0.0
  0
LINE
  5
F47
330
1F
100
AcDbEntity
  8
Object
100
AcDbLine
 39
6.681599999999998
 10
-15.77899176137274
 20
2245.217834993604
 30
0.0
 11
-3.25099176137283
 21
2245.217834993604
 31
0.0
  0
ARC
  5
F48
330
1F
100
AcDbEntity
  8
Object
100
AcDbCircle
 39
6.681599999999998
 10
-5.756591761372703
 20
2243.368812691296
 30
0.0
 40
2.505599999999998
100
AcDbArc
 50
270.0
 51
0.0
  0
LINE
  5
F49
330
1F
100
AcDbEntity
  8
Object
100
AcDbLine
 39
6.681599999999998
 10
-15.77899176137274
 20
2248.159417571014
 30
0.0
 11
-3.25099176137283
 21
2248.159417571014
 31
0.0
  0
LINE
  5
F4A
330
1F
100
AcDbEntity
  8
Object
100
AcDbLine
 39
6.681599999999998
 10
-15.77899176137274
 20
2255.303088006802
 30
0.0
 11
-3.25099176137283
 21
2255.303088006802
 31
0.0
  0
ARC
  5
F4B
330
1F
100
AcDbEntity
  8
Object
100
AcDbCircle
 39
6.681599999999998
 10
-90.03084438476376
 20
2247.399432534189
 30
0.0
 40
1.670400000000005
100
AcDbArc
 50
273.6424782943088
 51
355.2631578947348
  0
ARC
  5
F4C
330
1F
100
AcDbEntity
  8
Object
100
AcDbCircle
 39
6.681599999999998
 10
-138.3069917613599
 20
2251.399708155816
 30
0.0
 40
48.44159999999999
100
AcDbArc
 50
357.2850074525782
 51
2.714992547421762
  0
ARC
  5
F4D
330
1F
100
AcDbEntity
  8
Object
100
AcDbCircle
 39
6.681599999999998
 10
-90.03084438477893
 20
2247.399432534201
 30
0.0
 40
1.670400000000005
100
AcDbArc
 50
355.2631578947348
 51
76.88383749515903
  0
ARC
  5
F4E
330
1F
100
AcDbEntity
  8
Object
100
AcDbCircle
 39
6.681599999999998
 10
-90.03084438477852
 20
2255.399983777467
 30
0.0
 40
1.670400000000005
100
AcDbArc
 50
283.1161625048295
 51
4.736842105265217
  0
ARC
  5
F4F
330
1F
100
AcDbEntity
  8
Object
100
AcDbCircle
 39
6.681599999999998
 10
-98.28880571356616
 20
2249.007885920935
 30
0.0
 40
3.340799999999998
100
AcDbArc
 50
259.9999999999977
 51
356.5795929449723
  0
ARC
  5
F50
330
1F
100
AcDbEntity
  8
Object
100
AcDbCircle
 39
6.681599999999998
 10
-102.4041276302781
 20
2252.277781127895
 30
0.0
 40
3.340799999999998
100
AcDbArc
 50
259.9999999999977
 51
1.400998205373024
  0
ARC
  5
F51
330
1F
100
AcDbEntity
  8
Object
100
AcDbCircle
 39
6.681599999999998
 10
-102.4041276302781
 20
2252.277781127895
 30
0.0
 40
3.340799999999998
100
AcDbArc
 50
259.9999999999977
 51
1.400998205373024
  0
ARC
  5
F52
330
1F
100
AcDbEntity
  8
Object
100
AcDbCircle
 39
6.681599999999998
 10
-138.3069917613588
 20
2251.399708155816
 30
0.0
 40
48.44159999999999
100
AcDbArc
 50
347.8113232420544
 51
353.2413083368843
  0
ARC
  5
F53
330
1F
100
AcDbEntity
  8
Object
100
AcDbCircle
 39
6.681599999999998
 10
-89.76989759116847
 20
2243.300299652291
 30
0.0
 40
2.437030293083787
100
AcDbArc
 50
93.64247829430878
 51
247.4101532846411
  0
ARC
  5
F54
330
1F
100
AcDbEntity
  8
Object
100
AcDbCircle
 39
6.681599999999998
 10
-89.09876146812685
 20
2251.399708155834
 30
0.0
 40
2.437030293083787
100
AcDbArc
 50
103.1161625048295
 51
256.8838374951614
  0
ARC
  5
F55
330
1F
100
AcDbEntity
  8
Object
100
AcDbCircle
 39
6.681599999999998
 10
-91.34769183865659
 20
2239.507998381927
 30
0.0
 40
1.670400000000005
100
AcDbArc
 50
264.1687940837794
 51
345.7894736842139
  0
ARC
  5
F56
330
1F
100
AcDbEntity
  8
Object
100
AcDbCircle
 39
6.681599999999998
 10
-99.88414625142748
 20
2239.960260132459
 30
0.0
 40
3.340799999999998
100
AcDbArc
 50
343.4204070550277
 51
80.00000000000975
  0
ARC
  5
F57
330
1F
100
AcDbEntity
  8
Object
100
AcDbCircle
 39
6.681599999999998
 10
-104.8696539160642
 20
2238.295086727521
 30
0.0
 40
3.340799999999998
100
AcDbArc
 50
338.5990017946303
 51
80.00000000000975
  0
ARC
  5
F58
330
1F
100
AcDbEntity
  8
Object
100
AcDbCircle
 39
6.681599999999998
 10
-104.8696539160642
 20
2238.295086727521
 30
0.0
 40
3.340799999999998
100
AcDbArc
 50
338.5990017946303
 51
80.00000000000975
  0
ARC
  5
F59
330
1F
100
AcDbEntity
  8
Object
100
AcDbCircle
 39
6.681599999999998
 10
-91.34769183866941
 20
2239.507998381943
 30
0.0
 40
1.670400000000005
100
AcDbArc
 50
345.7894736842139
 51
67.41015328464115
  0
LINE
  5
F5A
330
1F
100
AcDbEntity
  8
Object
100
AcDbLine
 39
6.681599999999998
 10
-110.0427785222302
 20
2212.415894610165
 30
0.0
 11
-117.2365523241239
 21
2226.575853565638
 31
0.0
  0
ARC
  5
F5B
330
1F
100
AcDbEntity
  8
Object
100
AcDbCircle
 39
6.681599999999998
 10
-118.406908253693
 20
2221.503665920269
 30
0.0
 40
3.340799999999998
100
AcDbArc
 50
303.649432989745
 51
26.93222479034735
  0
ARC
  5
F5C
330
1F
100
AcDbEntity
  8
Object
100
AcDbCircle
 39
6.681599999999998
 10
-93.94546658069005
 20
2231.940939072937
 30
0.0
 40
1.670400000000005
100
AcDbArc
 50
336.3157894736761
 51
57.93646907410646
  0
LINE
  5
F5D
330
1F
100
AcDbEntity
  8
Object
100
AcDbLine
 39
6.681599999999998
 10
-10.29461641497533
 20
2227.074597116322
 30
0.0
 11
-8.167119041774924
 21
2227.074597116322
 31
0.0
  0
ARC
  5
F5E
330
1F
100
AcDbEntity
  8
Object
100
AcDbCircle
 39
6.681599999999998
 10
-8.167119041774924
 20
2227.909797116321
 30
0.0
 40
0.8352
100
AcDbArc
 50
270.0
 51
353.0926524020868
  0
ARC
  5
F5F
330
1F
100
AcDbEntity
  8
Object
100
AcDbCircle
 39
6.681599999999998
 10
-23.39086448097032
 20
2227.909797116321
 30
0.0
 40
0.8352
100
AcDbArc
 50
186.9073475979133
 51
269.9999999999968
  0
LINE
  5
F60
330
1F
100
AcDbEntity
  8
Object
100
AcDbLine
 39
6.681599999999998
 10
-21.26336710777005
 20
2227.074597116322
 30
0.0
 11
-23.39086448097032
 21
2227.074597116322
 31
0.0
  0
ARC
  5
F61
330
1F
100
AcDbEntity
  8
Object
100
AcDbCircle
 39
6.681599999999998
 10
-93.94546658067978
 20
2231.94093907292
 30
0.0
 40
1.670400000000005
100
AcDbArc
 50
254.6951098732571
 51
336.3157894736761
  0
LINE
  5
F62
330
1F
100
AcDbEntity
  8
Object
100
AcDbLine
 39
6.681599999999998
 10
-11.60299176137272
 20
2212.349137129781
 30
0.0
 11
-11.60299176137272
 21
2205.463708155813
 31
0.0
  0
LINE
  5
F63
330
1F
100
AcDbEntity
  8
Object
100
AcDbLine
 39
6.681599999999998
 10
-19.95499176137264
 20
2212.349137129781
 30
0.0
 11
-19.95499176137272
 21
2205.463708155814
 31
0.0
  0
ARC
  5
F64
330
1F
100
AcDbEntity
  8
Object
100
AcDbCircle
 39
6.681599999999998
 10
-15.77899176137274
 20
2205.463708155813
 30
0.0
 40
4.176000000000033
100
AcDbArc
 50
180.0
 51
269.9999999999968
  0
ARC
  5
F65
330
1F
100
AcDbEntity
  8
Object
100
AcDbCircle
 39
6.681599999999998
 10
-15.77899176137274
 20
2205.463708155813
 30
0.0
 40
4.176000000000033
100
AcDbArc
 50
270.0
 51
0.0
  0
ARC
  5
F66
330
1F
100
AcDbEntity
  8
Object
100
AcDbCircle
 39
6.681599999999998
 10
-97.75330808777168
 20
2224.904664259286
 30
0.0
 40
1.670400000000005
100
AcDbArc
 50
326.8421052631486
 51
48.4627848635914
  0
ARC
  5
F67
330
1F
100
AcDbEntity
  8
Object
100
AcDbCircle
 39
6.681599999999998
 10
-97.75330808776443
 20
2224.904664259268
 30
0.0
 40
1.670400000000005
100
AcDbArc
 50
245.2214256627317
 51
326.8421052631704
  0
ARC
  5
F68
330
1F
100
AcDbEntity
  8
Object
100
AcDbCircle
 39
6.681599999999998
 10
-102.6673483699033
 20
2218.591105175706
 30
0.0
 40
1.670400000000005
100
AcDbArc
 50
317.3684210526251
 51
38.98910065304629
  0
ARC
  5
F69
330
1F
100
AcDbEntity
  8
Object
100
AcDbCircle
 39
6.681599999999998
 10
-102.667348369899
 20
2218.591105175687
 30
0.0
 40
1.670400000000005
100
AcDbArc
 50
235.7477414522043
 51
317.3684210526251
  0
ARC
  5
F6A
330
1F
100
AcDbEntity
  8
Object
100
AcDbCircle
 39
6.681599999999998
 10
-108.5535452181351
 20
2213.172479255776
 30
0.0
 40
1.670400000000005
100
AcDbArc
 50
307.894736842099
 51
29.51541644252571
  0
ARC
  5
F6B
330
1F
100
AcDbEntity
  8
Object
100
AcDbCircle
 39
6.681599999999998
 10
-138.3069917613566
 20
2251.399708155811
 30
0.0
 40
48.44159999999999
100
AcDbArc
 50
309.9165864001453
 51
315.3465714947807
  0
ARC
  5
F6C
330
1F
100
AcDbEntity
  8
Object
100
AcDbCircle
 39
6.681599999999998
 10
-104.9791642113416
 20
2215.196036527221
 30
0.0
 40
2.437030293083787
100
AcDbArc
 50
55.74774145219485
 51
209.5154164425257
  0
ARC
  5
F6D
330
1F
100
AcDbEntity
  8
Object
100
AcDbCircle
 39
6.681599999999998
 10
-138.3069917613569
 20
2251.399708155813
 30
0.0
 40
48.44159999999999
100
AcDbArc
 50
319.3902706104835
 51
324.8202557053161
  0
ARC
  5
F6E
330
1F
100
AcDbEntity
  8
Object
100
AcDbCircle
 39
6.681599999999998
 10
-99.47478384118754
 20
2221.175387540799
 30
0.0
 40
2.437030293083787
100
AcDbArc
 50
65.22142566273171
 51
218.9891006530463
  0
ARC
  5
F6F
330
1F
100
AcDbEntity
  8
Object
100
AcDbCircle
 39
6.681599999999998
 10
-103.4749917613726
 20
2212.349137129782
 30
0.0
 40
83.52
100
AcDbArc
 50
0.0
 51
12.87419076713566
  0
ARC
  5
F70
330
1F
100
AcDbEntity
  8
Object
100
AcDbCircle
 39
6.681599999999998
 10
71.91700823862729
 20
2212.349137129781
 30
0.0
 40
83.52
100
AcDbArc
 50
167.1258092328643
 51
180.0
  0
ARC
  5
F71
330
1F
100
AcDbEntity
  8
Object
100
AcDbCircle
 39
6.681599999999998
 10
-138.3069917613573
 20
2251.399708155813
 30
0.0
 40
48.44159999999999
100
AcDbArc
 50
328.863954821003
 51
334.2939399158433
  0
ARC
  5
F72
330
1F
100
AcDbEntity
  8
Object
100
AcDbCircle
 39
6.681599999999998
 10
-95.02964487508242
 20
2227.979179231828
 30
0.0
 40
2.437030293083787
100
AcDbArc
 50
74.69510987325705
 51
228.4627848635914
  0
ARC
  5
F73
330
1F
100
AcDbEntity
  8
Object
100
AcDbCircle
 39
6.681599999999998
 10
-108.9984954052017
 20
2230.644017218131
 30
0.0
 40
3.340799999999998
100
AcDbArc
 50
206.9322247903794
 51
324.6946371298031
  0
ARC
  5
F74
330
1F
100
AcDbEntity
  8
Object
100
AcDbCircle
 39
6.681599999999998
 10
-108.6496020534792
 20
2224.425363606325
 30
0.0
 40
3.340799999999998
100
AcDbArc
 50
206.9322247903794
 51
317.7124774217626
  0
ARC
  5
F75
330
1F
100
AcDbEntity
  8
Object
100
AcDbCircle
 39
6.681599999999998
 10
-108.5535452181342
 20
2213.172479255757
 30
0.0
 40
1.670400000000005
100
AcDbArc
 50
206.9322247903794
 51
307.894736842099
  0
LINE
  5
F76
330
1F
100
AcDbEntity
  8
Object
100
AcDbLine
 39
6.681599999999998
 10
-25.80139176137234
 20
2240.863212691296
 30
0.0
 11
-24.22000253877255
 21
2227.809352499222
 31
0.0
  0
LINE
  5
F77
330
1F
100
AcDbEntity
  8
Object
100
AcDbLine
 39
6.681599999999998
 10
-5.756591761372703
 20
2240.863212691296
 30
0.0
 11
-7.337980983972812
 21
2227.809352499222
 31
0.0
  0
ARC
  5
F78
330
1F
100
AcDbEntity
  8
Object
100
AcDbCircle
 39
6.681599999999998
 10
-138.3069917613724
 20
2251.399708155807
 30
0.0
 40
39.25439999999999
100
AcDbArc
 50
324.6946371298031
 51
338.5990017946303
  0
ARC
  5
F79
330
1F
100
AcDbEntity
  8
Object
100
AcDbCircle
 39
6.681599999999998
 10
-138.3069917613725
 20
2251.399708155807
 30
0.0
 40
43.43039999999999
100
AcDbArc
 50
317.7124774217626
 51
343.4204070550277
  0
ARC
  5
F7A
330
1F
100
AcDbEntity
  8
Object
100
AcDbCircle
 39
6.681599999999998
 10
-138.306991761358
 20
2251.399708155815
 30
0.0
 40
48.44159999999999
100
AcDbArc
 50
338.3376390315183
 51
343.7676241263463
  0
ARC
  5
F7B
330
1F
100
AcDbEntity
  8
Object
100
AcDbCircle
 39
6.681599999999998
 10
-91.76499911640942
 20
2235.42182189914
 30
0.0
 40
2.437030293083787
100
AcDbArc
 50
84.16879408377937
 51
237.9364690741065
  0
LINE
  5
F7C
330
1F
100
AcDbEntity
  8
Object
100
AcDbLine
 39
6.681599999999998
 10
-121.961421921483
 20
2235.87611256891
 30
0.0
 11
-128.959829893236
 21
2249.651520631864
 31
0.0
  0
ARC
  5
F7D
330
1F
100
AcDbEntity
  8
Object
100
AcDbCircle
 39
6.681599999999998
 10
-131.6319203983656
 20
2251.104410240375
 30
0.0
 40
1.670399999999998
100
AcDbArc
 50
296.9322247903889
 51
357.466948474738
  0
ARC
  5
F7E
330
1F
100
AcDbEntity
  8
Object
100
AcDbCircle
 39
6.681599999999998
 10
-129.7044465452875
 20
2249.273228309067
 30
0.0
 40
0.8352
100
AcDbArc
 50
26.93222479037944
 51
116.9322247903888
  0
ARC
  5
F7F
330
1F
100
AcDbEntity
  8
Object
100
AcDbCircle
 39
6.681599999999998
 10
-121.1853917613648
 20
2245.412413051047
 30
0.0
 40
1.670399999999998
100
AcDbArc
 50
80.00000000000975
 51
206.9322247903794
  0
ARC
  5
F80
330
1F
100
AcDbEntity
  8
Object
100
AcDbCircle
 39
6.681599999999998
 10
-125.8990610104311
 20
2254.72440318027
 30
0.0
 40
1.670399999999998
100
AcDbArc
 50
130.0000000000007
 51
259.9999999999977
  0
ARC
  5
F81
330
1F
100
AcDbEntity
  8
Object
100
AcDbCircle
 39
6.681599999999998
 10
-125.8990610104311
 20
2254.72440318027
 30
0.0
 40
1.670399999999998
100
AcDbArc
 50
130.0000000000007
 51
259.9999999999977
  0
ARC
  5
F82
330
1F
100
AcDbEntity
  8
Object
100
AcDbCircle
 39
6.681599999999998
 10
-118.1809293669827
 20
2243.186476655899
 30
0.0
 40
0.8352
100
AcDbArc
 50
80.00000000001696
 51
206.9322247903794
  0
ARC
  5
F83
330
1F
100
AcDbEntity
  8
Object
100
AcDbCircle
 39
6.681599999999998
 10
-126.6141917613648
 20
2202.122908155816
 30
0.0
 40
1.670399999999969
100
AcDbArc
 50
180.0
 51
0.0
  0
LINE
  5
F84
330
1F
100
AcDbEntity
  8
Object
100
AcDbLine
 39
6.681599999999998
 10
-128.2845917613649
 20
2216.351163193479
 30
0.0
 11
-128.2845917613649
 21
2202.122908155816
 31
0.0
  0
ARC
  5
F85
330
1F
100
AcDbEntity
  8
Object
100
AcDbCircle
 39
6.681599999999998
 10
-121.7300780480816
 20
2219.540759700112
 30
0.0
 40
3.340799999999998
100
AcDbArc
 50
184.5633723729219
 51
297.488954837992
  0
LINE
  5
F86
330
1F
100
AcDbEntity
  8
Object
100
AcDbLine
 39
6.681599999999998
 10
-124.9437917613649
 20
2216.351163193479
 30
0.0
 11
-124.9437917613649
 21
2202.122908155816
 31
0.0
  0
ARC
  5
F87
330
1F
100
AcDbEntity
  8
Object
100
AcDbCircle
 39
6.681599999999998
 10
-125.3121968557151
 20
2234.173797116321
 30
0.0
 40
3.758399999999986
100
AcDbArc
 50
206.9322247903794
 51
26.93222479037944
  0
LINE
  5
F88
330
1F
100
AcDbEntity
  8
Object
100
AcDbLine
 39
6.681599999999998
 10
-111.976962013408
 20
2229.130847926941
 30
0.0
 11
-118.9255460190342
 21
2242.808184333101
 31
0.0
  0
LINE
  5
F89
330
1F
100
AcDbEntity
  8
Object
100
AcDbLine
 39
6.681599999999998
 10
-111.6280686616855
 20
2222.912194315135
 30
0.0
 11
-125.9841698758915
 21
2251.170214312964
 31
0.0
  0
LINE
  5
F8A
330
1F
100
AcDbEntity
  8
Object
100
AcDbLine
 39
6.681599999999998
 10
-118.0358984089954
 20
2244.008988091214
 30
0.0
 11
-104.2895300841147
 21
2241.585132468785
 31
0.0
  0
LINE
  5
F8B
330
1F
100
AcDbEntity
  8
Object
100
AcDbLine
 39
6.681599999999998
 10
-124.7882348848406
 20
2250.288113032216
 30
0.0
 11
-98.86892954551594
 21
2245.717840179672
 31
0.0
  0
LINE
  5
F8C
330
1F
100
AcDbEntity
  8
Object
100
AcDbLine
 39
6.681599999999998
 10
-120.8953298453903
 20
2247.057435921678
 30
0.0
 11
-99.30402241947845
 21
2243.250305873722
 31
0.0
  0
LINE
  5
F8D
330
1F
100
AcDbEntity
  8
Object
100
AcDbLine
 39
6.681599999999998
 10
-126.189122926406
 20
2253.079380309638
 30
0.0
 11
-102.9842514622279
 21
2248.987735386632
 31
0.0
  0
LINE
  5
F8E
330
1F
100
AcDbEntity
  8
Object
100
AcDbLine
 39
6.681599999999998
 10
-126.189122926406
 20
2253.079380309638
 30
0.0
 11
-102.9842514622279
 21
2248.987735386632
 31
0.0
  0
ARC
  5
F8F
330
1F
100
AcDbEntity
  8
Object
100
AcDbCircle
 39
6.681599999999998
 10
-138.3069917613566
 20
2251.399708155811
 30
0.0
 40
48.44159999999999
100
AcDbArc
 50
286.0133944239354
 51
305.9189224089155
  0
ARC
  5
F90
330
1F
100
AcDbEntity
  8
Object
100
AcDbCircle
 39
6.681599999999998
 10
-138.3069917613302
 20
2251.399708155807
 30
0.0
 40
39.25439999999999
100
AcDbArc
 50
297.4889548379352
 51
303.649432989745
  0
ARC
  5
F91
330
1F
100
AcDbEntity
  8
Object
100
AcDbCircle
 10
-125.3121968557151
 20
2234.173797116321
 30
0.0
 40
7.099199999999985
100
AcDbArc
 50
299.2246675663433
 51
26.93222479037944
  0
ARC
  5
F92
330
1F
100
AcDbEntity
  8
Object
100
AcDbCircle
 10
-120.2150189323301
 20
2225.062684274448
 30
0.0
 40
3.340799999999998
100
AcDbArc
 50
26.93222479037944
 51
119.2246675663439
  0
ARC
  5
F93
330
1F
100
AcDbEntity
  8
Object
100
AcDbCircle
 10
-161.6925917613649
 20
2216.351163193479
 30
0.0
 40
36.7488
100
AcDbArc
 50
0.0
 51
11.22760161292997
  0
ARC
  5
F94
330
1F
100
AcDbEntity
  8
Object
100
AcDbCircle
 10
-122.370247723157
 20
2224.15688465282
 30
0.0
 40
3.340799999999998
100
AcDbArc
 50
106.367418551464
 51
191.22760161293
  0
ARC
  5
F95
330
1F
100
AcDbEntity
  8
Object
100
AcDbCircle
 10
-125.3121968557151
 20
2234.173797116321
 30
0.0
 40
7.099199999999985
100
AcDbArc
 50
286.3674185514641
 51
290.8110867185617
  0
ARC
  5
F96
330
1F
100
AcDbEntity
  8
Object
100
AcDbCircle
 10
-129.7044465452875
 20
2249.273228309067
 30
0.0
 40
4.175999999999998
100
AcDbArc
 50
26.93222479037944
 51
82.90921988156485
  0
ARC
  5
F97
330
1F
100
AcDbEntity
  8
Object
100
AcDbCircle
 10
-128.982756453856
 20
2255.074913958249
 30
0.0
 40
1.670399999999998
100
AcDbArc
 50
201.5121902514967
 51
262.9092198815649
  0
ARC
  5
F98
330
1F
100
AcDbEntity
  8
Object
100
AcDbCircle
 10
-124.4981729688656
 20
2251.933135902849
 30
0.0
 40
1.670399999999998
100
AcDbArc
 50
207.0626846868268
 51
259.9999999999977
  0
ARC
  5
F99
330
1F
100
AcDbEntity
  8
Object
100
AcDbCircle
 39
6.681599999999998
 10
-115.2513385267769
 20
2294.002823822293
 30
0.0
 40
1.670400000000005
100
AcDbArc
 50
339.9582677680019
 51
61.5789473684228
  0
ARC
  5
F9A
330
1F
100
AcDbEntity
  8
Object
100
AcDbCircle
 39
6.681599999999998
 10
-111.3926408380553
 20
2292.595189011841
 30
0.0
 40
2.437030293083787
100
AcDbArc
 50
159.9582677680018
 51
313.7259427583181
  0
ARC
  5
F9B
330
1F
100
AcDbEntity
  8
Object
100
AcDbCircle
 39
6.681599999999998
 10
-115.2513385267945
 20
2294.002823822284
 30
0.0
 40
1.670400000000005
100
AcDbArc
 50
61.5789473684228
 51
143.1996269688544
  0
ARC
  5
F9C
330
1F
100
AcDbEntity
  8
Object
100
AcDbCircle
 39
6.681599999999998
 10
-25.80139176137246
 20
2257.246108155818
 30
0.0
 40
2.505599999999998
100
AcDbArc
 50
90.0
 51
180.0
  0
ARC
  5
F9D
330
1F
100
AcDbEntity
  8
Object
100
AcDbCircle
 39
6.681599999999998
 10
-5.756591761372703
 20
2257.246108155818
 30
0.0
 40
2.505599999999998
100
AcDbArc
 50
0.0
 51
90.0
  0
ARC
  5
F9E
330
1F
100
AcDbEntity
  8
Object
100
AcDbCircle
 39
6.681599999999998
 10
-138.306991761361
 20
2251.399708155819
 30
0.0
 40
48.44159999999999
100
AcDbArc
 50
6.758691663089652
 51
12.18867675794562
  0
ARC
  5
F9F
330
1F
100
AcDbEntity
  8
Object
100
AcDbCircle
 39
6.681599999999998
 10
-89.76989759119978
 20
2259.499116659374
 30
0.0
 40
2.437030293083787
100
AcDbArc
 50
112.5898467153543
 51
266.3575217056879
  0
LINE
  5
FA0
330
1F
100
AcDbEntity
  8
Object
100
AcDbLine
 39
6.681599999999998
 10
-15.77899176137245
 20
2257.246108155798
 30
0.0
 11
-28.30699176137253
 21
2257.246108155798
 31
0.0
  0
LINE
  5
FA1
330
1F
100
AcDbEntity
  8
Object
100
AcDbLine
 39
6.681599999999998
 10
-15.77899176137245
 20
2256.387936124945
 30
0.0
 11
-28.30699176137253
 21
2256.387936124945
 31
0.0
  0
LINE
  5
FA2
330
1F
100
AcDbEntity
  8
Object
100
AcDbLine
 39
6.681599999999998
 10
-15.77899176137274
 20
2257.246108155798
 30
0.0
 11
-3.25099176137283
 21
2257.246108155798
 31
0.0
  0
LINE
  5
FA3
330
1F
100
AcDbEntity
  8
Object
100
AcDbLine
 39
6.681599999999998
 10
-15.77899176137274
 20
2256.387936124945
 30
0.0
 11
-3.25099176137283
 21
2256.387936124945
 31
0.0
  0
LINE
  5
FA4
330
1F
100
AcDbEntity
  8
Object
100
AcDbLine
 39
6.681599999999998
 10
-11.60299176137195
 20
2290.654108155813
 30
0.0
 11
-11.60299176137272
 21
2297.335708155813
 31
0.0
  0
ARC
  5
FA5
330
1F
100
AcDbEntity
  8
Object
100
AcDbCircle
 39
6.681599999999998
 10
-15.77899176137274
 20
2291.906908155813
 30
0.0
 40
1.252799999999999
100
AcDbArc
 50
180.0
 51
270.0
  0
ARC
  5
FA6
330
1F
100
AcDbEntity
  8
Object
100
AcDbCircle
 39
6.681599999999998
 10
-15.77899176137274
 20
2291.906908155813
 30
0.0
 40
1.252799999999999
100
AcDbArc
 50
270.0
 51
0.0
  0
LINE
  5
FA7
330
1F
100
AcDbEntity
  8
Object
100
AcDbLine
 39
6.681599999999998
 10
-14.52619176137273
 20
2294.830108155812
 30
0.0
 11
-13.27339176137283
 21
2294.830108155812
 31
0.0
  0
ARC
  5
FA8
330
1F
100
AcDbEntity
  8
Object
100
AcDbCircle
 39
6.681599999999998
 10
-13.27339176137283
 20
2296.500508155812
 30
0.0
 40
1.670399999999998
100
AcDbArc
 50
270.0
 51
0.0
  0
LINE
  5
FA9
330
1F
100
AcDbEntity
  8
Object
100
AcDbLine
 39
6.681599999999998
 10
-19.95499176137346
 20
2290.654108155813
 30
0.0
 11
-19.95499176137272
 21
2297.335708155813
 31
0.0
  0
ARC
  5
FAA
330
1F
100
AcDbEntity
  8
Object
100
AcDbCircle
 39
6.681599999999998
 10
-18.28459176137272
 20
2296.500508155812
 30
0.0
 40
1.670399999999998
100
AcDbArc
 50
180.0
 51
270.0
  0
LINE
  5
FAB
330
1F
100
AcDbEntity
  8
Object
100
AcDbLine
 39
6.681599999999998
 10
-17.03179176137283
 20
2294.830108155812
 30
0.0
 11
-18.28459176137272
 21
2294.830108155812
 31
0.0
  0
ARC
  5
FAC
330
1F
100
AcDbEntity
  8
Object
100
AcDbCircle
 39
6.681599999999998
 10
-15.77899176137274
 20
2297.335708155813
 30
0.0
 40
4.176000000000033
100
AcDbArc
 50
90.0
 51
180.0
  0
ARC
  5
FAD
330
1F
100
AcDbEntity
  8
Object
100
AcDbCircle
 39
6.681599999999998
 10
-15.77899176137274
 20
2297.335708155813
 30
0.0
 40
4.176000000000033
100
AcDbArc
 50
0.0
 51
90.0
  0
ARC
  5
FAE
330
1F
100
AcDbEntity
  8
Object
100
AcDbCircle
 39
6.681599999999998
 10
-15.77899176137265
 20
2261.322143310437
 30
0.0
 40
1.252799999999999
100
AcDbArc
 50
90.0
 51
180.0
  0
LINE
  5
FAF
330
1F
100
AcDbEntity
  8
Object
100
AcDbLine
 39
6.681599999999998
 10
-14.52619176137296
 20
2259.751708155818
 30
0.0
 11
-5.756591761372931
 21
2259.751708155818
 31
0.0
  0
ARC
  5
FB0
330
1F
100
AcDbEntity
  8
Object
100
AcDbCircle
 39
6.681599999999998
 10
-15.77899176137265
 20
2261.322143310437
 30
0.0
 40
1.252799999999999
100
AcDbArc
 50
0.0
 51
90.0
  0
LINE
  5
FB1
330
1F
100
AcDbEntity
  8
Object
100
AcDbLine
 39
6.681599999999998
 10
-14.52619176137273
 20
2259.751708155818
 30
0.0
 11
-5.756591761372703
 21
2259.751708155818
 31
0.0
  0
LINE
  5
FB2
330
1F
100
AcDbEntity
  8
Object
100
AcDbLine
 39
6.681599999999998
 10
-17.03179176137283
 20
2259.751708155818
 30
0.0
 11
-25.80139176137274
 21
2259.751708155818
 31
0.0
  0
LINE
  5
FB3
330
1F
100
AcDbEntity
  8
Object
100
AcDbLine
 39
6.681599999999998
 10
-17.03179176137254
 20
2259.751708155818
 30
0.0
 11
-25.80139176137246
 21
2259.751708155818
 31
0.0
  0
LINE
  5
FB4
330
1F
100
AcDbEntity
  8
Object
100
AcDbLine
 39
6.681599999999998
 10
-14.52619176137273
 20
2259.751708155818
 30
0.0
 11
-14.52619176137273
 21
2294.830108155812
 31
0.0
  0
LINE
  5
FB5
330
1F
100
AcDbEntity
  8
Object
100
AcDbLine
 39
6.681599999999998
 10
-17.03179176137283
 20
2259.751708155818
 30
0.0
 11
-17.03179176137283
 21
2294.830108155812
 31
0.0
  0
ARC
  5
FB6
330
1F
100
AcDbEntity
  8
Object
100
AcDbCircle
 39
6.681599999999998
 10
-103.4749917613727
 20
2290.450279181844
 30
0.0
 40
83.52
100
AcDbArc
 50
338.4348149847584
 51
0.1398294006650378
  0
ARC
  5
FB7
330
1F
100
AcDbEntity
  8
Object
100
AcDbCircle
 39
6.681599999999998
 10
71.91700823862729
 20
2290.450279181844
 30
0.0
 40
83.52
100
AcDbArc
 50
179.8601705993349
 51
201.5651850152416
  0
ARC
  5
FB8
330
1F
100
AcDbEntity
  8
Object
100
AcDbCircle
 39
6.681599999999998
 10
-91.34769183870044
 20
2263.291417929724
 30
0.0
 40
1.670400000000005
100
AcDbArc
 50
292.5898467153558
 51
14.21052631578606
  0
ARC
  5
FB9
330
1F
100
AcDbEntity
  8
Object
100
AcDbCircle
 39
6.681599999999998
 10
-102.6673483700395
 20
2284.20831113592
 30
0.0
 40
1.670400000000005
100
AcDbArc
 50
42.63157894737429
 51
124.2522585477957
  0
ARC
  5
FBA
330
1F
100
AcDbEntity
  8
Object
100
AcDbCircle
 39
6.681599999999998
 10
-102.66734837002
 20
2284.208311135923
 30
0.0
 40
1.670400000000005
100
AcDbArc
 50
321.0108993469329
 51
42.63157894737484
  0
ARC
  5
FBB
330
1F
100
AcDbEntity
  8
Object
100
AcDbCircle
 39
6.681599999999998
 10
-138.306991761365
 20
2251.399708155819
 30
0.0
 40
48.44159999999999
100
AcDbArc
 50
35.17974429467915
 51
40.60972938951651
  0
ARC
  5
FBC
330
1F
100
AcDbEntity
  8
Object
100
AcDbCircle
 39
6.681599999999998
 10
-97.75330808788167
 20
2277.89475205236
 30
0.0
 40
1.670400000000005
100
AcDbArc
 50
33.15789473682958
 51
114.778574337266
  0
ARC
  5
FBD
330
1F
100
AcDbEntity
  8
Object
100
AcDbCircle
 39
6.681599999999998
 10
-108.5535452182939
 20
2289.626937055825
 30
0.0
 40
1.670400000000005
100
AcDbArc
 50
52.10526315790033
 51
133.7259427583181
  0
ARC
  5
FBE
330
1F
100
AcDbEntity
  8
Object
100
AcDbCircle
 39
6.681599999999998
 10
-108.5535452182752
 20
2289.62693705583
 30
0.0
 40
1.670400000000005
100
AcDbArc
 50
330.4845835574711
 51
52.10526315790099
  0
ARC
  5
FBF
330
1F
100
AcDbEntity
  8
Object
100
AcDbCircle
 39
6.681599999999998
 10
-138.3069917613663
 20
2251.399708155819
 30
0.0
 40
48.44159999999999
100
AcDbArc
 50
44.65342850521179
 51
50.08341360004697
  0
ARC
  5
FC0
330
1F
100
AcDbEntity
  8
Object
100
AcDbCircle
 39
6.681599999999998
 10
-104.9791642114817
 20
2287.603379784386
 30
0.0
 40
2.437030293083787
100
AcDbArc
 50
150.4845835574711
 51
304.2522585477957
  0
ARC
  5
FC1
330
1F
100
AcDbEntity
  8
Object
100
AcDbCircle
 39
6.681599999999998
 10
-93.94546658075151
 20
2270.858477238721
 30
0.0
 40
1.670400000000005
100
AcDbArc
 50
302.0635309258907
 51
23.6842105263239
  0
ARC
  5
FC2
330
1F
100
AcDbEntity
  8
Object
100
AcDbCircle
 39
6.681599999999998
 10
-138.3069917613623
 20
2251.399708155819
 30
0.0
 40
48.44159999999999
100
AcDbArc
 50
16.23237587362753
 51
21.66236096848177
  0
ARC
  5
FC3
330
1F
100
AcDbEntity
  8
Object
100
AcDbCircle
 39
6.681599999999998
 10
-91.76499911647118
 20
2267.377594412517
 30
0.0
 40
2.437030293083787
100
AcDbArc
 50
122.0635309258907
 51
275.8312059162141
  0
ARC
  5
FC4
330
1F
100
AcDbEntity
  8
Object
100
AcDbCircle
 39
6.681599999999998
 10
-138.3069917613636
 20
2251.399708155819
 30
0.0
 40
48.44159999999999
100
AcDbArc
 50
25.70606008415675
 51
31.13604517899327
  0
ARC
  5
FC5
330
1F
100
AcDbEntity
  8
Object
100
AcDbCircle
 39
6.681599999999998
 10
-95.02964487517308
 20
2274.820237079817
 30
0.0
 40
2.437030293083787
100
AcDbArc
 50
131.5372151364086
 51
285.3048901267367
  0
ARC
  5
FC6
330
1F
100
AcDbEntity
  8
Object
100
AcDbCircle
 39
6.681599999999998
 10
-93.9454665807707
 20
2270.858477238725
 30
0.0
 40
1.670400000000005
100
AcDbArc
 50
23.68421052632161
 51
105.3048901267366
  0
ARC
  5
FC7
330
1F
100
AcDbEntity
  8
Object
100
AcDbCircle
 39
6.681599999999998
 10
-104.8461371480403
 20
2273.480179996461
 30
0.0
 40
3.340799999999998
100
AcDbArc
 50
33.42040705502444
 51
130.0000000000007
  0
ARC
  5
FC8
330
1F
100
AcDbEntity
  8
Object
100
AcDbCircle
 39
6.681599999999998
 10
-106.7751628691795
 20
2268.590706721165
 30
0.0
 40
3.340799999999998
100
AcDbArc
 50
28.59900179462523
 51
130.0000000000007
  0
ARC
  5
FC9
330
1F
100
AcDbEntity
  8
Object
100
AcDbCircle
 39
6.681599999999998
 10
-97.75330808786202
 20
2277.894752052359
 30
0.0
 40
1.670400000000005
100
AcDbArc
 50
311.5372151364086
 51
33.15789473682958
  0
ARC
  5
FCA
330
1F
100
AcDbEntity
  8
Object
100
AcDbCircle
 39
6.681599999999998
 10
-99.47478384130443
 20
2281.62402877083
 30
0.0
 40
2.437030293083787
100
AcDbArc
 50
141.0108993469329
 51
294.778574337266
  0
ARC
  5
FCB
330
1F
100
AcDbEntity
  8
Object
100
AcDbCircle
 39
6.681599999999998
 10
-110.7515554757543
 20
2280.51798350429
 30
0.0
 40
3.340799999999998
100
AcDbArc
 50
310.0000000000008
 51
46.57959294497072
  0
ARC
  5
FCC
330
1F
100
AcDbEntity
  8
Object
100
AcDbCircle
 39
6.681599999999998
 10
-91.34769183871872
 20
2263.291417929731
 30
0.0
 40
1.670400000000005
100
AcDbArc
 50
14.21052631578606
 51
95.83120591621415
  0
ARC
  5
FCD
330
1F
100
AcDbEntity
  8
Object
100
AcDbCircle
 39
6.681599999999998
 10
-138.3069917613677
 20
2251.399708155819
 30
0.0
 40
48.44159999999999
100
AcDbArc
 50
54.12711271573598
 51
59.55709781056574
  0
ARC
  5
FCE
330
1F
100
AcDbEntity
  8
Object
100
AcDbCircle
 39
6.681599999999998
 10
-115.9017184665585
 20
2279.467312142353
 30
0.0
 40
3.340799999999998
100
AcDbArc
 50
310.0000000000008
 51
51.40099820538267
  0
ARC
  5
FCF
330
1F
100
AcDbEntity
  8
Object
100
AcDbCircle
 39
6.681599999999998
 10
-138.30699176137
 20
2251.399708155816
 30
0.0
 40
48.44159999999999
100
AcDbArc
 50
73.07448113678443
 51
78.50446623162847
  0
ARC
  5
FD0
330
1F
100
AcDbEntity
  8
Object
100
AcDbCircle
 39
6.681599999999998
 10
-126.2270853765206
 20
2299.102179688348
 30
0.0
 40
2.437030293083787
100
AcDbArc
 50
178.9056361890427
 51
332.6733111793648
  0
ARC
  5
FD1
330
1F
100
AcDbEntity
  8
Object
100
AcDbCircle
 39
6.681599999999998
 10
-130.3337664568118
 20
2299.180627870742
 30
0.0
 40
1.670400000000005
100
AcDbArc
 50
358.9056361890427
 51
80.52631578947167
  0
ARC
  5
FD2
330
1F
100
AcDbEntity
  8
Object
100
AcDbCircle
 39
6.681599999999998
 10
-122.5780299539293
 20
2297.216608651394
 30
0.0
 40
1.670400000000005
100
AcDbArc
 50
71.0526315789462
 51
152.6733111793648
  0
ARC
  5
FD3
330
1F
100
AcDbEntity
  8
Object
100
AcDbCircle
 39
6.681599999999998
 10
-122.5780299539135
 20
2297.216608651406
 30
0.0
 40
1.670400000000005
100
AcDbArc
 50
349.4319519785049
 51
71.0526315789462
  0
ARC
  5
FD4
330
1F
100
AcDbEntity
  8
Object
100
AcDbCircle
 39
6.681599999999998
 10
-138.3069917613711
 20
2251.399708155816
 30
0.0
 40
39.25439999999999
100
AcDbArc
 50
51.40099820538331
 51
78.59900179461354
  0
LINE
  5
FD5
330
1F
100
AcDbEntity
  8
Object
100
AcDbLine
 39
6.681599999999998
 10
-131.3090724643496
 20
2258.907073909032
 30
0.0
 11
-108.6041306293126
 21
2277.958782228711
 31
0.0
  0
LINE
  5
FD6
330
1F
100
AcDbEntity
  8
Object
100
AcDbLine
 39
6.681599999999998
 10
-129.698503829519
 20
2256.987672952351
 30
0.0
 11
-106.9935619944812
 21
2276.039381272033
 31
0.0
  0
ARC
  5
FD7
330
1F
100
AcDbEntity
  8
Object
100
AcDbCircle
 39
6.681599999999998
 10
-118.5402707973377
 20
2296.463292910146
 30
0.0
 40
2.437030293083787
100
AcDbArc
 50
169.4319519785304
 51
323.1996269688544
  0
ARC
  5
FD8
330
1F
100
AcDbEntity
  8
Object
100
AcDbCircle
 39
6.681599999999998
 10
-138.306991761369
 20
2251.399708155819
 30
0.0
 40
48.44159999999999
100
AcDbArc
 50
63.6007969262688
 51
69.03078202110347
  0
DIMENSION
  5
FD9
330
1F
100
AcDbEntity
  8
0
  6
HIDDEN2
 48
3.0
100
AcDbDimension
  2
*D34
 10
-11.60299176137272
 20
2331.41804313538
 30
0.0
 11
-60.06436676137294
 21
2331.41804313538
 31
0.0
 70
   160
  1
{\fＭＳ Ｐゴシック|b0|i0|c128|p50;厚さ（ｂ）}
 71
     5
 42
8.352000000000231
  3
JIS
100
AcDbAlignedDimension
 13
-19.95499176137295
 23
2297.229525085007
 33
0.0
 14
-11.60299176137272
 24
2297.229525085007
 34
0.0
100
AcDbRotatedDimension
1001
ACAD
1000
DSTYLE
1002
{
1070
   343
1005
33F
1070
   342
1005
0
1070
   173
1070
     1
1070
   344
1005
33F
1070
    41
1040
8.0
1070
   147
1040
3.0
1070
   140
1040
7.5
1002
}
  0
DIMENSION
  5
FDA
330
1F
100
AcDbEntity
  8
0
  6
HIDDEN2
 48
3.0
100
AcDbDimension
  2
*D35
 10
-3.250991761372824
 20
2361.399708155818
 30
0.0
 11
-68.26721903409984
 21
2361.399708155818
 31
0.0
 70
   160
  1
{\fＭＳ Ｐゴシック|b0|i0|c128|p50;厚さ（ａ）}
 71
     5
 42
25.0559999999997
  3
JIS
100
AcDbAlignedDimension
 13
-28.30699176137253
 23
2257.246108155798
 33
0.0
 14
-3.25099176137283
 24
2257.246108155798
 34
0.0
100
AcDbRotatedDimension
1001
ACAD
1000
DSTYLE
1002
{
1070
   343
1005
33F
1070
   342
1005
0
1070
   173
1070
     1
1070
   344
1005
33F
1070
    41
1040
8.0
1070
   147
1040
3.0
1070
   140
1040
7.5
1002
}
  0
HATCH
  5
FDB
330
1F
100
AcDbEntity
  8
Object
100
AcDbHatch
 10
0.0
 20
0.0
 30
0.0
210
0.0
220
0.0
230
1.0
  2
ANSI31
 70
     0
 71
     0
 91
        2
 92
        7
 72
     1
 73
     1
 93
        6
 10
-14.52619176137284
 20
2259.751708155818
 42
0.0
 10
-14.52619176137284
 20
2261.322143310437
 42
0.4142135623730874
 10
-15.77899176137274
 20
2262.574943310435
 42
0.0
 10
-15.77899176137274
 20
2257.246108155798
 42
0.0
 10
-3.250991761372631
 20
2257.246108155798
 42
0.4142135623753766
 10
-5.756591761372646
 20
2259.751708155818
 42
0.0
 97
        0
 92
        7
 72
     1
 73
     1
 93
        6
 10
-15.77899176137274
 20
2257.246108155798
 42
0.0
 10
-15.77899176137274
 20
2262.574943310435
 42
0.4142135623731029
 10
-17.03179176137283
 20
2261.322143310437
 42
0.0
 10
-17.03179176137263
 20
2259.751708155818
 42
0.0
 10
-25.80139176137254
 20
2259.751708155818
 42
0.414213562375369
 10
-28.30699176137244
 20
2257.246108155798
 42
0.0
 97
        0
 75
     0
 76
     1
 52
0.0
 41
0.4176000000000001
 77
     0
 78
     1
 53
44.99999999999998
 43
-409.9890088884734
 44
1991.573994471472
 45
-0.9375387390396191
 46
0.9375387390396188
 79
     0
 47
0.0873987795004738
 98
        2
 10
-8.72768840357321
 20
2258.931387964072
 10
-18.81124878049945
 20
2258.347424452996
  0
HATCH
  5
FDC
330
1F
100
AcDbEntity
  8
Object
100
AcDbHatch
 10
0.0
 20
0.0
 30
0.0
210
0.0
220
0.0
230
1.0
  2
ANSI31
 70
     0
 71
     0
 91
        2
 92
        7
 72
     1
 73
     1
 93
        7
 10
-15.77899176137274
 20
2290.654108155813
 42
0.4142135623730951
 10
-14.52619176137273
 20
2291.906908155813
 42
0.0
 10
-14.52619176137273
 20
2294.830108155812
 42
0.0
 10
-13.27339176137283
 20
2294.830108155812
 42
0.4142135623731618
 10
-11.60299176137272
 20
2296.500508155812
 42
0.0
 10
-11.60299176137272
 20
2297.335708155813
 42
0.414213562373061
 10
-15.77899176137274
 20
2301.511708155812
 42
0.0
 97
        0
 92
        7
 72
     1
 73
     1
 93
        7
 10
-15.77899176137274
 20
2301.511708155812
 42
0.414213562373061
 10
-19.95499176137272
 20
2297.335708155813
 42
0.0
 10
-19.95499176137295
 20
2296.500508155812
 42
0.4142135623731492
 10
-18.28459176137284
 20
2294.830108155812
 42
0.0
 10
-17.03179176137283
 20
2294.830108155812
 42
0.0
 10
-17.03179176137283
 20
2291.906908155813
 42
0.4142135623730951
 10
-15.77899176137274
 20
2290.654108155813
 42
0.0
 97
        0
 75
     0
 76
     1
 52
0.0
 41
0.4176000000000001
 77
     0
 78
     1
 53
44.99999999999998
 43
-409.9890088884734
 44
1991.573994471472
 45
-0.9375387390396191
 46
0.9375387390396188
 79
     0
 47
0.087398779500474
 98
        2
 10
-13.84145859591214
 20
2297.08509065707
 10
-17.20264625020104
 20
2296.939099779301
  0
VIEWPORT
  5
B16
102
{ACAD_XDICTIONARY
360
1057
102
}
330
B15
100
AcDbEntity
 67
     1
  8
0
100
AcDbViewport
 10
153.2609725328203
 20
100.3283338904183
 30
0.0
 40
408.3313176409348
 41
231.0249415371755
 68
     1
 69
     1
 12
153.2609725328203
 22
100.3283338904183
 13
0.0
 23
0.0
 14
10.0
 24
10.0
 15
10.0
 25
10.0
 16
0.0
 26
0.0
 36
1.0
 17
0.0
 27
0.0
 37
0.0
 42
50.0
 43
0.0
 44
0.0
 45
231.0249415371755
 50
0.0
 51
0.0
 72
  1000
 90
   557152
  1

281
     0
 71
     1
 74
     0
110
0.0
120
0.0
130
0.0
111
1.0
121
0.0
131
0.0
112
0.0
122
1.0
132
0.0
 79
     0
146
0.0
  0
LWPOLYLINE
  5
B17
102
{ACAD_REACTORS
330
B18
102
}
330
B15
100
AcDbEntity
 67
     1
  8
Viewport
100
AcDbPolyline
 90
        8
 70
     1
 43
0.0
 10
12.5
 20
202.0
 10
284.5
 20
202.0
 10
284.4978723404242
 20
34.0
 10
167.4978723404242
 20
34.0
 10
167.4978723404242
 20
7.0
 10
129.5
 20
7.0
 10
12.5
 20
7.0
 10
12.5
 20
31.0
  0
VIEWPORT
  5
B18
102
{ACAD_XDICTIONARY
360
1059
102
}
330
B15
100
AcDbEntity
 67
     1
  8
Viewport
100
AcDbViewport
 10
148.5
 20
104.5
 30
0.0
 40
272.0000000000001
 41
195.0
 68
     2
 69
     2
 12
-81.5907011500823
 22
2296.988260933523
 13
0.0
 23
0.0
 14
10.0
 24
10.0
 15
10.0
 25
10.0
 16
0.0
 26
0.0
 36
1.0
 17
0.0
 27
0.0
 37
0.0
 42
50.0
 43
0.0
 44
0.0
 45
390.0
 50
0.0
 51
0.0
 72
   100
 90
    98368
340
B17
  1

281
     0
 71
     1
 74
     0
110
0.0
120
0.0
130
0.0
111
1.0
121
0.0
131
0.0
112
0.0
122
1.0
132
0.0
 79
     0
146
0.0
  0
MTEXT
  5
B19
330
B15
100
AcDbEntity
 67
     1
  8
Object
370
    -3
100
AcDbMText
 10
228.2928583521302
 20
22.75
 30
0.0
 40
5.0
 41
77.0
 71
     5
 72
     5
  1
円形型　兼用タイプ
 73
     1
 44
1.0
1001
AcDbBlockRepETag
1070
     1
1071
       68
1005
B19
1001
ACAD
1000
MTEXTBEGIN
1070
    73
1070
     1
1070
    44
1040
1.0
1070
    74
1070
     0
1000
MTEXTEND
  0
LINE
  5
B1A
330
B15
100
AcDbEntity
 67
     1
  8
0
100
AcDbLine
 10
12.5
 20
7.0
 30
0.0
 11
12.5
 21
202.0
 31
0.0
1001
AcDbBlockRepETag
1070
     1
1071
        2
1005
B1A
  0
LINE
  5
B1B
330
B15
100
AcDbEntity
 67
     1
  8
0
100
AcDbLine
 10
25.0
 20
0.0
 30
0.0
 11
0.0
 21
0.0
 31
0.0
1001
AcDbBlockRepETag
1070
     1
1071
        3
1005
B1B
  0
LINE
  5
B1C
330
B15
100
AcDbEntity
 67
     1
  8
0
100
AcDbLine
 10
0.0
 20
0.0
 30
0.0
 11
0.0
 21
10.0
 31
0.0
1001
AcDbBlockRepETag
1070
     1
1071
        4
1005
B1C
  0
LINE
  5
B1D
330
B15
100
AcDbEntity
 67
     1
  8
0
100
AcDbLine
 10
148.5
 20
6.0
 30
0.0
 11
148.5
 21
5.0
 31
0.0
1001
AcDbBlockRepETag
1070
     1
1071
       20
1005
B1D
  0
LINE
  5
B1E
330
B15
100
AcDbEntity
 67
     1
  8
0
100
AcDbLine
 10
0.0
 20
210.0
 30
0.0
 11
25.0
 21
210.0
 31
0.0
1001
AcDbBlockRepETag
1070
     1
1071
       23
1005
B1E
  0
LINE
  5
B1F
330
B15
100
AcDbEntity
 67
     1
  8
0
100
AcDbLine
 10
0.0
 20
200.0
 30
0.0
 11
0.0
 21
210.0
 31
0.0
1001
AcDbBlockRepETag
1070
     1
1071
       24
1005
B1F
  0
LINE
  5
B20
330
B15
100
AcDbEntity
 67
     1
  8
0
100
AcDbLine
 10
284.5
 20
202.0
 30
0.0
 11
284.5
 21
7.0
 31
0.0
1001
AcDbBlockRepETag
1070
     1
1071
       36
1005
B20
  0
LINE
  5
B21
330
B15
100
AcDbEntity
 67
     1
  8
0
100
AcDbLine
 10
297.0
 20
10.0
 30
0.0
 11
297.0
 21
0.0
 31
0.0
1001
AcDbBlockRepETag
1070
     1
1071
       40
1005
B21
  0
LINE
  5
B22
330
B15
100
AcDbEntity
 67
     1
  8
0
100
AcDbLine
 10
297.0
 20
210.0
 30
0.0
 11
297.0
 21
200.0
 31
0.0
1001
AcDbBlockRepETag
1070
     1
1071
       54
1005
B22
  0
LINE
  5
B23
330
B15
100
AcDbEntity
 67
     1
  8
0
100
AcDbLine
 10
272.0
 20
210.0
 30
0.0
 11
297.0
 21
210.0
 31
0.0
1001
AcDbBlockRepETag
1070
     1
1071
       55
1005
B23
  0
LINE
  5
B24
330
B15
100
AcDbEntity
 67
     1
  8
0
100
AcDbLine
 10
272.0
 20
0.0
 30
0.0
 11
297.0
 21
0.0
 31
0.0
1001
AcDbBlockRepETag
1070
     1
1071
       56
1005
B24
  0
LINE
  5
B25
330
B15
100
AcDbEntity
 67
     1
  8
0
100
AcDbLine
 10
284.5
 20
7.0
 30
0.0
 11
12.5
 21
7.0
 31
0.0
1001
AcDbBlockRepETag
1070
     1
1071
       57
1005
0
  0
LINE
  5
B26
330
B15
100
AcDbEntity
 67
     1
  8
0
100
AcDbLine
 10
12.5
 20
202.0
 30
0.0
 11
284.5
 21
202.0
 31
0.0
1001
AcDbBlockRepETag
1070
     1
1071
       58
1005
0
  0
LINE
  5
B27
330
B15
100
AcDbEntity
 67
     1
  8
0
 62
     0
380
     1
100
AcDbLine
 10
284.5
 20
7.0
 30
0.0
 11
284.5
 21
43.0
 31
0.0
1001
AcDbBlockRepETag
1070
     1
1071
       49
1005
B27
  0
LINE
  5
B28
330
B15
100
AcDbEntity
 67
     1
  8
0
100
AcDbLine
 10
284.4978723404242
 20
16.0
 30
0.0
 11
167.4978723404242
 21
16.0
 31
0.0
1001
AcDbBlockRepETag
1070
     1
1071
      166
1005
B28
  0
LINE
  5
B29
330
B15
100
AcDbEntity
 67
     1
  8
0
100
AcDbLine
 10
218.4978723404242
 20
7.0
 30
0.0
 11
218.4978723404242
 21
16.0
 31
0.0
1001
AcDbBlockRepETag
1070
     1
1071
      167
1005
B29
  0
LINE
  5
B2A
330
B15
100
AcDbEntity
 67
     1
  8
0
100
AcDbLine
 10
284.4978723404242
 20
34.0
 30
0.0
 11
167.4978723404242
 21
34.0
 31
0.0
1001
AcDbBlockRepETag
1070
     1
1071
      169
1005
B2A
  0
MTEXT
  5
B2B
330
B15
100
AcDbEntity
 67
     1
  8
0
100
AcDbMText
 10
192.9978723404242
 20
11.5
 30
0.0
 40
4.0
 41
51.0
 71
     5
 72
     5
  1
富国石油株式会社
 73
     1
 44
1.0
1001
AcDbBlockRepETag
1070
     1
1071
      171
1005
B2B
1001
ACAD
1000
MTEXTBEGIN
1070
    73
1070
     1
1070
    44
1040
1.0
1070
    74
1070
     0
1000
MTEXTEND
  0
LINE
  5
B2C
330
B15
100
AcDbEntity
 67
     1
  8
0
  6
HIDDEN2
 48
0.5
100
AcDbLine
 10
284.4978723404242
 20
29.5
 30
0.0
 11
167.4978723404242
 21
29.5
 31
0.0
1001
AcDbBlockRepETag
1070
     1
1071
      180
1005
B2C
  0
ENDSEC
  0
SECTION
  2
OBJECTS
  0
DICTIONARY
  5
C
330
0
100
AcDbDictionary
281
     1
  3
ACAD_COLOR
350
14D
  3
ACAD_GROUP
350
D
  3
ACAD_LAYOUT
350
1A
  3
ACAD_MATERIAL
350
14C
  3
ACAD_MLINESTYLE
350
17
  3
ACAD_PLOTSETTINGS
350
19
  3
ACAD_PLOTSTYLENAME
350
E
  3
ACAD_TABLESTYLE
350
17B
  3
ACAD_VISUALSTYLE
350
1D3
  3
AcDbVariableDictionary
350
148
  3
DWGPROPS
350
1037
  0
DICTIONARY
  5
18A
330
2
100
AcDbDictionary
280
     1
281
     1
  3
ACAD_LAYERFILTERS
360
463
  3
ACAD_LAYERSTATES
360
18B
  3
ACLYDICTIONARY
360
462
  0
DICTIONARY
  5
B2D
330
B15
100
AcDbDictionary
280
     1
281
     1
  3
ACAD_SORTENTS
360
B2F
  0
DICTIONARY
  5
28E
330
AB
100
AcDbDictionary
280
     1
281
     1
  0
DICTIONARY
  5
4E8
330
4E7
100
AcDbDictionary
280
     1
281
     1
  3
ACAD_SORTENTS
360
6DE
  0
DICTIONARY
  5
930
330
6ED
100
AcDbDictionary
280
     1
281
     1
  3
ACAD_SORTENTS
360
931
  0
DICTIONARY
  5
1046
330
316
100
AcDbDictionary
280
     1
281
     1
  3
ACAD_MTEXT_RT
360
1047
  0
DICTIONARY
  5
104A
330
539
100
AcDbDictionary
280
     1
281
     1
  3
ACAD_MTEXT_RT
360
104B
  0
DICTIONARY
  5
1054
330
9C6
100
AcDbDictionary
280
     1
281
     1
  3
ACAD_MTEXT_RT
360
1055
  0
DICTIONARY
  5
1057
330
B16
100
AcDbDictionary
280
     1
281
     1
  3
ACAD_XREC_ROUNDTRIP
360
1058
  0
DICTIONARY
  5
1059
330
B18
100
AcDbDictionary
280
     1
281
     1
  3
ACAD_XREC_ROUNDTRIP
360
105A
  0
DICTIONARY
  5
14D
102
{ACAD_REACTORS
330
C
102
}
330
C
100
AcDbDictionary
281
     1
  0
DICTIONARY
  5
D
102
{ACAD_REACTORS
330
C
102
}
330
C
100
AcDbDictionary
281
     1
  0
DICTIONARY
  5
1A
102
{ACAD_REACTORS
330
C
102
}
330
C
100
AcDbDictionary
281
     1
  3
A4横
350
B12
  3
Model
350
22
  0
DICTIONARY
  5
14C
102
{ACAD_REACTORS
330
C
102
}
330
C
100
AcDbDictionary
281
     1
  3
ByBlock
350
1D1
  3
ByLayer
350
1D0
  3
Global
350
1D2
  0
DICTIONARY
  5
17
102
{ACAD_REACTORS
330
C
102
}
330
C
100
AcDbDictionary
281
     1
  3
Standard
350
18
  0
DICTIONARY
  5
19
102
{ACAD_REACTORS
330
C
102
}
330
C
100
AcDbDictionary
281
     1
  3
JIS A4 title block (portrait) - no output device
350
11F
  0
ACDBDICTIONARYWDFLT
  5
E
102
{ACAD_REACTORS
330
C
102
}
330
C
100
AcDbDictionary
281
     1
  3
Normal
350
F
100
AcDbDictionaryWithDefault
340
F
  0
DICTIONARY
  5
17B
102
{ACAD_REACTORS
330
C
102
}
330
C
100
AcDbDictionary
281
     1
  3
Standard
350
17C
  0
DICTIONARY
  5
1D3
102
{ACAD_REACTORS
330
C
102
}
330
C
100
AcDbDictionary
281
     1
  3
2dWireframe
350
1D9
  3
3D Hidden
350
1DB
  3
3dWireframe
350
1DA
  3
Basic
350
1D8
  3
Brighten
350
1DF
  3
ColorChange
350
1E3
  3
Conceptual
350
1DC
  3
Dim
350
1DE
  3
Facepattern
350
1E2
  3
Flat
350
1D4
  3
FlatWithEdges
350
1D5
  3
Gouraud
350
1D6
  3
GouraudWithEdges
350
1D7
  3
Linepattern
350
1E1
  3
Realistic
350
1DD
  3
Thicken
350
1E0
  0
DICTIONARY
  5
148
102
{ACAD_REACTORS
330
C
102
}
330
C
100
AcDbDictionary
281
     1
  3
CTABLESTYLE
350
190
  3
DIMASSOC
350
14A
  3
HIDETEXT
350
149
  3
INDEXCTL
350
CC1
  3
PSOLHEIGHT
350
CC3
  3
PSOLWIDTH
350
CC2
  3
SORTENTS
350
CC0
  0
XRECORD
  5
1037
102
{ACAD_REACTORS
330
C
102
}
330
C
100
AcDbXrecord
280
     1
  1
DWGPROPS COOKIE
  2

  3

  4

  6

  7

  8
k-uehara
  9

300
=
301
=
302
=
303
=
304
=
305
=
306
=
307
=
308
=
309
=
 40
0.0566226851851852
 41
2454379.577641921
 42
2454936.589305255
  1

 90
        0
  0
DICTIONARY
  5
463
102
{ACAD_REACTORS
330
18A
102
}
330
18A
100
AcDbDictionary
281
     1
  0
DICTIONARY
  5
18B
102
{ACAD_REACTORS
330
18A
102
}
330
18A
100
AcDbDictionary
281
     1
  3
ACAD_VIEWS_元図１
350
6AC
  0
DICTIONARY
  5
462
102
{ACAD_REACTORS
330
18A
102
}
330
18A
100
AcDbDictionary
281
     1
1001
ACAD
1000
<All
  0
SORTENTSTABLE
  5
B2F
102
{ACAD_REACTORS
330
B2D
102
}
330
B2D
100
AcDbSortentsTable
330
B15
  0
SORTENTSTABLE
  5
6DE
102
{ACAD_REACTORS
330
4E8
102
}
330
4E8
100
AcDbSortentsTable
330
4E7
  0
SORTENTSTABLE
  5
931
102
{ACAD_REACTORS
330
930
102
}
330
930
100
AcDbSortentsTable
330
6ED
  0
XRECORD
  5
1047
102
{ACAD_REACTORS
330
1046
102
}
330
1046
100
AcDbXrecord
280
     1
 40
476.0
  1
検^J図
  0
XRECORD
  5
104B
102
{ACAD_REACTORS
330
104A
102
}
330
104A
100
AcDbXrecord
280
     1
 40
476.0
  1
検^J図
  0
XRECORD
  5
1055
102
{ACAD_REACTORS
330
1054
102
}
330
1054
100
AcDbXrecord
280
     1
 40
476.0
  1
検^J図
  0
XRECORD
  5
1058
102
{ACAD_REACTORS
330
1057
102
}
330
1057
100
AcDbXrecord
280
     1
102
SHADEPLOT
 70
     0
  0
XRECORD
  5
105A
102
{ACAD_REACTORS
330
1059
102
}
330
1059
100
AcDbXrecord
280
     1
102
SHADEPLOT
 70
     0
  0
LAYOUT
  5
B12
102
{ACAD_XDICTIONARY
360
B13
102
}
102
{ACAD_REACTORS
330
1A
102
}
330
1A
100
AcDbPlotSettings
  1

  2
Canon iR C3200 LIPS
  4
A4
  6

 40
5.873749732971191
 41
5.873747825622558
 42
5.873748779296875
 43
5.873748779296875
 44
209.9733276367187
 45
296.9259948730469
 46
-5.893494129188383
 47
-5.919814586649977
 48
0.0
 49
0.0
140
0.0
141
0.0
142
1.0
143
1.0
 70
   692
 72
     1
 73
     1
 74
     1
  7
monochrome.ctb
 75
    16
147
1.0
148
0.0090630292066862
149
0.0064082024693448
100
AcDbLayout
  1
A4横
 70
     1
 71
     1
 10
0.037002778146416
 20
0.0133361937478469
 11
296.9629976511933
 21
209.9866638304666
 12
0.0
 22
0.0
 32
0.0
 14
0.0
 24
0.0
 34
0.0
 15
297.0
 25
210.0
 35
0.0
146
0.0
 13
0.0
 23
0.0
 33
0.0
 16
1.0
 26
0.0
 36
0.0
 17
0.0
 27
1.0
 37
0.0
 76
     0
330
B15
331
B16
1001
ACAD_PSEXT
1000
Canon iR C3200 LIPS
1000
Canon iR C3200 LIPS
1000
IP_128.1.1.200
1000

1070
     0
  0
LAYOUT
  5
22
102
{ACAD_XDICTIONARY
360
1038
102
}
102
{ACAD_REACTORS
330
1A
102
}
330
1A
100
AcDbPlotSettings
  1

  2
none_device
  4
ISO_A4_(210.00_x_297.00_MM)
  6

 40
7.5
 41
20.0
 42
7.5
 43
20.0
 44
210.0
 45
297.0
 46
0.0
 47
73.36421725239617
 48
0.0
 49
0.0
140
0.0
141
0.0
142
1.0
143
2.869813509774058
 70
 11956
 72
     1
 73
     0
 74
     0
  7

 75
     0
147
0.3484546980471668
148
1.967705816488886
149
9.729414201041008
100
AcDbLayout
  1
Model
 70
     1
 71
     0
 10
0.0
 20
0.0
 11
12.0
 21
9.0
 12
0.0
 22
0.0
 32
0.0
 14
0.0
 24
0.0
 34
0.0
 15
0.0
 25
0.0
 35
0.0
146
0.0
 13
0.0
 23
0.0
 33
0.0
 16
1.0
 26
0.0
 36
0.0
 17
0.0
 27
1.0
 37
0.0
 76
     0
330
1F
331
1B5
1001
ACAD_PSEXT
1000
None
1000
None
1000
Not applicable
1000
The layout will not be plotted unless a new plotter configuration name is selected.
1070
     0
  0
MATERIAL
  5
1D1
102
{ACAD_XDICTIONARY
360
1042
102
}
102
{ACAD_REACTORS
330
14C
102
}
330
14C
100
AcDbMaterial
  1
ByBlock
  0
MATERIAL
  5
1D0
102
{ACAD_XDICTIONARY
360
1040
102
}
102
{ACAD_REACTORS
330
14C
102
}
330
14C
100
AcDbMaterial
  1
ByLayer
  0
MATERIAL
  5
1D2
102
{ACAD_XDICTIONARY
360
1044
102
}
102
{ACAD_REACTORS
330
14C
102
}
330
14C
100
AcDbMaterial
  1
Global
  0
MLINESTYLE
  5
18
102
{ACAD_REACTORS
330
17
102
}
330
17
100
AcDbMlineStyle
  2
STANDARD
 70
     0
  3

 62
   256
 51
90.0
 52
90.0
 71
     2
 49
0.5
 62
   256
  6
BYLAYER
 49
-0.5
 62
   256
  6
BYLAYER
  0
PLOTSETTINGS
  5
11F
102
{ACAD_XDICTIONARY
360
103C
102
}
102
{ACAD_REACTORS
330
19
102
}
330
19
100
AcDbPlotSettings
  1
JIS A4 title block (portrait) - no output device
  2
None
  4
ISO_A4_(210.00_x_297.00_MM)
  6

 40
7.549999999999998
 41
20.05
 42
7.549999999999998
 43
20.05
 44
210.0
 45
297.0
 46
-7.559999999999998
 47
-20.06
 48
0.0
 49
0.0
140
0.0
141
0.0
142
1.0
143
1.0
 70
   692
 72
     1
 73
     0
 74
     1
  7

 75
    16
147
1.0
148
0.0128164049386896
149
0.0090630292066862
  0
ACDBPLACEHOLDER
  5
F
102
{ACAD_REACTORS
330
E
102
}
330
E
  0
TABLESTYLE
  5
17C
102
{ACAD_XDICTIONARY
360
103E
102
}
102
{ACAD_REACTORS
330
17B
102
}
330
17B
100
AcDbTableStyle
  3
Standard
 70
     0
 71
     0
 40
1.5
 41
1.5
280
     0
281
     0
  7
Standard
140
4.5
170
     2
 62
     0
 63
     7
283
     0
274
    -2
284
     1
 64
     0
275
    -2
285
     1
 65
     0
276
    -2
286
     1
 66
     0
277
    -2
287
     1
 67
     0
278
    -2
288
     1
 68
     0
279
    -2
289
     1
 69
     0
  7
Standard
140
6.0
170
     5
 62
     0
 63
     7
283
     0
274
    -2
284
     1
 64
     0
275
    -2
285
     1
 65
     0
276
    -2
286
     1
 66
     0
277
    -2
287
     1
 67
     0
278
    -2
288
     1
 68
     0
279
    -2
289
     1
 69
     0
  7
Standard
140
4.5
170
     5
 62
     0
 63
     7
283
     0
274
    -2
284
     1
 64
     0
275
    -2
285
     1
 65
     0
276
    -2
286
     1
 66
     0
277
    -2
287
     1
 67
     0
278
    -2
288
     1
 68
     0
279
    -2
289
     1
 69
     0
  0
VISUALSTYLE
  5
1D9
102
{ACAD_REACTORS
330
1D3
102
}
330
1D3
100
AcDbVisualStyle
  2
2dWireframe
 70
     4
 71
     0
 72
     2
 73
     1
 90
        0
 40
-0.6
 41
-30.0
 62
     5
 63
     7
 74
     1
 91
        4
 64
     7
 65
   257
 75
     1
175
     1
 42
1.0
 92
        0
 66
   257
 43
1.0
 76
     1
 77
     6
 78
     2
 67
     7
 79
     5
170
     0
171
     0
290
     0
174
     0
 93
        1
 44
0.0
173
     0
291
     0
 45
0.0
1001
ACAD
1000
AcDbSavedByObjectVersion
1070
     0
  0
VISUALSTYLE
  5
1DB
102
{ACAD_REACTORS
330
1D3
102
}
330
1D3
100
AcDbVisualStyle
  2
3D Hidden
 70
     6
 71
     1
 72
     2
 73
     2
 90
        0
 40
-0.6
 41
-30.0
 62
     5
 63
     7
 74
     2
 91
        2
 64
     7
 65
   257
 75
     2
175
     1
 42
40.0
 92
        0
 66
   257
 43
1.0
 76
     1
 77
     6
 78
     2
 67
     7
 79
     3
170
     0
171
     0
290
     0
174
     0
 93
        1
 44
0.0
173
     0
291
     0
 45
0.0
1001
ACAD
1000
AcDbSavedByObjectVersion
1070
     0
  0
VISUALSTYLE
  5
1DA
102
{ACAD_REACTORS
330
1D3
102
}
330
1D3
100
AcDbVisualStyle
  2
3dWireframe
 70
     5
 71
     0
 72
     2
 73
     1
 90
        0
 40
-0.6
 41
-30.0
 62
     5
 63
     7
 74
     1
 91
        4
 64
     7
 65
   257
 75
     1
175
     1
 42
1.0
 92
        0
 66
   257
 43
1.0
 76
     1
 77
     6
 78
     2
 67
     7
 79
     5
170
     0
171
     0
290
     0
174
     0
 93
        1
 44
0.0
173
     0
291
     0
 45
0.0
1001
ACAD
1000
AcDbSavedByObjectVersion
1070
     0
  0
VISUALSTYLE
  5
1D8
102
{ACAD_REACTORS
330
1D3
102
}
330
1D3
100
AcDbVisualStyle
  2
Basic
 70
     7
 71
     1
 72
     0
 73
     1
 90
        0
 40
-0.6
 41
-30.0
 62
     5
 63
     7
 74
     0
 91
        4
 64
     7
 65
   257
 75
     1
175
     1
 42
1.0
 92
        8
 66
     7
 43
1.0
 76
     1
 77
     6
 78
     2
 67
     7
 79
     5
170
     0
171
     0
290
     0
174
     0
 93
        1
 44
0.0
173
     0
291
     1
 45
0.0
1001
ACAD
1000
AcDbSavedByObjectVersion
1070
     0
  0
VISUALSTYLE
  5
1DF
102
{ACAD_REACTORS
330
1D3
102
}
330
1D3
100
AcDbVisualStyle
  2
Brighten
 70
    12
 71
     2
 72
     2
 73
     1
 90
        0
 40
-0.6
 41
-30.0
 62
     5
 63
     7
 74
     1
 91
        4
 64
     7
 65
   257
 75
     1
175
     1
 42
1.0
 92
        8
 66
     7
 43
1.0
 76
     1
 77
     6
 78
     2
 67
     7
 79
     5
170
     0
171
     0
290
     0
174
     0
 93
        1
 44
50.0
173
     0
291
     1
 45
0.0
1001
ACAD
1000
AcDbSavedByObjectVersion
1070
     0
  0
VISUALSTYLE
  5
1E3
102
{ACAD_REACTORS
330
1D3
102
}
330
1D3
100
AcDbVisualStyle
  2
ColorChange
 70
    16
 71
     2
 72
     2
 73
     3
 90
        0
 40
-0.6
 41
-30.0
 62
     5
 63
     8
 74
     1
 91
        4
 64
     7
 65
   257
 75
     1
175
     1
 42
1.0
 92
        8
 66
     8
 43
1.0
 76
     1
 77
     6
 78
     2
 67
     7
 79
     5
170
     0
171
     0
290
     0
174
     0
 93
        1
 44
0.0
173
     0
291
     1
 45
0.0
1001
ACAD
1000
AcDbSavedByObjectVersion
1070
     0
  0
VISUALSTYLE
  5
1DC
102
{ACAD_REACTORS
330
1D3
102
}
330
1D3
100
AcDbVisualStyle
  2
Conceptual
 70
     9
 71
     3
 72
     2
 73
     1
 90
        0
 40
-0.6
 41
-30.0
 62
     5
 63
     7
 74
     2
 91
        2
 64
     7
 65
   257
 75
     1
175
     1
 42
40.0
 92
        8
 66
     7
 43
1.0
 76
     1
 77
     6
 78
     2
 67
     7
 79
     3
170
     0
171
     0
290
     0
174
     0
 93
        1
 44
0.0
173
     0
291
     0
 45
0.0
1001
ACAD
1000
AcDbSavedByObjectVersion
1070
     0
  0
VISUALSTYLE
  5
1DE
102
{ACAD_REACTORS
330
1D3
102
}
330
1D3
100
AcDbVisualStyle
  2
Dim
 70
    11
 71
     2
 72
     2
 73
     1
 90
        0
 40
-0.6
 41
-30.0
 62
     5
 63
     7
 74
     1
 91
        4
 64
     7
 65
   257
 75
     1
175
     1
 42
1.0
 92
        8
 66
     7
 43
1.0
 76
     1
 77
     6
 78
     2
 67
     7
 79
     5
170
     0
171
     0
290
     0
174
     0
 93
        1
 44
-50.0
173
     0
291
     1
 45
0.0
1001
ACAD
1000
AcDbSavedByObjectVersion
1070
     0
  0
VISUALSTYLE
  5
1E2
102
{ACAD_REACTORS
330
1D3
102
}
330
1D3
100
AcDbVisualStyle
  2
Facepattern
 70
    15
 71
     2
 72
     2
 73
     1
 90
        0
 40
-0.6
 41
-30.0
 62
     5
 63
     7
 74
     1
 91
        4
 64
     7
 65
   257
 75
     1
175
     1
 42
1.0
 92
        8
 66
     7
 43
1.0
 76
     1
 77
     6
 78
     2
 67
     7
 79
     5
170
     0
171
     0
290
     0
174
     0
 93
        1
 44
0.0
173
     0
291
     1
 45
0.0
1001
ACAD
1000
AcDbSavedByObjectVersion
1070
     0
  0
VISUALSTYLE
  5
1D4
102
{ACAD_REACTORS
330
1D3
102
}
330
1D3
100
AcDbVisualStyle
  2
Flat
 70
     0
 71
     2
 72
     1
 73
     1
 90
        2
 40
-0.6
 41
30.0
 62
     5
 63
     7
 74
     0
 91
        4
 64
     7
 65
   257
 75
     1
175
     1
 42
1.0
 92
        8
 66
     7
 43
1.0
 76
     1
 77
     6
 78
     2
 67
     7
 79
     5
170
     0
171
     0
290
     0
174
     0
 93
       13
 44
0.0
173
     0
291
     1
 45
0.0
1001
ACAD
1000
AcDbSavedByObjectVersion
1070
     0
  0
VISUALSTYLE
  5
1D5
102
{ACAD_REACTORS
330
1D3
102
}
330
1D3
100
AcDbVisualStyle
  2
FlatWithEdges
 70
     1
 71
     2
 72
     1
 73
     1
 90
        2
 40
-0.6
 41
30.0
 62
     5
 63
     7
 74
     1
 91
        4
 64
     7
 65
   257
 75
     1
175
     1
 42
1.0
 92
        0
 66
   257
 43
1.0
 76
     1
 77
     6
 78
     2
 67
     7
 79
     5
170
     0
171
     0
290
     0
174
     0
 93
       13
 44
0.0
173
     0
291
     1
 45
0.0
1001
ACAD
1000
AcDbSavedByObjectVersion
1070
     0
  0
VISUALSTYLE
  5
1D6
102
{ACAD_REACTORS
330
1D3
102
}
330
1D3
100
AcDbVisualStyle
  2
Gouraud
 70
     2
 71
     2
 72
     2
 73
     1
 90
        2
 40
-0.6
 41
30.0
 62
     5
 63
     7
 74
     0
 91
        4
 64
     7
 65
   257
 75
     1
175
     1
 42
1.0
 92
        0
 66
     7
 43
1.0
 76
     1
 77
     6
 78
     2
 67
     7
 79
     5
170
     0
171
     0
290
     0
174
     0
 93
       13
 44
0.0
173
     0
291
     1
 45
0.0
1001
ACAD
1000
AcDbSavedByObjectVersion
1070
     0
  0
VISUALSTYLE
  5
1D7
102
{ACAD_REACTORS
330
1D3
102
}
330
1D3
100
AcDbVisualStyle
  2
GouraudWithEdges
 70
     3
 71
     2
 72
     2
 73
     1
 90
        2
 40
-0.6
 41
30.0
 62
     5
 63
     7
 74
     1
 91
        4
 64
     7
 65
   257
 75
     1
175
     1
 42
1.0
 92
        0
 66
   257
 43
1.0
 76
     1
 77
     6
 78
     2
 67
     7
 79
     5
170
     0
171
     0
290
     0
174
     0
 93
       13
 44
0.0
173
     0
291
     1
 45
0.0
1001
ACAD
1000
AcDbSavedByObjectVersion
1070
     0
  0
VISUALSTYLE
  5
1E1
102
{ACAD_REACTORS
330
1D3
102
}
330
1D3
100
AcDbVisualStyle
  2
Linepattern
 70
    14
 71
     2
 72
     2
 73
     1
 90
        0
 40
-0.6
 41
-30.0
 62
     5
 63
     7
 74
     1
 91
        4
 64
     7
 65
   257
 75
     7
175
     7
 42
1.0
 92
        8
 66
     7
 43
1.0
 76
     1
 77
     6
 78
     2
 67
     7
 79
     5
170
     0
171
     0
290
     0
174
     0
 93
        1
 44
0.0
173
     0
291
     1
 45
0.0
1001
ACAD
1000
AcDbSavedByObjectVersion
1070
     0
  0
VISUALSTYLE
  5
1DD
102
{ACAD_REACTORS
330
1D3
102
}
330
1D3
100
AcDbVisualStyle
  2
Realistic
 70
     8
 71
     2
 72
     2
 73
     1
 90
        0
 40
-0.6
 41
-30.0
 62
     5
 63
     7
 74
     1
 91
        0
 64
     7
 65
   257
 75
     1
175
     1
 42
1.0
 92
        8
 66
     8
 43
1.0
 76
     1
 77
     6
 78
     2
 67
     7
 79
     5
170
     0
171
     0
290
     0
174
     0
 93
       13
 44
0.0
173
     0
291
     0
 45
0.0
1001
ACAD
1000
AcDbSavedByObjectVersion
1070
     0
  0
VISUALSTYLE
  5
1E0
102
{ACAD_REACTORS
330
1D3
102
}
330
1D3
100
AcDbVisualStyle
  2
Thicken
 70
    13
 71
     2
 72
     2
 73
     1
 90
        0
 40
-0.6
 41
-30.0
 62
     5
 63
     7
 74
     1
 91
        4
 64
     7
 65
   257
 75
     1
175
     1
 42
1.0
 92
       12
 66
     7
 43
1.0
 76
     1
 77
     6
 78
     2
 67
     7
 79
     5
170
     0
171
     0
290
     0
174
     0
 93
        1
 44
0.0
173
     0
291
     1
 45
0.0
1001
ACAD
1000
AcDbSavedByObjectVersion
1070
     0
  0
DICTIONARYVAR
  5
190
102
{ACAD_REACTORS
330
148
102
}
330
148
100
DictionaryVariables
280
     0
  1
STANDARD
  0
DICTIONARYVAR
  5
14A
102
{ACAD_REACTORS
330
148
102
}
330
148
100
DictionaryVariables
280
     0
  1
2
  0
DICTIONARYVAR
  5
149
102
{ACAD_REACTORS
330
148
102
}
330
148
100
DictionaryVariables
280
     0
  1
1
  0
DICTIONARYVAR
  5
CC1
102
{ACAD_REACTORS
330
148
102
}
330
148
100
DictionaryVariables
280
     0
  1
0
  0
DICTIONARYVAR
  5
CC3
102
{ACAD_REACTORS
330
148
102
}
330
148
100
DictionaryVariables
280
     0
  1
80.000000
  0
DICTIONARYVAR
  5
CC2
102
{ACAD_REACTORS
330
148
102
}
330
148
100
DictionaryVariables
280
     0
  1
5.000000
  0
DICTIONARYVAR
  5
CC0
102
{ACAD_REACTORS
330
148
102
}
330
148
100
DictionaryVariables
280
     0
  1
127
  0
XRECORD
  5
6AC
102
{ACAD_REACTORS
330
18B
102
}
330
18B
100
AcDbXrecord
280
     1
 91
    33280
301

290
     0
302
Viewport
330
4CB
 90
        8
 62
     8
370
    25
331
16
  1
色_8
330
0
 90
        8
 62
     8
370
    18
331
16
  1
色_8
330
4CA
 90
        8
 62
     2
370
    18
331
16
  1
色_2
330
0
 90
        8
 62
     3
370
    -3
331
16
  1
色_3
330
0
 90
        8
 62
     3
370
    -3
331
16
  1
色_3
330
4C9
 90
        8
 62
     5
370
    18
331
4C4
  1
色_5
330
4C8
 90
        8
 62
     8
370
    50
331
16
  1
色_8
330
4C7
 90
        8
 62
     1
370
    18
331
4C3
  1
色_1
330
4C6
 90
        8
 62
     5
370
    18
331
291
  1
色_5
330
3DC
 90
        8
 62
     4
370
    -3
331
16
  1
色_4
330
345
 90
        0
 62
     6
370
    18
331
16
  1
色_6
330
4C5
 90
        8
 62
     3
370
    18
331
16
  1
色_3
330
3DB
 90
        0
 62
     7
370
    -3
331
16
  1
色_7
330
0
 90
        8
 62
     4
370
    -3
331
16
  1
色_4
330
0
 90
        8
 62
     5
370
    40
331
16
  1
色_5
330
12D
 90
        8
 62
     7
370
    -3
331
16
  1
色_7
330
12C
 90
        8
 62
     7
370
    -3
331
16
  1
色_7
330
E4
 90
        8
 62
     7
370
    25
331
16
  1
色_7
330
10
 90
        8
 62
     7
370
    -3
331
16
  1
色_7
  0
DICTIONARY
  5
B13
330
B12
100
AcDbDictionary
280
     1
281
     1
  3
ACAD_XREC_ROUNDTRIP
360
1056
  3
ADSK_XREC_LAYOUTTHUMBNAIL
360
B14
  0
DICTIONARY
  5
1038
330
22
100
AcDbDictionary
280
     1
281
     1
  3
ACAD_XREC_ROUNDTRIP
360
1039
  0
DICTIONARY
  5
1042
330
1D1
100
AcDbDictionary
280
     1
281
     1
  3
ACAD_XREC_ROUNDTRIP
360
1043
  0
DICTIONARY
  5
1040
330
1D0
100
AcDbDictionary
280
     1
281
     1
  3
ACAD_XREC_ROUNDTRIP
360
1041
  0
DICTIONARY
  5
1044
330
1D2
100
AcDbDictionary
280
     1
281
     1
  3
ACAD_XREC_ROUNDTRIP
360
1045
  0
DICTIONARY
  5
103C
330
11F
100
AcDbDictionary
280
     1
281
     1
  3
ACAD_XREC_ROUNDTRIP
360
103D
  0
DICTIONARY
  5
103E
330
17C
100
AcDbDictionary
280
     1
281
     1
  3
ACAD_XREC_ROUNDTRIP
360
103F
  0
XRECORD
  5
1056
102
{ACAD_REACTORS
330
B13
102
}
330
B13
100
AcDbXrecord
280
     1
102
SHADEPLOT
 70
     0
102
SHADEPLOTRESLEVEL
 70
     2
102
SHADEPLOTCUSTOMDPI
 70
   300
  0
XRECORD
  5
B14
102
{ACAD_REACTORS
330
B13
102
}
330
B13
100
AcDbXrecord
280
     1
310
28000000B40000007F00000001000800000000004C59000000000000000000000001000000000000FFFFFF0000000000FFFFFF000000000000000000000000000000000000000000000000000000000000000000330000006600000099000000CC000000FF00000000330000333300006633000099330000CC330000FF3300
310
0000660000336600006666000099660000CC660000FF66000000990000339900006699000099990000CC990000FF99000000CC000033CC000066CC000099CC0000CCCC0000FFCC000000FF000033FF000066FF000099FF0000CCFF0000FFFF000000003300330033006600330099003300CC003300FF003300003333003333
310
33006633330099333300CC333300FF33330000663300336633006666330099663300CC663300FF66330000993300339933006699330099993300CC993300FF99330000CC330033CC330066CC330099CC3300CCCC3300FFCC330000FF330033FF330066FF330099FF3300CCFF3300FFFF330000006600330066006600660099
310
006600CC006600FF00660000336600333366006633660099336600CC336600FF33660000666600336666006666660099666600CC666600FF66660000996600339966006699660099996600CC996600FF99660000CC660033CC660066CC660099CC6600CCCC6600FFCC660000FF660033FF660066FF660099FF6600CCFF6600
310
FFFF660000009900330099006600990099009900CC009900FF00990000339900333399006633990099339900CC339900FF33990000669900336699006666990099669900CC669900FF66990000999900339999006699990099999900CC999900FF99990000CC990033CC990066CC990099CC9900CCCC9900FFCC990000FF99
310
0033FF990066FF990099FF9900CCFF9900FFFF99000000CC003300CC006600CC009900CC00CC00CC00FF00CC000033CC003333CC006633CC009933CC00CC33CC00FF33CC000066CC003366CC006666CC009966CC00CC66CC00FF66CC000099CC003399CC006699CC009999CC00CC99CC00FF99CC0000CCCC0033CCCC0066CC
310
CC0099CCCC00CCCCCC00FFCCCC0000FFCC0033FFCC0066FFCC0099FFCC00CCFFCC00FFFFCC000000FF003300FF006600FF009900FF00CC00FF00FF00FF000033FF003333FF006633FF009933FF00CC33FF00FF33FF000066FF003366FF006666FF009966FF00CC66FF00FF66FF000099FF003399FF006699FF009999FF00CC
310
99FF00FF99FF0000CCFF0033CCFF0066CCFF0099CCFF00CCCCFF00FFCCFF0000FFFF0033FFFF0066FFFF0099FFFF00CCFFFF00FFFFFF00000000000D0D0D001A1A1A00282828003535350043434300505050005D5D5D006B6B6B00787878008686860093939300A1A1A100AEAEAE00BBBBBB00C9C9C900D6D6D600E4E4E400
310
F1F1F100FFFFFF0000000000000000000000000000000000000000000000000000000000000000000000000000000000E2E2E2E2E2E2E2E2E2E2E2E2E2E2E2E2E2E2E2E2E2E2E2E2E2E2E2E2E2E2E2E2E2E2E2E2E2E2E2E2E2E2E2E2E2E2E2E2E2E2E2E2E2E2E2E2E2E2E2E2E2E2E2E2E2E2E2E2E2E2E2E2E2E2E2E2E2E2E2
310
E2E2E2E2E2E2E2E2E2E2E2E2E2E2E2E2E2E2E2E2E2E2E2E2E2E2E2E2E2E2E2E2E2E2E2E2E2E2E2E2E2E2E2E2E2E2E2E2E2E2E2E2E2E2E2E2E2E2E2E2E2E2E2E2E2E2E2E2E2E2E2E2E2E2E2E2E2E2E2E2E2E2E2E2E2E2E2E2E2E2E2E2E2E2E2E2E2E2E2E2EFE2F5F5F5F5F5F5F5F5F5F5F5F5F5F5F5F5F5F5F5F5F5F5F5F5F5
310
F5F5F5F5F5F5F5F5F5F5F5F5F5F5F5F5F5F5F5F5F5F5F5F5F5F5F5F5F5F5F5F5F5F5F5F5F5F5F5F5F5F5F5F5F5F5F5F5F5F5F5F5F5F5F5F5F5F5F5F5F5F5F5F5F5F5F5F5F5F5F5F5F5F5F5F5F5F5F5F5F5F5F5F5F5F5F5F5F5F5F5F5F5F5F5F5F5F5F5F5F5F5F5F5F5F5F5F5F5F5F5F5F5F5F5F5F5F5F5F5F5F5F5F5F5F5F5
310
F5F5F5F5F5F5F5F5F5F5F5F5F5F5F5F5F5F5F5F5F5F5F5F5E2E2EFE2F5F5F5F5F5F5F5F5F5F5F5F5F5F5F5F5F5F5F5F5F5F5F5F5F5F5F5F5F5F5F5F5F5F5F5F5F5F5F5F5F5F5F5F5F5F5F5F5F5F5F5F5F5F5F5F5F5F5F5F5F5F5F5F5F5F5F5F5F5F5F5F5F5F5F5F5F5F5F5F5F5F5F5F5F5F5F5F5F5F5F5F5F5F5F5F5F5F5F5
310
F5F5F5F5F5F5F5F5F5F5F5F5F5F5F5F5F5F5F5F5F5F5F5F5F5F5F5F5F5F5F5F5F5F5F5F5F5F5F5F5F5F5F5F5F5F5F5F5F5F5F5F5F5F5F5F5F5F5F5F5F5F5F5F5F5F5F5F5F5F5F5F5F5F5F5F5F5E2E2EFE2F5F5F5F5F5F5F5F5F5F5F5F5F5F5F5F5F5F5F5F5F5F5F5F5F5F5F5F5F5F5F5F5F5F5F5F5F5F5F5F5F5F5F5F5F5F5
310
F5F5F5F5F5F5F5F5F5F5F5F5F5F5F5F5F5F5F5F5F5F5F5F5F5F5F5F5F5F5F5F5F5F5F5F5F5F5F5F5F5E2F5F5F5F5F5F5F5F5F5F5F5F5F5F5F5F5F5F5F5F5F5F5F5F5F5F5F5F5F5F5F5F5F5F5F5F5F5F5F5F5F5F5F5F5F5F5F5F5F5F5F5F5F5F5F5F5F5F5F5F5F5F5F5F5F5F5F5F5F5F5F5F5F5F5F5F5F5F5F5F5F5F5F5F5F5
310
F5F5F5E2E2EFE2F5F5E2E2E2E2E2E2E2E2E2E2E2E2E2E2E2E2E2E2E2E2E2E2E2E2E2E2E2E2E2E2E2E2E2E2E2E2E2E2E2E2E2E2E2E2E2E2E2E2E2E2E2E2E2E2E2E2E2E2E2E2E2E2E2E2E2E2E2E2E2E2E2E2E2E2E2E2E2E2E2E2E2E2E2E2E2E2E2E2E2E2E2E2E2E2E2E2E2E2E2E2E2E2E2E2E2E2E2E2E2E2E2E2E2E2E2E2E2E2
310
E2E2E2E2E2E2E2E2E2E2E2E2E2E2E2E2E2E2E2E2E2E2E2E2E2E2E2E2E2E2E2E2E2E2E2E2E2E2E2E2E2E2E2E2E2E2E2E2E2E2E2E2E2E2F5F5E2E2EFE2F5F5E2F5F5F5E2F5F5F5F5F5F5F5F5F5F5F5F5F5F5F5F5F5F5F5F5F5F5F5F5F5F5F5F5F5F5F5F5F5F5F5F5F5F5F5F5F5F5F5F5F5F5F5F5F5F5F5F5F5F5F5F5F5F5F5F5
310
F5F5F5F5F5F5F5F5F5F5F5F5F5F5F5F5F5F5F5F5F5F5F5F5F5F5F5F5F5F5F5F5E2F5F5E2E2E2E2E2E2E2E2E2E2E2E2E2E2E2E2E2E2E2E2E2E2E2E2E2F5F5E2F5F5F5F5F5F5F5F5F5F5F5F5F5F5F5F5F5F5F5F5F5F5F5F5F5F5F5F5F5F5F5F5F5F5F5F5F5F5F5E2F5F5F5E2F5F5E2E2EFE2F5F5E2F5F5F5E2F5F5F5F5F5F5F5
310
F5F5F5F5F5F5F5F5F5F5F5F5F5F5F5F5F5F5F5F5F5F5F5F5F5F5F5F5F5F5F5F5F5F5F5F5F5F5F5F5F5F5F5F5F5F5F5F5F5F5F5F5F5F5F5F5F5F5F5F5F5F5F5F5F5F5F5F5F5F5F5F5F5F5F5F5F5F5F5F5F5F5F5F5F5E2F5F5E2E2E2E2E2E2E2E2E2E2E2E2E2E2E2E2E2E2E2E2E2E2E2E2E2F5F5E2F5F5F5F5F5F5F5F5F5F5F5
310
F5F5F5F5F5F5F5F5F5F5F5F5F5F5F5F5F5F5F5F5F5F5F5F5F5F5F5F5E2F5F5F5E2F5F5E2E2EFE2F5F5E2F5F5F5E2F5F5F5F5F5F5F5F5F5F5F5F5F5F5F5F5F5F5F5F5F5F5F5F5F5F5F5F5F5F5F5F5F5F5F5F5F5F5F5F5F5F5F5F5F5F5F5F5F5F5F5F5F5F5F5F5F5F5F5F5F5F5F5F5F5F5F5F5F5F5F5F5F5F5F5F5F5F5F5F5F5
310
F5F5F5F5F5F5F5F5F5F5F5E2F5F5E2E2E2E2E2E2E2E2E2E2E2E2E2E2E2E2E2E2E2E2E2E2E2E2E2F5F5E2F5F5F5F5F5F5F5F5F5F5F5F5F5F5F5F5F5F5F5F5F5F5F5F5F5F5F5F5F5F5F5F5F5F5F5F5F5F5F5E2F5F5F5E2F5F5E2E2EFE2F5F5E2F5F5F5E2F5F5F5F5F5F5F5F5F5F5F5F5F5F5F5F5F5F5F5F5F5F5F5F5F5F5F5F5
310
F5F5F5F5F5F5F5F5F5F5F5F5F5F5F5F5F5F5F5F5F5F5F5F5F5F5F5F5F5F5F5F5F5F5F5F5F5F5F5F5F5F5F5F5F5F5F5F5F5F5F5F5F5F5F5F5F5F5F5F5F5F5F5F5E2F5F5E2E2E2E2E2E2E2E2E2E2E2E2E2E2E2E2E2E2E2E2E2E2E2E2E2F5F5E2F5F5F5F5F5F5F5F5F5F5F5F5F5F5F5F5F5F5F5F5F5F5F5F5F5F5F5F5F5F5F5F5
310
F5F5F5F5F5F5F5E2F5F5F5E2F5F5E2E2EFE2F5F5E2F5F5F5E2F5F5F5F5F5F5F5F5F5F5F5F5F5F5F5F5F5F5F5F5F5F5F5F5F5F5F5F5F5F5F5F5F5F5F5F5F5F5F5F5F5F5F5F5F5F5F5F5F5F5F5F5F5F5F5F5F5F5F5F5F5F5F5F5F5F5F5F5F5F5F5F5F5F5F5F5F5F5F5F5F5F5F5F5F5F5F5F5F5F5F5F5E2F5F5F5F5F5F5F5F5F5
310
F5F5F5F5F5F5F5F5F5F5F5F5F5F5F5F5F5F5F5F5E2F5F5F5F5F5F5F5F5F5F5F5F5F5F5F5F5F5F5F5F5F5F5F5F5F5F5F5F5F5F5F5F5F5F5F5F5F5F5F5E2F5F5F5E2F5F5E2E2EFE2F5F5E2F5F5F5E2F5F5F5F5F5F5F5F5F5F5F5F5F5F5F5F5F5F5F5F5F5F5F5F5F5F5F5F5F5F5F5F5F5F5F5F5F5F5F5F5F5F5F5F5F5F5F5F5F5
310
F5F5F5F5F5F5F5F5F5F5F5F5F5F5F5F5F5F5F5F5F5F5F5F5F5F5F5F5F5F5F5F5F5F5F5F5F5F5F5F5F5F5F5E2E2E2E2E2E2E2E2E2E2E2E2E2E2E2E2E2E2E2E2E2E2E2E2E2E2E2E2E2E2E2E2E2E2E2E2E2E2E2E2E2E2E2E2E2E2E2E2E2E2E2E2E2E2E2E2E2E2E2E2E2E2E2E2E2E2E2E2E2E2E2F5F5F5E2F5F5E2E2EFE2F5F5E2
310
F5F5F5E2F5F5F5F5F5F5F5F5F5F5F5F5F5F5F5F5F5F5F5F5F5F5F5F5F5F5F5F5F5F5F5F5F5F5F5F5F5F5F5F5F5F5F5F5F5F5F5F5F5F5F5F5F5F5F5F5F5F5F5F5F5F5F5F5F5F5F5F5F5F5F5F5F5F5F5F5F5F5F5F5F5F5F5F5F5F5F5F5F5F5F5F5E2F5F5F5F5F5F5F5F5F5F5F5F5F5F5F5F5F5F5F5F5F5F5F5F5F5F5F5F5F5F5
310
F5F5F5F5F5F5F5F5F5F5F5F5F5F5F5F5F5F5F5F5F5F5F5F5F5F5F5F5F5F5F5F5F5F5F5F5F5F5F5E2F5F5F5E2F5F5E2E2EFE2F5F5F5F5F5F5E2F5F5F5F5F5F5F5F5F5F5F5F5F5F5F5F5F5F5F5F5F5F5F5F5F5F5F5F5F5F5F5F5F5F5F5F5F5F5F5F5F5F5F5F5F5F5F5F5F5F5F5F5F5F5F5F5F5F5F5F5F5F5F5F5F5F5F5F5F5F5
310
F5F5F5F5F5F5F5F5F5F5F5F5F5F5F5F5F5F5F5F5F5F5E2F5F5F5F5F5F5F5F5F5F5F5F5F5F5F5F5F5F5E2E2E2E2E2E2E2E2E2E2E2E2E2E2E2E2E2E2E2E2E2E2E2E2E2E2E2E2E2E2E2E2E2E2E2F5F5F5F5F5F5F5F5F5F5F5F5F5F5F5F5E2F5F5F5F5F5F5E2E2EFE2F5F5F5F5F5F5E2F5F5F5F5F5F5F5F5F5F5F5F5F5F5F5F5F5
310
F5F5F5F5F5F5F5F5F5F5F5F5F5F5F5F5F5F5F5F5F5F5F5F5F5F5F5F5F5F5F5F5F5F5F5F5F5F5F5F5F5F5F5F5F5F5F5F5F5F5F5F5F5F5F5F5F5F5F5F5F5F5F5F5F5F5F5F5F5F5F5F5F5F5F5E2F5F5F5F5F5F5F5F5F5F5F5F5F5F5F5F5F5F5E2E2E2E2E2E2E2E2E2E2E2E2E2E2E2E2E2E2E2E2E2E2E2E2E2E2E2E2E2E2E2E2E2
310
E2E2F5F5F5F5F5F5F5F5F5F5F5F5F5F5F5F5E2F5F5F5F5F5F5E2E2EFE2F5F5F5F5F5F5E2F5F5F5F5F5F5F5F5F5F5F5F5F5F5F5F5F5F5F5F5F5F5F5F5F5F5F5F5F5F5F5F5F5F5F5F5F5F5F5F5F5F5F5F5F5F5F5F5F5F5F5F5F5F5F5F5F5F5F5F5F5F5F5F5F5F5F5F5F5F5F5F5F5F5F5F5F5F5F5F5F5F5F5F5F5F5F5F5F5F5F5
310
F5E2F5F5F5F5F5F5F5F5F5F5F5F5F5F5F5F5F5F5E2E2E2E2E2E2E2E2E2E2E2E2E2E2E2E2E2E2E2E2E2E2E2E2E2E2E2E2E2E2E2E2E2E2E2F5F5F5F5F5F5F5F5F5F5F5F5F5F5F5F5E2F5F5F5F5F5F5E2E2EFE2F5F5F5F5F5F5E2F5F5F5F5F5F5F5F5F5F5F5F5F5F5F5F5F5F5F5F5F5F5F5F5F5F5F5F5F5F5F5F5F5F5F5F5F5F5
310
F5F5F5F5F5F5F5F5F5F5F5F5F5F5F5F5F5F5F5F5F5F5F5F5F5F5F5F5F5F5F5F5F5F5F5F5F5F5F5F5F5F5F5F5F5F5F5F5F5F5F5F5F5F5E2F5F5F5F5F5F5F5F5F5F5F5F5F5F5F5F5F5F5E2E2E2E2E2E2E2E2E2E2E2E2E2E2E2E2E2E2E2E2E2E2E2E2E2E2E2E2E2E2E2E2E2E2E2F5F5F5F5F5F5F5F5F5F5F5F5F5F5F5F5E2F5F5
310
F5F5F5F5E2E2EFE2F5F5F5F5F5F5E2F5F5F5F5F5F5F5F5F5F5F5F5F5F5F5F5F5F5F5F5F5F5F5F5F5F5F5F5F5F5F5F5F5F5F5F5F5F5F5F5F5F5F5F5F5F5F5F5F5F5F5F5F5F5F5F5F5F5F5F5F5F5F5F5F5F5F5F5F5F5F5F5F5F5F5F5F5F5F5F5F5F5F5F5F5F5F5F5F5F5F5F5E2F5F5F5F5F5F5F5F5F5F5F5F5F5F5F5F5F5F5F5
310
F5F5F5F5F5F5F5F5F5F5F5F5F5F5F5F5F5F5F5F5F5F5F5F5F5F5F5F5F5F5F5F5F5F5F5F5F5F5F5F5F5F5F5F5F5F5F5F5F5F5E2F5F5F5F5F5F5E2E2EFE2F5F5F5F5F5F5E2F5F5F5F5F5F5F5F5F5F5F5F5F5F5F5F5F5F5F5F5F5F5F5F5F5F5F5F5F5F5F5F5F5F5F5F5F5F5F5F5F5F5F5F5F5F5F5F5F5F5F5F5F5F5F5F5F5F5F5
310
F5F5F5F5F5F5F5F5F5F5F5F5F5F5F5F5F5F5F5F5F5F5F5F5F5F5F5F5F5F5F5F5F5E2F5F5F5F5F5F5F5F5F5F5F5F5F5F5F5F5F5F5F5F5F5F5F5F5F5F5F5F5F5F5F5F5F5F5F5F5F5F5F5F5F5F5F5F5F5F5F5F5F5F5F5F5F5F5F5F5F5F5F5F5F5F5F5F5F5F5F5F5F5E2F5F5F5F5F5F5E2E2EFE2F5F5F5F5F5F5E2F5F5F5F5F5F5
310
F5F5F5F5F5F5F5F5F5F5F5F5F5F5F5F5F5F5F5F5F5F5F5F5F5F5F5F5F5F5F5F5F5F5F5F5F5F5F5F5F5F5F5F5F5F5F5F5F5F5F5F5F5F5F5F5F5F5F5F5F5F5F5F5F5F5F5F5F5F5F5F5F5F5F5F5F5F5F5F5F5F5F5F5F5F5E2E2E2E2E2E2E2E2E2E2E2E2E2E2E2E2E2E2E2E2E2E2E2E2E2E2E2E2E2E2E2E2E2E2E2E2E2E2E2E2E2
310
E2E2E2E2E2E2E2E2E2E2E2E2E2E2E2E2E2E2E2E2E2E2E2E2E2E2E2E2E2E2F5F5F5F5F5F5E2E2EFE2F5F5F5F5F5F5E2F5F5F5F5F5F5F5F5F5F5F5F5F5F5F5F5F5F5F5F5F5F5F5F5F5F5F5F5F5F5F5F5F5F5F5F5F5F5F5F5F5F5F5F5F5F5F5F5F5F5F5F5F5F5F5F5F5F5F5F5F5F5F5F5F5F5F5F5F5F5F5F5F5F5F5F5F5F5F5F5
310
F5F5F5F5F5F5F5F5F5F5F5F5E2F5F5F5F5F5F5F5F5F5F5F5F5F5F5F5F5F5F5F5F5F5F5F5F5F5F5F5F5F5F5F5F5F5F5F5F5F5F5F5F5F5F5F5F5F5F5F5F5F5F5F5F5F5F5F5F5F5F5F5F5F5F5F5F5F5F5F5F5F5E2F5F5F5F5F5F5E2E2EFE2F5F5F5F5F5F5E2F5F5F5F5F5F5F5F5F5F5F5F5F5F5F5F5F5F5F5F5F5F5F5F5F5F5F5
310
F5F5F5F5F5F5F5F5F5F5F5F5F5F5F5F5F5F5F5F5F5F5F5F5F5F5F5F5F5F5F5F5F5F5F5F5F5F5F5F5F5F5F5F5F5F5F5F5F5F5F5F5F5F5F5F5F5F5F5F5F5F5F5F5F5E2E2E2E2E2E2E2E2E2E2E2E2E2E2E2E2E2E2E2E2E2E2E2E2E2E2E2E2E2E2E2E2E2E2E2E2E2E2E2E2E2E2E2E2E2E2E2E2E2E2E2E2E2E2E2E2E2E2E2E2E2E2
310
E2E2E2E2E2E2E2E2E2F5F5F5F5F5F5E2E2EFE2F5F5E2F5F5F5E2F5F5F5F5F5F5F5F5F5F5F5F5F5F5F5F5F5F5F5F5F5F5F5F5F5F5F5F5F5F5F5F5F5F5F5F5F5F5F5F5F5F5F5F5F5F5F5F5F5F5F5F5F5F5F5F5F5F5F5F5F5F5F5F5F5F5F5F5F5F5F5F5F5F5F5F5F5F5F5F5F5F5F5F5F5F5F5F5F5F5F5F5F5F5F5F5F5F5F5F5F5
310
F5F5F5F5F5F5F5F5F5F5F5F5F5F5F5F5F5F5F5F5F5F5F5F5F5F5F5F5F5F5F5F5F5F5F5F5F5F5F5F5F5F5F5F5F5F5F5F5F5F5F5F5F5F5F5F5F5F5F5F5F5E2F5F5F5E2F5F5E2E2EFE2F5F5E2F5F5F5E2F5F5F5F5F5F5F5F5F5F5F5F5F5F5F5F5F5F5F5F5F5F5F5F5F5F5F5F5F5F5F5F5F5F5F5F5F5F5F5F5F5F5F5F5F5F5F5F5
310
F5F5F5F5F5F5F5F5F5F5F5F5F5F5F5F5F5F5F5F5F5F5F5F5F5F5F5F5F5F5F5F5F5F5F5F5F5F5F5F5F5F5F5F5F5F5F5F5F5F5F5F5F5F5F5F5F5F5F5F5F5F5F5F5F5F5F5F5F5F5F5F5F5F5F5F5F5F5F5F5F5F5F5F5F5F5F5F5F5F5F5F5F5F5F5F5F5F5F5F5F5F5F5F5F5F5F5F5F5F5F5F5F5F5E2F5F5F5E2F5F5E2E2EFE2F5F5
310
E2F5F5F5E2F5F5F5F5F5F5F5F5F5F5F5F5F5F5F5F5F5F5F5F5F5F5F5F5F5F5F5F5F5F5F5F5F5F5F5F5F5F5F5F5F5F5F5F5F5F5F5F5F5F5F5F5F5F5F5F5F5F5F5F5F5F5F5F5F5F5F5F5F5F5F5F5F5F5F5F5F5F5F5F5F5F5F5F5F5F5F5F5F5F5F5F5F5F5F5F5F5F5F5F5F5F5F5F5F5F5F5F5F5F5F5F5F5F5F5F5F5F5F5F5F5F5
310
F5F5F5F5F5F5F5F5F5F5F5F5F5F5F5F5F5F5F5F5F5F5F5F5F5F5F5F5F5F5F5F5F5F5F5F5F5F5F5F5E2F5F5F5E2F5F5E2E2EFE2F5F5E2F5F5F5E2F5F5F5F5F5F5F5F5F5F5F5F5F5F5F5F5F5F5F5F5F5F5F5F5F5F5F5F5F5F5F5F5F5F5F5F5F5F5F5F5F5F5F5F5F5F5F5F5F5F5F5F5F5F5F5F5F5F5F5F5F5F5F5F5F5F5F5F5F5
310
F5F5F5F5F5F5F5F5F5F5F5F5F5F5F5F5F5F5F5F5F5F5F5F5F5F5F5F5F5F5F5F5F5F5F5F5F5F5F5F5F5F5F5F5F5F5F5F5F5F5F5F5F5F5F5F5F5F5F5F5F5F5F5F5F5F5F5F5F5F5F5F5F5F5F5F5F5F5F5F5F5F5F5F5F5F5F5F5F5F5F5F5F5E2F5F5F5E2F5F5E2E2EFE2F5F5E2F5F5F5E2F5F5F5F5F5F5F5F5F5F5F5F5F5F5F5F5
310
F5F5F5F5F5F5F5F5F5F5F5F5F5F5F5F5F5F5F5F5F5F5F5F5F5F5F5F5F5F5F5F5F5F5F5F5F5F5F5F5F5F5F5F5F5F5F5F5F5F5F5F5F5F5F5F5F5F5F5F5F5F5F5F5F5F5F5F5F5F5F5F5F5F5F5F5F5F5F5F5F5F5F5F5F5F5F5F5F5F5F5F5F5F5F5F5F5F5F5F5F5F5F5F5F5F5F5F5F5F5F5F5F5F5F5F5F5F5F5F5F5F5F5F5F5F5F5
310
F5F5F5F5F5F5F5F5F5F5F5F5F5F5F5F5F5F5F5E2F5F5F5E2F5F5E2E2EFE2F5F5E2F5F5F5E2F5F5F5F5F5F5F5F5F5F5F5F5F5F5F5F5F5F5F5F5F5F5F5F5F5F5F5F5F5F5F5F5F5F5F5F5F5F5F5F5F5F5F5F5F5F5F5F5F5F5F5F5F5F5F5F5F5F5F5F5F5F5F5F5F5F5F5F5F5F5F5F5F5F5F5F5F5F5F5F5F5F5F5F5F5F5F5F5F5F5
310
F5F5F5F5F5F5F5F5F5F5F5F5F5F5F5F5F5F5F5F5F5F5F5F5F5F5F5F5F5F5F5F5F5F5F5F5F5F5F5F5F5F5F5F5F5F5F5F5F5F5F5F5F5F5F5F5F5F5F5F5F5F5F5F5F5F5F5F5F5F5F5F5E2F5F5F5E2F5F5E2E2EFE2F5F5E2F5F5F5E2F5F5F5F5F5F5F5F5F5F5F5F5F5F5F5F5F5F5F5F5F5F5F5F5F5F5F5F5F5F5F5F5F5F5F5F5F5
310
F5F5F5F5F5F5F5F5F5F5F5F5F5F5F5F5F5F5F5F5F5F5F5F5F5F5F5F5F5F5F5F5F5F5F5F5F5F5F5F5F5F5F5F5F5F5F5F5F5F5F5F5F5F5F5F5F5F5F5F5F5F5F5F5F5F5F5F5F5F5F5F5F5F5F5F5F5F5F5F5F5F5F5F5F5F5F5F5F5F5F5F5F5F5F5F5F5F5F5F5F5F5F5F5F5F5F5F5F5F5F5F5F5F5F5F5F5F5F5F5F5F5F5F5F5E2F5
310
F5F5E2F5F5E2E2EFE2F5F5E2F5F5F5E2F5F5F5F5F5F5F5F5F5F5F5F5F5F5F5F5F5F5F5F5F5F5F5F5F5F5F5F5F5F5F5F5F5F5F5F5F5F5F5F5F5F5F5F5F5F5F5F5F5F5F5F5F5F5F5F5F5F5F5F5F5F5F5F5F5F5F5F5F5F5F5F5F5F5F5F5F5F5F5F5F5F5F5F5F5F5F5F5F5F5F5F5F5F5F5F5F5F5F5F5F5F5F5F5F5F5F5F5F5F5F5
310
F5F5F5F5F5F5F5F5F5F5F5F5F5F5F5F5F5F5F5F5F5F5F5F5F5F5F5F5F5F5F5F5F5F5F5F5F5F5F5F5F5F5F5F5F5F5F5F5F5F5F5E2F5F5F5E2F5F5E2E2EFE2F5F5E2F5F5F5E2F5F5F5F5F5F5F5F5F5F5F5F5F5F5F5F5F5F5F5F5F5F5F5F5F5F5F5F5F5F5F5F5F5F5F5F5F5F5F5F5F5F5F5F5F5F5F5F5F5F5F5F5F5F5F5F5F5F5
310
F5F5F5F5F5F5F5F5F5F5F5F5F5F5F5F5F5F5F5F5F5F5F5F5F5F5F5F5F5F5F5F5F5F5F5F5F5F5F5F5F5F5F5F5F5F5F5F5F5F5F5F5F5F5F5F5F5F5F5F5F5F5F5F5F5F5F5F5F5F5F5F5F5F5F5F5F5F5F5F5F5F5F5F5F5F5F5F5F5F5F5F5F5F5F5F5F5F5F5F5F5F5F5F5E2F5F5F5E2F5F5E2E2EFE2F5F5E2F5F5F5E2F5F5F5F5F5
310
F5F5F5F5F5F5F5F5F5F5F5F5F5F5F5F5F5F5F5F5F5F5F5F5F5F5F5F5F5F5F5F5F5F5F5F5F5F5F5F5F5F5F5F5F5F5F5F5F5F5F5F5F5F5F5F5F5F5F5F5F5F5F5F5F5F5F5F5F5F5F5F5F5F5F5F5F5F5F5F5F5F5F5F5F5F5F5F5F5F5F5F5F5F5F5F5F5F5F5F5F5F5F5F5F5F5F5F5F5F5F5F5F5F5F5F5F5F5F5F5F5F5F5F5F5F5F5
310
F5F5F5F5F5F5F5F5F5F5F5F5F5F5F5F5F5F5F5F5F5F5F5F5F5F5F5F5F5F5E2F5F5F5E2F5F5E2E2EFE2F5F5E2F5F5F5E2F5F5F5F5F5F5F5F5F5F5F5F5F5F5F5F5F5F5F5F5F5F5F5F5F5F5F5F5F5F5F5F5F5F5F5F5F5F5F5F5F5F5F5F5F5F5F5F5F5F5F5F5F5F5F5F5F5F5F5F5F5F5F5F5F5F5F5F5F5F5F5F5F5F5F5F5F5F5F5
310
F5F5F5F5F5F5F5F5F5F5F5F5F5F5F5F5F5F5F5F5F5F5F5F5F5F5F5F5F5F5F5F5F5F5F5F5F5F5F5F5F5F5F5F5F5F5F5F5F5F5F5F5F5F5F5F5F5F5F5F5F5F5F5F5F5F5F5F5F5F5F5F5F5F5F5F5F5F5F5F5F5F5F5E2F5F5F5E2F5F5E2E2EFE2F5F5E2F5F5F5E2F5F5F5F5F5F5F5F5F5F5F5F5F5F5F5F5F5F5F5F5F5F5F5F5F5F5
310
F5F5F5F5F5F5F5F5F5F5F5F5F5F5F5F5F5F5F5F5F5F5F5F5F5F5F5F5F5F5F5F5F5F5F5F5F5F5F5F5F5F5F5F5F5F5F5F5F5F5F5F5F5F5F5F5F5F5F5F5F5F5F5F5F5F5F5F5F5F5F5F5F5F5F5F5F5F5F5F5F5F5F5F5F5F5F5F5F5F5F5F5F5F5F5F5F5F5F5F5F5F5F5F5F5F5F5F5F5F5F5F5F5F5F5F5F5F5F5F5F5F5F5F5F5F5F5
310
F5F5F5F5F5F5F5F5F5E2F5F5F5E2F5F5E2E2EFE2F5F5E2F5F5F5E2F5F5F5F5F5F5F5F5F5F5F5F5F5F5F5F5F5F5F5F5F5F5F5F5F5F5F5F5F5F5F5F5F5F5F5F5F5F5F5F5F5F5F5F5F5F5F5F5F5F5F5F5F5F5F5F5F5F5F5F5F5F5F5F5F5F5F5F5F5F5F5F5F5F5F5F5F5F5F5F5F5F5F5F5F5F5F5F5F5F5F5F5F5F5F5F5F5F5F5F5
310
F5F5F5F5F5F5F5F5F5F5F5F5F5F5F5F5F5F5F5F5F5F5F5F5F5F5F5F5F5F5F5F5F5F5F5F5F5F5F5F5F5F5F5F5F5F5F5F5F5F5F5F5F5F5F5F5F5F5F5F5F5F5E2F5F5F5E2F5F5E2E2EFE2F5F5E2F5F5F5E2F5F5F5F5F5F5F5F5F5F5F5F5F5F5F5F5F5F5F5F5F5F5F5F5F5F5F5F5F5F5F5F5F5F5F5F5F5F5F5F5F5F5F5F5F5F5F5
310
F5F5F5F5F5F5F5F5F5F5F5F5F5F5F5F5F5F5F5F5F5F5F5F5F5F5F5F5F5F5F5F5F5F5F5F5F5F5F5F5F5F5F5F5F5F5F5F5F5F5F5F5F5F5F5F5F5F5F5F5F5F5F5F5F5F5F5F5F5F5F5F5F5F5F5F5F5F5F5F5F5F5F5F5F5F5F5F5F5F5F5F5F5F5F5F5F5F5F5F5F5F5F5F5F5F5F5F5F5F5F5F5F5F5F5E2F5F5F5E2F5F5E2E2EFE2F5
310
F5E2F5F5F5E2F5F5F5F5F5F5F5F5F5F5F5F5F5F5F5F5F5F5F5F5F5F5F5F5F5F5F5F5F5F5F5F5F5F5F5F5F5F5F5F5F5F5F5F5F5F5F5F5F5F5F5F5F5F5F5F5F5F5F5F5F5F5F5F5F5F5F5F5F5F5F5F5F5F5F5F5F5F5F5F5F5F5F5F5F5F5F5F5F5F5F5F5F5F5F5F5F5F5F5F5F5F5F5F5F5F5F5F5F5F5F5F5F5F5F5F5F5F5F5F5F5
310
F5F5F5F5F5F5F5F5F5F5F5F5F5F5F5F5F5F5F5F5F5F5F5F5F5F5F5F5F5F5F5F5F5F5F5F5F5F5F5F5F5E2F5F5F5E2F5F5E2E2EFE2F5F5F5F5F5F5E2F5F5F5F5F5F5F5F5F5F5F5F5F5F5F5F5F5F5F5F5F5F5F5F5F5F5F5F5F5F5F5F5F5F5F5F5F5F5F5F5F5F5F5F5F5F5F5F5F5F5F5F5F5F5F5F5F5E2E2E2E2E2F5F5E2E2E2E2
310
F5F5F5F5F5F5F5F5F5F5F5F5F5F5F5F5F5F5F5F5F5F5F5F5F5F5F5F5F5E2E2E2E2E2F5F5F5F5F5F5F5F5F5F5F5F5F5F5F5F5F5F5F5F5F5F5F5F5F5F5F5F5F5F5F5F5F5F5F5F5F5F5F5F5F5F5F5F5F5F5F5F5F5F5F5F5F5F5F5F5F5F5F5F5E2F5F5F5F5F5F5E2E2EFE2F5F5F5F5F5F5E2F5F5F5F5F5F5F5F5F5F5F5F5F5F5F5
310
F5F5F5F5F5F5F5F5F5F5F5F5F5F5F5F5F5F5F5F5F5F5F5F5F5F5F5F5F5F5F5F5F5F5F5F5F5F5F5F5F5E2E2E2F5E2E2F5F5E2E2F5E2E2F5F5F5F5F5F5F5F5F5F5F5F5F5F5F5F5F5F5F5F5F5F5F5F5F5F5F5F5E2F5F5F5E2F5F5F5F5F5F5F5F5F5F5F5F5F5F5F5F5F5F5F5F5F5F5F5F5F5F5F5F5F5F5F5F5F5F5F5F5F5F5F5F5
310
F5F5F5F5F5F5F5F5F5F5F5F5F5F5F5F5F5F5F5F5E2F5F5F5F5F5F5E2E2EFE2F5F5F5F5F5F5E2F5F5F5F5F5F5F5F5F5F5F5F5F5F5F5F5F5F5F5F5F5F5F5F5F5F5F5F5F5F5F5F5F5F5F5F5F5F5F5F5F5F5F5F5F5F5F5F5F5F5F5F5F5F5E2E2F5F5F5F5E2E2F5F5E2E2F5F5F5E2E2E2F5F5F5F5F5F5F5F5F5F5F5F5F5F5F5F5F5
310
F5F5F5F5F5F5F5F5E2F5F5F5E2F5F5F5F5F5F5F5F5F5F5F5F5F5F5F5F5F5F5F5F5F5F5F5F5F5F5F5F5F5F5F5F5F5F5F5F5F5F5F5F5F5F5F5F5F5F5F5F5F5F5F5F5F5F5F5F5F5F5F5F5E2F5F5F5F5F5F5E2E2EFE2F5F5F5F5F5F5E2F5F5F5F5F5F5F5F5F5F5F5F5F5F5F5F5F5F5F5F5F5F5F5F5F5F5F5F5F5F5F5F5F5F5F5F5
310
F5F5F5F5F5F5F5F5F5F5F5F5F5F5F5F5F5E2E2F5E2E2E2E2E2E2F5F5E2E2E2E2E2F5F5E2F5F5F5F5F5F5F5F5F5F5F5F5F5F5F5F5F5F5F5F5F5F5F5F5F5E2F5F5F5E2F5F5F5F5F5F5F5F5F5F5F5F5F5F5F5F5F5F5F5F5F5F5F5F5F5F5F5F5F5F5F5F5F5F5F5F5F5F5F5F5F5F5F5F5F5F5F5F5F5F5F5F5F5F5F5F5F5F5F5F5E2
310
F5F5F5F5F5F5E2E2EFE2F5F5F5F5F5F5E2F5F5F5F5F5F5F5F5F5F5F5F5F5F5F5F5F5F5F5F5F5F5F5F5F5F5F5F5F5F5F5F5F5F5F5F5F5F5F5F5F5F5F5F5F5F5F5F5F5F5F5F5E2E2E2E2F5E2E2F5E2E2F5F5E2E2F5E2E2E2E2F5E2F5F5F5F5F5F5F5F5F5F5F5F5F5F5F5F5F5F5F5F5F5F5F5E2F5F5F5F5E2F5F5F5F5F5F5F5F5
310
F5F5F5F5F5F5F5F5F5F5F5F5F5F5F5F5F5F5F5F5F5F5F5F5F5F5F5F5F5F5F5F5F5F5F5F5F5F5F5F5F5F5F5F5F5F5F5F5F5F5F5F5E2F5F5F5F5F5F5E2E2EFE2F5F5F5F5F5F5E2F5F5F5F5F5F5F5F5F5F5F5F5F5F5F5F5F5F5F5F5F5F5F5F5F5F5F5F5F5F5F5F5F5F5F5F5F5F5F5F5F5F5F5F5F5F5F5F5F5F5E2E2F5F5E2F5E2
310
F5E2E2E2E2F5F5E2E2F5E2E2E2F5E2F5E2E2F5F5F5F5F5F5F5F5F5F5F5F5F5F5F5F5F5F5F5F5F5E2F5F5F5F5E2F5F5F5F5F5F5F5F5F5F5F5F5F5F5F5F5F5F5F5F5F5F5F5F5F5F5F5F5F5F5F5F5F5F5F5F5F5F5F5F5F5F5F5F5F5F5F5F5F5F5F5F5F5F5F5F5F5F5F5F5E2F5F5F5F5F5F5E2E2EFE2F5F5F5F5F5F5E2F5F5F5F5
310
F5F5F5F5F5F5F5F5F5F5F5F5F5F5F5F5F5F5F5F5F5F5F5F5F5F5F5F5F5F5F5F5F5F5F5F5F5F5F5F5F5F5F5F5F5F5E2E2F5E2F5E2F5F5E2E2E2E2F5F5E2E2E2E2F5F5E2F5E2F5E2E2F5F5F5F5F5F5F5F5F5F5F5F5F5F5F5F5F5F5F5F5E2F5F5F5F5E2F5F5F5F5F5F5F5F5F5F5F5F5F5F5F5F5F5F5F5F5F5F5F5F5F5F5F5F5F5
310
F5F5F5F5F5F5F5F5F5F5F5F5F5F5F5F5F5F5F5F5F5F5F5F5F5F5F5F5F5F5F5E2F5F5F5F5F5F5E2E2EFE2F5F5F5F5F5F5E2F5F5F5F5F5F5F5F5F5F5F5F5F5F5F5F5F5F5F5F5F5F5F5F5F5F5F5F5F5F5F5F5F5F5F5F5F5F5F5F5F5F5F5F5F5F5F5F5F5F5E2F5E2F5E2F5F5F5E2E2F5E2E2E2E2F5E2E2F5F5F5E2F5E2E2F5F5F5
310
F5F5F5F5F5F5F5F5F5F5F5F5F5F5F5F5F5F5E2F5F5F5F5F5E2F5F5F5F5F5F5F5F5F5F5F5F5F5F5F5F5F5F5F5F5F5F5F5F5F5F5F5F5F5F5F5F5F5F5F5F5F5F5F5F5F5F5F5F5F5F5F5F5F5F5F5F5F5F5F5F5F5F5F5E2F5F5F5F5F5F5E2E2EFE2F5F5E2F5F5F5E2F5F5F5F5F5F5F5F5F5F5F5F5F5F5F5F5F5F5F5F5F5F5F5F5F5
310
F5F5F5F5F5F5F5F5F5F5F5F5F5F5F5F5F5F5F5F5F5F5F5F5F5E2E2F5E2F5F5F5F5E2E2E2E2E2E2E2E2E2E2F5F5F5F5E2F5E2E2F5F5F5F5F5F5F5F5F5F5F5F5F5F5F5F5F5F5F5F5E2F5F5F5F5F5E2F5F5F5F5F5F5F5F5F5F5F5F5F5F5F5F5F5F5F5F5F5F5F5F5F5F5F5F5F5F5F5F5F5F5F5F5F5F5F5F5F5F5F5F5F5F5F5F5F5
310
F5F5F5F5F5F5F5F5F5F5E2F5F5F5E2F5F5E2E2EFE2F5F5E2F5F5F5E2F5F5F5F5F5F5F5F5F5F5F5F5F5F5F5F5F5F5F5F5F5F5F5F5F5F5F5F5F5F5F5F5F5F5F5F5F5F5F5F5F5F5F5F5F5F5F5F5F5E2E2E2E2F5F5F5F5F5F5E2E2E2E2E2E2F5E2E2F5F5F5F5E2F5E2E2E2F5F5F5F5F5F5F5F5F5F5F5F5F5F5F5F5F5F5F5E2F5F5
310
F5F5F5E2F5F5F5F5F5F5F5F5F5F5F5F5F5F5F5F5F5F5F5F5F5F5F5F5F5F5F5F5F5F5F5F5F5F5F5F5F5F5F5F5F5F5F5F5F5F5F5F5F5F5F5F5F5F5F5F5F5F5F5E2F5F5F5E2F5F5E2E2EFE2F5F5E2F5F5F5E2F5F5F5F5F5F5F5F5F5F5F5F5F5F5F5F5F5F5F5F5F5F5F5F5F5F5F5F5F5F5F5F5F5F5F5F5F5F5F5F5F5F5F5F5F5F5
310
F5F5E2E2E2F5E2F5F5F5F5F5F5E2E2E2E2E2E2E2E2F5F5F5F5F5F5E2F5E2E2E2F5F5F5F5F5F5F5F5F5F5F5F5F5F5F5F5F5E2F5F5F5F5F5F5E2F5F5F5F5F5F5F5F5F5F5F5F5F5F5F5F5F5F5F5F5F5F5F5F5F5F5F5F5F5F5F5F5F5F5F5F5F5F5F5F5F5F5F5F5F5F5F5F5F5F5F5F5F5F5F5F5F5F5F5E2F5F5F5E2F5F5E2E2EFE2
310
F5F5E2F5F5F5E2F5F5F5F5F5F5F5F5F5F5F5F5F5F5F5F5F5F5F5F5F5F5F5F5F5F5F5F5F5F5F5F5F5F5F5F5F5F5F5F5F5F5F5F5F5F5F5F5F5E2E2E2F5F5F5F5F5F5F5E2E2E2E2E2E2E2E2F5F5F5F5F5F5E2F5E2E2F5F5F5F5F5F5F5F5F5F5F5F5F5F5F5F5F5F5E2F5F5F5F5F5F5E2F5F5F5F5F5F5F5F5F5F5F5F5F5F5F5F5F5
310
F5F5F5F5F5F5F5F5F5F5F5F5F5F5F5F5F5F5F5F5F5F5F5F5F5F5F5F5F5F5F5F5F5F5F5F5F5F5F5F5F5F5E2F5F5F5E2F5F5E2E2EFE2F5F5E2F5F5F5E2F5F5F5F5F5F5F5F5F5F5F5F5F5F5F5F5F5F5F5F5F5F5F5F5F5F5F5F5F5F5F5F5F5F5F5F5F5F5F5F5F5F5F5F5F5F5F5F5F5E2E2E2F5F5F5F5F5F5F5E2E2E2E2E2E2E2E2
310
F5F5F5F5F5F5F5E2E2E2F5F5F5F5F5F5F5F5F5F5F5F5F5F5F5F5F5F5E2F5F5F5F5F5F5E2F5F5F5F5F5F5F5F5F5F5F5F5F5F5F5F5F5F5F5F5F5F5F5F5F5F5F5F5F5F5F5F5F5F5F5F5F5F5F5F5F5F5F5F5F5F5F5F5F5F5F5F5F5F5F5F5F5F5F5E2F5F5F5E2F5F5E2E2EFE2F5F5E2F5F5F5E2F5F5F5F5F5F5F5F5F5F5F5F5F5F5
310
F5F5F5F5F5F5F5F5F5F5F5F5F5F5F5F5F5F5F5F5F5F5F5F5F5F5F5F5F5F5F5F5F5F5E2F5E2E2E2E2E2E2E2E2E2E2E2E2E2E2E2E2E2E2E2E2E2E2E2E2E2E2F5E2F5F5F5F5F5F5F5F5F5F5F5F5F5F5F5F5F5E2E2E2E2E2E2E2E2F5F5F5F5F5F5F5F5F5F5F5F5F5F5F5F5F5F5F5F5F5F5F5F5F5F5F5F5F5F5F5F5F5F5F5F5F5F5
310
F5F5F5F5F5F5F5F5F5F5F5F5F5F5F5F5F5F5F5F5F5E2F5F5F5E2F5F5E2E2EFE2F5F5E2F5F5F5E2F5F5F5F5F5F5F5F5F5F5F5F5F5F5F5F5F5F5F5F5F5F5F5F5F5F5F5F5F5F5F5F5F5F5F5F5F5F5F5F5F5F5F5F5F5F5F5F5E2F5F5F5F5F5F5F5F5F5F5F5E2E2F5F5E2E2F5F5F5F5F5F5F5F5F5F5F5E2F5F5F5F5F5F5F5F5F5F5
310
F5F5F5F5F5F5F5E2F5F5F5F5F5F5E2F5F5F5F5F5F5F5F5F5F5F5F5F5F5F5F5F5F5F5F5F5F5F5F5F5F5F5F5F5F5F5F5F5F5F5F5F5F5F5F5F5F5F5F5F5F5F5F5F5F5F5F5F5F5F5F5F5F5F5E2F5F5F5E2F5F5E2E2EFE2F5F5E2F5F5F5E2F5F5F5F5F5F5F5F5F5F5F5F5F5F5F5F5F5F5F5F5F5F5F5F5F5F5F5F5F5F5F5F5F5F5F5
310
F5F5F5F5F5F5F5F5F5F5F5F5F5E2F5E2E2E2E2E2E2E2E2E2E2E2F5E2E2E2E2E2E2E2E2E2E2E2E2E2E2F5E2F5F5F5F5F5F5F5F5F5F5F5F5F5F5F5F5F5E2E2E2E2E2E2E2E2F5F5F5F5F5F5F5F5F5F5F5F5F5F5F5F5F5F5F5F5F5F5F5F5F5F5F5F5F5F5F5F5F5F5F5F5F5F5F5F5F5F5F5F5F5F5F5F5F5F5F5F5F5F5F5F5F5F5F5
310
E2F5F5F5E2F5F5E2E2EFE2F5F5E2F5F5F5E2F5F5F5F5F5F5F5F5F5F5F5F5F5F5F5F5F5F5F5F5F5F5F5F5F5F5F5F5F5F5F5F5F5F5F5F5F5F5F5F5F5F5F5F5F5F5F5F5E2E2E2E2F5F5F5F5F5F5F5F5F5E2E2E2E2F5F5F5F5F5F5F5F5F5E2E2E2E2F5F5F5F5F5F5F5F5F5F5F5F5F5F5F5F5F5E2E2E2E2E2E2E2E2F5F5F5F5F5F5
310
F5F5F5F5F5F5F5F5F5F5F5F5F5F5F5F5F5F5F5F5F5F5F5F5F5F5F5F5F5F5F5F5F5F5F5F5F5F5F5F5F5F5F5F5F5F5F5F5F5F5F5F5F5E2F5F5F5E2F5F5E2E2EFE2F5F5E2F5F5F5E2F5F5F5F5F5F5F5F5F5F5F5F5F5F5F5F5F5F5F5F5F5F5F5F5F5F5F5F5F5F5F5F5F5F5F5F5F5F5F5F5F5F5F5F5F5F5F5F5E2E2E2E2F5F5F5F5
310
F5F5F5F5F5F5E2E2E2F5F5F5F5F5F5F5F5E2E2F5E2E2F5F5F5F5F5F5F5F5F5F5F5F5F5F5F5F5F5E2E2E2E2E2E2E2E2F5F5F5F5F5F5F5F5F5F5F5F5F5F5F5F5F5F5F5F5F5F5F5F5F5F5F5F5F5F5F5F5F5F5F5F5F5F5F5F5F5F5F5F5F5F5F5F5F5F5F5F5F5F5F5F5F5F5F5E2F5F5F5E2F5F5E2E2EFE2F5F5E2F5F5F5E2F5F5F5
310
F5F5F5F5F5F5F5F5F5F5F5F5F5F5F5F5F5F5F5F5F5F5F5F5F5F5F5F5F5F5F5F5F5F5F5F5F5F5F5F5F5F5F5F5F5E2E2E2E2F5F5F5F5F5F5F5F5F5F5E2E2F5F5F5F5F5F5F5F5F5E2E2F5E2E2F5F5F5F5F5F5F5F5F5F5F5F5F5F5F5F5F5E2F5F5E2F5E2F5E2F5F5F5F5F5F5F5F5F5F5F5F5F5F5F5F5F5F5F5F5F5F5F5F5F5F5F5
310
F5F5F5F5F5F5F5F5F5F5F5F5F5F5F5F5F5F5F5F5F5F5F5F5F5F5F5F5F5F5F5F5E2F5F5F5E2F5F5E2E2EFE2F5F5E2F5F5F5E2F5F5F5F5F5F5F5F5F5F5F5F5F5F5F5F5F5F5F5F5F5F5F5F5F5F5F5F5F5F5F5F5F5F5F5F5F5F5F5F5F5F5F5F5F5F5F5F5E2E2E2E2E2F5F5F5F5F5F5F5F5F5E2E2E2F5F5F5F5F5F5F5F5E2E2E2E2
310
E2F5F5F5F5F5F5F5F5F5F5F5F5F5F5F5F5F5F5F5F5E2F5E2F5F5F5F5F5F5F5F5F5F5F5F5F5F5F5F5F5F5F5F5F5F5F5F5F5F5F5F5F5F5F5F5F5F5F5F5F5F5F5F5F5F5F5F5F5F5F5F5F5F5F5F5F5F5F5F5F5F5F5F5F5E2F5F5F5E2F5F5E2E2EFE2F5F5E2F5F5F5E2F5F5F5F5F5F5F5F5F5F5F5F5F5F5F5F5F5F5F5F5F5F5F5F5
310
F5F5F5F5F5F5F5F5F5F5F5F5F5F5F5F5F5F5F5F5F5F5F5F5E2F5E2E2F5E2F5F5F5F5F5F5F5F5E2E2E2F5F5F5F5F5F5F5E2E2F5E2F5E2F5F5F5F5F5F5F5F5F5F5F5F5F5F5F5F5F5E2F5F5E2F5E2F5E2F5F5F5F5F5F5F5F5F5F5F5F5F5F5F5F5F5F5F5F5F5F5F5F5F5F5F5F5F5F5F5F5F5F5F5F5F5F5F5F5F5F5F5F5F5F5F5F5
310
F5F5F5F5F5F5F5F5F5F5F5E2F5F5F5E2F5F5E2E2EFE2F5F5E2F5F5F5E2F5F5F5F5F5F5F5F5F5F5F5F5F5F5F5F5F5F5F5F5F5F5F5F5F5F5F5F5F5F5F5F5F5F5F5F5F5F5F5F5F5F5F5F5F5F5F5F5E2F5E2F5E2F5E2F5F5F5F5F5F5F5E2E2E2F5F5F5F5F5F5F5E2E2F5E2F5E2F5F5F5F5F5F5F5F5F5F5F5F5F5F5F5F5F5E2F5F5
310
E2F5E2F5E2F5F5F5F5F5F5F5F5F5F5F5F5F5F5F5F5F5F5F5F5F5F5F5F5F5F5F5F5F5F5F5F5F5F5F5F5F5F5F5F5F5F5F5F5F5F5F5F5F5F5F5F5F5F5F5F5F5F5F5E2F5F5F5E2F5F5E2E2EFE2F5F5E2F5F5F5E2F5F5F5F5F5F5F5F5F5F5F5F5F5F5F5F5F5F5F5F5F5F5F5F5F5F5F5F5F5F5F5F5F5F5F5F5F5F5F5F5F5F5F5F5F5
310
F5F5F5E2F5E2E2F5E2E2F5F5F5F5F5F5F5E2E2F5F5F5F5F5F5F5E2E2F5E2E2F5E2F5F5F5F5F5F5F5F5F5F5F5F5F5F5F5F5F5E2F5F5E2F5E2F5E2F5F5F5F5F5F5F5F5F5F5F5F5F5F5F5F5F5F5F5F5F5F5F5F5F5F5F5F5F5F5F5F5F5F5F5F5F5F5F5F5F5F5F5F5F5F5F5F5F5F5F5F5F5F5F5F5F5F5F5E2F5F5F5E2F5F5E2E2EF
310
E2F5F5F5F5F5F5E2F5F5F5F5F5F5F5F5F5F5F5F5F5F5F5F5F5F5F5F5F5F5F5F5F5F5F5F5F5F5F5F5F5F5F5F5F5F5F5F5F5F5F5F5F5F5F5F5E2F5E2E2F5F5E2E2F5F5F5F5F5F5E2E2E2F5F5F5F5E2E2E2F5F5E2F5F5E2F5F5F5F5F5F5F5F5F5F5F5F5F5F5F5F5F5E2F5F5E2F5E2F5E2F5F5F5F5F5F5F5F5F5F5F5F5F5F5F5F5
310
F5F5F5F5F5F5F5F5F5F5F5F5F5F5F5F5F5F5F5F5F5F5F5F5F5F5F5F5F5F5F5F5F5F5F5F5F5F5F5F5F5F5F5E2F5F5F5F5F5F5E2E2EFE2F5F5F5F5F5F5E2F5F5F5F5F5F5F5F5F5F5F5F5F5F5F5F5F5F5F5F5F5F5F5F5F5F5F5F5F5F5F5F5F5F5F5F5F5F5F5F5F5F5F5F5F5F5F5F5E2F5F5F5E2F5F5E2E2E2F5F5F5F5E2E2E2F5
310
F5F5E2F5E2F5E2E2F5F5F5E2F5F5F5F5F5F5F5F5F5F5F5F5F5F5F5F5F5E2F5F5E2F5E2F5E2F5F5F5F5F5F5F5F5F5F5F5F5F5F5F5F5F5F5F5F5F5F5F5F5F5F5F5F5F5F5F5F5F5F5F5F5F5F5F5F5F5F5F5F5F5F5F5F5F5F5F5F5F5F5F5F5F5F5F5E2F5F5F5F5F5F5E2E2EFE2F5F5F5F5F5F5E2F5F5F5F5F5F5F5F5F5F5F5F5F5
310
F5F5F5F5F5F5F5F5F5F5F5F5F5F5F5F5F5F5F5F5F5F5F5F5F5F5F5F5F5F5F5F5F5F5F5E2F5F5F5F5E2E2F5E2E2E2E2E2F5E2E2E2E2E2E2E2E2F5E2F5F5F5F5F5E2F5F5F5F5F5F5F5F5F5F5F5F5F5F5F5F5F5E2F5F5E2F5E2F5E2F5F5F5F5F5F5F5F5F5F5F5F5F5F5F5F5F5F5F5F5F5F5F5F5F5F5F5F5F5F5F5F5F5F5F5F5F5
310
F5F5F5F5F5F5F5F5F5F5F5F5F5F5F5F5F5F5F5F5F5F5E2F5F5F5F5F5F5E2E2EFE2F5F5F5F5F5F5E2F5F5F5F5F5F5F5F5F5F5F5F5F5F5F5F5F5F5F5F5F5F5F5F5F5F5F5F5F5F5F5F5F5F5F5F5F5F5F5F5F5F5F5F5F5F5F5F5E2F5F5F5F5E2E2E2F5F5E2E2F5E2E2E2E2E2E2E2F5F5E2E2F5F5F5F5F5E2F5F5F5F5F5F5F5F5F5
310
F5F5F5F5F5F5F5F5E2F5F5E2E2E2F5E2F5F5F5F5F5F5F5F5F5F5F5F5F5F5F5F5F5F5F5F5F5F5F5F5F5F5F5F5F5F5F5F5F5F5F5F5F5F5F5F5F5F5F5F5F5F5F5F5F5F5F5F5F5F5F5F5F5F5F5E2F5F5F5F5F5F5E2E2EFE2F5F5F5F5F5F5E2F5F5F5F5F5F5F5F5F5F5F5F5F5F5F5F5F5F5F5F5F5F5F5F5F5F5F5F5F5F5F5F5F5F5
310
F5F5F5F5F5F5F5F5F5F5F5F5F5F5E2F5F5F5F5F5F5F5E2E2F5F5E2E2E2E2E2F5F5E2E2E2F5F5F5F5F5F5F5E2F5F5F5F5F5F5F5F5F5F5F5F5F5F5F5F5F5E2F5F5E2E2E2F5E2F5F5F5F5F5F5F5F5F5F5F5F5F5F5F5F5F5F5F5F5F5F5F5F5F5F5F5F5F5F5F5F5F5F5F5F5F5F5F5F5F5F5F5F5F5F5F5F5F5F5F5F5F5F5F5F5F5F5
310
F5E2F5F5F5F5F5F5E2E2EFE2F5F5F5F5F5F5E2F5F5F5F5F5F5F5F5F5F5F5F5F5F5F5F5F5F5F5F5F5F5F5F5F5F5F5F5F5F5F5F5F5F5F5F5F5F5F5F5F5F5F5F5F5F5F5F5E2F5F5F5F5F5F5F5F5E2E2E2E2E2E2E2E2E2E2E2F5F5F5F5F5F5F5F5F5E2F5F5F5F5F5F5F5F5F5F5F5F5F5F5F5F5F5E2F5F5E2E2E2F5E2F5F5F5F5F5
310
F5F5F5F5F5F5F5F5F5F5F5F5F5F5F5F5F5F5F5F5F5F5F5F5F5F5F5F5F5F5F5F5F5F5F5F5F5F5F5F5F5F5F5F5F5F5F5F5F5F5F5F5F5F5E2F5F5F5F5F5F5E2E2EFE2F5F5F5F5F5F5E2F5F5F5F5F5F5F5F5F5F5F5F5F5F5F5F5F5F5F5F5F5F5F5F5F5F5F5F5F5F5F5F5F5F5F5F5F5F5F5F5F5F5F5F5F5F5F5F5E2F5F5F5F5F5F5
310
F5F5F5F5F5F5F5E2E2E2F5F5F5F5F5F5F5F5F5F5F5F5E2F5F5F5F5F5F5F5F5F5F5F5F5F5F5F5F5F5E2F5F5E2E2E2F5E2F5F5F5F5F5F5F5F5F5F5F5F5F5F5F5F5F5F5F5F5F5F5F5F5F5F5F5F5F5F5F5F5F5F5F5F5F5F5F5F5F5F5F5F5F5F5F5F5F5F5F5F5F5F5F5F5F5F5F5E2F5F5F5F5F5F5E2E2EFE2F5F5F5F5F5F5E2F5F5
310
F5F5F5F5F5F5F5F5F5F5F5F5F5F5F5F5F5F5F5F5F5F5F5F5F5F5F5F5F5F5F5F5F5F5F5F5F5F5F5F5F5F5F5F5F5F5E2F5F5F5F5F5F5F5F5F5F5F5F5F5F5F5E2F5F5F5F5F5F5F5F5F5F5F5F5E2F5F5F5F5F5F5F5F5F5F5F5F5F5F5F5F5F5E2F5F5E2F5E2F5E2F5F5F5F5F5F5F5F5F5F5F5F5F5F5F5F5F5F5F5F5F5F5F5F5F5F5
310
F5F5F5F5F5F5F5F5F5F5F5F5F5F5F5F5F5F5F5F5F5F5F5F5F5F5F5F5F5F5F5F5F5E2F5F5F5F5F5F5E2E2EFE2F5F5F5F5F5F5E2F5F5F5F5F5F5F5F5F5F5F5F5F5F5F5F5F5F5F5F5F5F5F5F5F5F5F5F5F5F5F5F5F5F5F5F5F5F5F5F5F5F5F5F5F5F5F5F5F5F5F5F5F5F5F5F5F5F5F5F5F5F5F5F5E2F5F5F5F5F5F5F5F5F5F5F5
310
F5F5F5F5F5F5F5F5F5F5F5F5F5F5F5F5F5F5F5E2F5F5E2F5E2F5E2F5F5F5F5F5F5F5F5F5F5F5F5F5F5F5F5F5F5F5F5F5F5F5F5F5F5F5F5F5F5F5F5F5F5F5F5F5F5F5F5F5F5F5F5F5F5F5F5F5F5F5F5F5F5F5F5F5F5F5E2F5F5F5F5F5F5E2E2EFE2F5F5E2F5F5F5E2F5F5F5F5F5F5F5F5F5F5F5F5F5F5F5F5F5F5F5F5F5F5F5
310
F5F5F5F5F5F5F5F5F5F5F5F5F5F5F5F5F5F5F5F5F5F5F5F5F5E2F5F5F5F5F5F5F5F5F5F5F5F5F5F5F5E2F5F5F5F5F5F5F5F5F5F5F5F5E2F5F5F5F5F5F5F5F5F5F5F5F5F5F5F5F5F5F5F5F5E2F5E2F5F5F5F5F5F5F5F5F5F5F5F5F5F5F5F5F5F5F5F5F5F5F5F5F5F5F5F5F5F5F5F5F5F5F5F5F5F5F5F5F5F5F5F5F5F5F5F5F5
310
F5F5F5F5F5F5F5F5F5F5F5F5E2F5F5F5E2F5F5E2E2EFE2F5F5E2F5F5F5E2F5F5F5F5F5F5F5F5F5F5F5F5F5F5F5F5F5F5F5F5F5F5F5F5F5F5F5F5F5F5F5F5F5F5F5F5F5F5F5F5F5F5F5F5F5F5F5F5E2F5F5F5F5F5F5F5F5F5F5F5F5F5F5F5E2F5F5F5F5F5F5F5F5F5F5F5F5E2F5F5F5F5F5F5F5F5F5F5F5F5F5F5F5F5F5E2F5
310
F5E2F5E2F5E2F5F5F5F5F5F5F5F5F5F5F5F5F5F5F5F5F5F5F5F5F5F5F5F5F5F5F5F5F5F5F5F5F5F5F5F5F5F5F5F5F5F5F5F5F5F5F5F5F5F5F5F5F5F5F5F5F5F5F5E2F5F5F5E2F5F5E2E2EFE2F5F5E2F5F5F5E2F5F5F5F5F5F5F5F5F5F5F5F5F5F5F5F5F5F5F5F5F5F5F5F5F5F5F5F5F5F5F5F5F5F5F5F5F5F5F5F5F5F5F5F5
310
F5F5F5F5E2F5F5F5F5F5F5F5F5F5F5F5F5F5F5F5E2F5F5F5F5F5F5F5F5F5F5F5F5E2F5F5F5F5F5F5F5F5F5F5F5F5F5F5F5F5F5E2F5F5E2F5E2F5E2F5F5F5F5F5F5F5F5F5F5F5F5F5F5F5F5F5F5F5F5F5F5F5F5F5F5F5F5F5F5F5F5F5F5F5F5F5F5F5F5F5F5F5F5F5F5F5F5F5F5F5F5F5F5F5F5F5F5F5E2F5F5F5E2F5F5E2E2
310
EFE2F5F5E2F5F5F5E2F5F5F5F5F5F5F5F5F5F5F5F5F5F5F5F5F5F5F5F5F5F5F5F5F5F5F5F5F5F5F5F5F5F5F5F5F5F5F5F5F5F5F5F5F5F5F5F5F5F5F5F5F5F5F5F5F5F5F5F5F5F5F5F5F5F5F5F5F5F5F5F5F5F5F5F5F5E2F5F5F5F5F5F5F5F5F5F5F5F5F5F5F5F5F5E2F5F5E2F5E2F5E2F5F5F5F5F5F5F5F5F5F5F5F5F5F5F5
310
F5F5F5F5F5F5F5F5F5F5F5F5F5F5F5F5F5F5F5F5F5F5F5F5F5F5F5F5F5F5F5F5F5F5F5F5F5F5F5F5F5F5F5F5E2F5F5F5E2F5F5E2E2EFE2F5F5E2F5F5F5E2F5F5F5F5F5F5F5F5F5F5F5F5F5F5F5F5F5F5F5F5F5F5F5F5F5F5F5F5F5F5F5F5F5F5F5F5F5F5F5F5F5F5F5F5F5F5F5F5E2F5F5F5F5F5F5F5F5F5F5F5F5F5F5F5E2
310
F5F5F5F5F5F5F5F5F5F5F5F5E2F5F5F5F5F5F5F5F5F5F5F5F5F5F5F5F5F5F5F5F5E2F5E2F5F5F5F5F5F5F5F5F5F5F5F5F5F5F5F5F5F5F5F5F5F5F5F5F5F5F5F5F5F5F5F5F5F5F5F5F5F5F5F5F5F5F5F5F5F5F5F5F5F5F5F5F5F5F5F5F5F5F5F5F5E2F5F5F5E2F5F5E2E2EFE2F5F5E2F5F5F5E2F5F5F5F5F5F5F5F5F5F5F5F5
310
F5F5F5F5F5F5F5F5F5F5F5F5F5F5F5F5F5F5F5F5F5F5F5F5F5F5F5F5F5F5F5F5F5F5F5F5E2F5F5F5F5F5F5F5F5F5F5F5F5F5F5F5E2F5E2F5F5F5F5F5F5F5F5E2F5E2F5F5F5F5F5F5F5F5F5F5F5F5F5F5F5F5F5E2F5F5E2F5E2F5E2E2F5F5F5F5F5F5F5F5F5F5F5F5F5F5F5F5F5F5F5F5F5F5F5F5F5F5F5F5F5F5F5F5F5F5F5
310
F5F5F5F5F5F5F5F5F5F5F5F5F5F5F5F5F5F5F5F5F5F5F5E2F5F5F5E2F5F5E2E2EFE2F5F5E2F5F5F5E2F5F5F5F5F5F5F5F5F5F5F5F5F5F5F5F5F5F5F5F5F5F5F5F5F5F5F5F5F5F5F5F5F5F5F5F5F5F5F5F5F5F5F5F5F5F5F5F5E2F5F5F5F5F5F5F5F5F5F5F5F5F5F5F5E2E2E2E2E2E2E2E2E2E2E2E2E2E2F5E2E2E2E2F5E2E2
310
E2E2E2E2E2E2E2E2E2E2E2E2E2E2E2E2E2E2E2E2F5F5F5F5F5F5F5F5F5F5F5F5F5F5F5F5F5F5F5F5F5F5F5F5F5F5F5F5F5F5F5F5F5F5F5F5F5F5F5F5F5F5F5F5F5F5F5F5F5F5F5F5F5F5F5F5E2F5F5F5E2F5F5E2E2EFE2F5F5E2F5F5F5E2F5F5F5F5F5F5F5F5F5F5F5F5F5F5F5F5F5F5F5F5F5F5F5F5F5F5F5F5F5F5F5F5F5
310
F5F5F5F5F5F5F5F5F5F5F5F5F5F5F5E2F5F5F5F5F5F5F5F5F5F5F5F5F5F5F5F5F5E2E2E2E2E2E2E2E2E2E2F5E2F5F5E2E2E2E2E2E2E2E2E2E2E2F5F5F5F5E2F5F5F5F5F5F5E2E2F5F5F5F5F5F5F5F5F5F5F5F5F5F5F5F5F5F5F5F5F5F5F5F5F5F5F5F5F5F5F5F5F5F5F5F5F5F5F5F5F5F5F5F5F5F5F5F5F5F5F5F5F5F5F5F5
310
F5F5E2F5F5F5E2F5F5E2E2EFE2F5F5E2F5F5F5E2F5F5F5F5F5F5F5F5F5F5F5F5F5F5F5F5F5F5F5F5F5F5F5F5F5F5F5F5F5F5F5F5F5F5F5F5F5F5F5F5F5F5F5F5F5F5F5F5E2F5F5F5F5F5F5F5F5F5F5F5F5F5F5F5F5F5E2E2E2E2E2E2E2E2E2F5F5E2F5F5E2E2E2E2E2E2E2E2E2E2E2F5F5F5F5E2F5F5F5F5F5F5E2F5F5F5F5
310
F5F5F5F5F5F5F5F5F5F5F5F5F5F5F5F5F5F5F5F5F5F5F5F5F5F5F5F5F5F5F5F5F5F5F5F5F5F5F5F5F5F5F5F5F5F5F5F5F5F5F5F5F5F5F5E2F5F5F5E2F5F5E2E2EFE2F5F5E2F5F5F5E2F5F5F5F5F5F5F5F5F5F5F5F5F5F5F5F5F5F5F5F5F5F5F5F5F5F5F5F5F5F5F5F5F5F5F5F5F5F5F5F5F5F5F5F5F5F5F5F5E2F5F5F5F5F5
310
F5F5F5F5F5F5F5F5F5F5F5F5E2E2E2E2E2E2E2E2E2F5F5E2F5F5E2E2E2E2E2E2E2E2E2E2E2F5F5F5F5E2F5F5F5F5F5F5E2F5F5F5F5F5F5F5F5F5F5F5F5F5F5F5F5F5F5F5F5F5F5F5F5F5F5F5F5F5F5F5F5F5F5F5F5F5F5F5F5F5F5F5F5F5F5F5F5F5F5F5F5F5F5F5F5F5F5F5E2F5F5F5E2F5F5E2E2EFE2F5F5E2F5F5F5E2F5
310
F5F5F5F5F5F5F5F5F5F5F5F5F5F5F5F5F5F5F5F5F5F5F5F5F5F5F5F5F5F5F5F5F5F5F5F5F5F5F5F5F5F5F5F5F5F5F5E2F5F5F5F5F5F5F5F5F5F5F5F5F5F5F5F5F5F5F5F5F5F5F5F5F5F5F5F5E2F5F5F5F5F5F5F5F5F5F5F5F5F5F5F5F5F5E2F5F5F5F5F5F5E2F5F5F5F5F5F5F5F5F5F5F5F5F5F5F5F5F5F5F5F5F5F5F5F5F5
310
F5F5F5F5F5F5F5F5F5F5F5F5F5F5F5F5F5F5F5F5F5F5F5F5F5F5F5F5F5F5F5F5F5F5E2F5F5F5E2F5F5E2E2EFE2F5F5E2F5F5F5E2F5F5F5F5F5F5F5F5F5F5F5F5F5F5F5F5F5F5F5F5F5F5F5F5F5F5F5F5F5F5F5F5F5F5F5F5F5F5F5F5F5F5F5F5F5F5F5F5E2F5F5F5F5F5F5F5F5F5F5F5F5F5F5F5F5F5F5F5F5F5F5F5F5F5F5
310
F5F5E2F5F5F5F5F5F5F5F5F5F5F5F5F5F5F5F5F5E2F5F5F5F5F5F5E2F5F5F5F5F5F5F5F5F5F5F5F5F5F5F5F5F5F5F5F5F5F5F5F5F5F5F5F5F5F5F5F5F5F5F5F5F5F5F5F5F5F5F5F5F5F5F5F5F5F5F5F5F5F5F5F5F5F5F5E2F5F5F5E2F5F5E2E2EFE2F5F5E2F5F5F5E2F5F5F5F5F5F5F5F5F5F5F5F5F5F5F5F5F5F5F5F5F5F5
310
F5F5F5F5F5F5F5F5F5F5F5F5F5F5F5F5F5F5F5F5F5F5F5F5F5F5E2F5F5F5F5F5F5F5F5F5F5F5F5F5F5F5F5F5F5F5F5F5F5F5F5F5F5F5F5E2F5F5F5F5F5F5F5F5F5F5F5F5F5F5F5F5F5E2F5F5F5F5F5F5E2F5F5F5F5F5F5F5F5F5F5F5F5F5F5F5F5F5F5F5F5F5F5F5F5F5F5F5F5F5F5F5F5F5F5F5F5F5F5F5F5F5F5F5F5F5F5
310
F5F5F5F5F5F5F5F5F5F5F5F5F5E2F5F5F5E2F5F5E2E2EFE2F5F5E2F5F5F5E2F5F5F5F5F5F5F5F5F5F5F5F5F5F5F5F5F5F5F5F5F5F5F5F5F5F5F5F5F5F5F5F5F5F5F5F5F5F5F5F5F5F5F5F5F5F5F5F5E2F5F5F5F5F5F5F5F5F5F5F5F5F5F5F5F5F5F5F5F5F5F5F5F5F5F5F5F5E2F5F5F5F5F5F5F5F5F5F5F5F5F5F5F5F5F5E2
310
F5F5F5F5F5F5E2F5F5F5F5F5F5F5F5F5F5F5F5F5F5F5F5F5F5F5F5F5F5F5F5F5F5F5F5F5F5F5F5F5F5F5F5F5F5F5F5F5F5F5F5F5F5F5F5F5F5F5F5F5F5F5F5F5F5F5E2F5F5F5E2F5F5E2E2EFE2F5F5E2F5F5F5E2F5F5F5F5F5F5F5F5F5F5F5F5F5F5F5F5F5F5F5F5F5F5F5F5F5F5F5F5F5F5F5F5F5F5F5F5F5F5F5F5F5F5F5
310
F5F5F5F5F5E2F5E2F5F5F5F5F5F5F5F5F5F5F5F5F5F5F5F5F5F5F5F5F5F5F5F5E2F5E2F5F5F5F5F5F5F5F5F5F5F5F5F5F5F5F5F5E2F5F5E2F5E2F5E2F5F5F5F5F5F5F5F5F5F5F5F5F5F5F5F5F5F5F5F5F5F5F5F5F5F5F5F5F5F5F5F5F5F5F5F5F5F5F5F5F5F5F5F5F5F5F5F5F5F5F5F5F5F5F5F5F5F5F5E2F5F5F5E2F5F5E2
310
E2EFE2F5F5F5F5F5F5E2F5F5F5F5F5F5F5F5F5F5F5F5F5F5F5F5F5F5F5F5F5F5F5F5F5F5F5F5F5F5F5F5F5F5F5F5F5F5F5F5F5F5F5F5F5F5F5F5E2E2E2E2E2E2F5E2E2E2F5E2E2E2E2E2E2E2E2E2E2E2E2F5E2E2E2E2E2E2E2E2F5E2E2E2E2E2E2E2E2E2E2E2E2F5E2E2E2E2E2E2E2E2E2F5F5F5F5F5F5F5F5F5F5F5F5F5F5
310
F5F5F5F5F5F5F5F5F5F5F5F5F5F5F5F5F5F5F5F5F5F5F5F5F5F5F5F5F5F5F5F5F5F5F5F5F5F5F5F5F5F5F5F5F5E2F5F5F5F5F5F5E2E2EFE2F5F5F5F5F5F5E2F5F5F5F5F5F5F5F5F5F5F5F5F5F5F5F5F5F5F5F5F5F5F5F5F5F5F5F5F5F5F5F5F5F5F5F5F5F5F5F5F5F5F5F5F5F5F5F5F5F5E2F5F5F5F5F5F5E2E2E2E2E2E2E2
310
E2E2E2E2E2F5F5F5F5F5F5E2F5F5E2E2E2E2E2E2E2E2E2E2E2F5F5F5F5F5F5F5F5F5E2F5E2F5F5F5F5F5F5F5F5F5F5F5F5F5F5F5F5F5F5F5F5F5F5F5F5F5F5F5F5F5F5F5F5F5F5F5F5F5F5F5F5F5F5F5F5F5F5F5F5F5F5F5F5F5F5F5F5F5F5F5F5F5E2F5F5F5F5F5F5E2E2EFE2F5F5F5F5F5F5E2F5F5F5F5F5F5F5F5F5F5F5
310
F5F5F5F5F5F5F5F5F5F5F5F5F5F5F5F5F5F5F5F5F5F5F5F5F5F5F5F5F5F5F5F5F5F5F5F5F5F5F5F5F5F5F5F5F5F5E2E2E2E2E2E2E2E2E2E2E2E2F5F5F5F5F5F5F5F5F5E2E2E2E2E2E2E2E2E2E2E2F5F5F5F5F5F5F5F5F5F5F5F5F5F5F5F5F5F5F5F5F5F5F5F5F5F5F5F5F5F5F5F5F5F5F5F5F5F5F5F5F5F5F5F5F5F5F5F5F5
310
F5F5F5F5F5F5F5F5F5F5F5F5F5F5F5F5F5F5F5F5F5F5F5F5E2F5F5F5F5F5F5E2E2EFE2F5F5F5F5F5F5E2F5F5F5F5F5F5F5F5F5F5F5F5F5F5F5F5F5F5F5F5F5F5F5F5F5F5F5F5F5F5F5F5F5F5F5F5F5F5F5F5F5F5F5F5F5F5F5F5F5F5F5F5F5F5F5F5F5E2E2E2E2E2E2E2E2E2E2E2E2F5F5F5F5F5F5F5F5F5E2E2E2E2E2E2E2
310
E2E2E2E2F5F5F5F5F5F5F5F5F5F5F5F5F5F5F5F5F5F5F5F5F5F5F5F5F5F5F5F5F5F5F5F5F5F5F5F5F5F5F5F5F5F5F5F5F5F5F5F5F5F5F5F5F5F5F5F5F5F5F5F5F5F5F5F5F5F5F5F5F5F5F5F5F5E2F5F5F5F5F5F5E2E2EFE2F5F5F5F5F5F5E2F5F5F5F5F5F5F5F5F5F5F5F5F5F5F5F5F5F5F5F5F5F5F5F5F5F5F5F5F5F5F5F5
310
F5F5F5F5F5F5F5F5F5F5F5F5F5F5F5F5F5F5F5F5F5F5F5F5F5F5F5F5F5F5F5F5F5F5F5F5F5F5F5F5F5F5F5F5F5F5F5F5F5F5F5F5F5F5F5F5F5F5F5F5F5F5F5F5F5F5F5F5F5F5F5F5F5F5F5F5F5F5F5F5F5F5F5F5F5F5F5F5F5F5F5F5F5F5F5F5F5F5F5F5F5F5F5F5F5F5F5F5F5F5F5F5F5F5F5F5F5F5F5F5F5F5F5F5F5F5F5
310
F5F5F5E2F5F5F5F5F5F5E2E2EFE2F5F5F5F5F5F5E2F5F5F5F5F5F5F5F5F5F5F5F5F5F5F5F5F5F5F5F5F5F5F5F5F5F5F5F5F5F5F5F5F5F5F5F5F5F5F5F5F5F5F5F5F5F5F5F5F5F5F5F5F5F5F5F5F5F5F5F5F5F5F5F5F5F5F5F5F5F5F5F5F5F5F5F5F5F5F5F5F5F5F5F5F5F5F5F5F5F5F5F5F5F5F5F5F5F5F5F5F5F5F5F5F5F5
310
F5F5F5F5F5F5F5F5F5F5F5F5F5F5F5F5F5F5F5F5F5F5F5F5F5F5F5F5F5F5F5F5F5F5F5F5F5F5F5F5F5F5F5F5F5F5F5F5F5F5F5F5F5F5F5F5E2F5F5F5F5F5F5E2E2EFE2F5F5F5F5F5F5E2F5F5F5F5F5F5F5F5F5F5F5F5F5F5F5F5F5F5F5F5F5F5F5F5F5F5F5F5F5F5F5F5F5F5F5F5F5F5F5F5F5F5F5F5F5F5F5F5F5F5F5F5F5
310
F5F5F5F5F5F5F5F5F5F5F5F5F5F5F5F5F5F5F5F5F5F5F5F5F5F5F5F5F5F5F5F5F5F5F5F5F5F5F5F5F5F5F5F5F5F5F5F5F5F5F5F5F5F5F5F5F5F5F5F5F5F5F5F5F5F5F5F5F5F5F5F5F5F5F5F5F5F5F5F5F5F5F5F5F5F5F5F5F5F5F5F5F5F5F5F5F5F5F5F5F5F5F5F5F5F5F5F5F5E2F5F5F5F5F5F5E2E2EFE2F5F5F5F5F5F5E2
310
F5F5F5F5F5F5F5F5F5F5F5F5F5F5F5F5F5F5F5F5F5F5F5F5F5F5F5F5F5F5F5F5F5F5F5F5F5F5F5F5F5F5F5F5F5F5F5F5F5F5F5F5F5F5F5F5F5F5F5F5F5F5F5F5F5F5F5F5F5F5F5F5F5F5F5F5F5F5F5F5F5F5F5F5F5F5F5F5F5F5F5F5F5F5F5F5F5F5F5F5F5F5F5F5F5F5F5F5F5F5F5F5F5F5F5F5F5F5F5F5F5F5F5F5F5F5F5
310
F5F5F5F5F5F5F5F5F5F5F5F5F5F5F5F5F5F5F5F5F5F5F5F5F5F5F5F5F5F5F5F5F5F5F5E2F5F5F5F5F5F5E2E2EFE2F5F5E2F5F5F5E2F5F5F5F5F5F5F5F5F5F5F5F5F5F5F5F5F5F5F5F5F5F5F5F5F5F5F5F5F5F5F5F5F5F5F5F5F5F5F5F5F5F5F5F5F5F5F5F5F5F5F5F5F5F5F5F5F5F5F5F5F5F5F5F5F5F5F5F5F5F5F5F5F5F5
310
F5F5F5F5F5F5F5F5F5F5F5F5F5F5F5F5F5F5F5F5F5F5F5F5F5F5F5F5F5F5F5F5F5F5F5F5F5F5F5F5F5F5F5F5F5F5F5F5F5F5F5F5F5F5F5F5F5F5F5F5F5F5F5F5F5F5F5F5F5F5F5F5F5F5F5F5F5F5F5F5F5F5F5F5F5F5F5F5E2F5F5F5E2F5F5E2E2EFE2F5F5E2F5F5F5E2F5F5F5F5F5F5F5F5F5F5F5F5F5F5F5F5F5F5F5F5F5
310
F5F5F5F5F5F5F5F5F5F5F5F5F5F5F5F5F5F5F5F5F5F5F5F5F5F5F5F5F5F5F5F5F5F5F5F5F5F5F5F5F5F5F5F5F5F5F5F5F5F5F5F5F5F5F5F5F5F5F5F5F5F5F5F5F5F5F5F5F5F5F5F5F5F5F5F5F5F5F5F5F5F5F5F5F5F5F5F5F5F5F5F5F5F5F5F5F5F5F5F5F5F5F5F5F5F5F5F5F5F5F5F5F5F5F5F5F5F5F5F5F5F5F5F5F5F5F5
310
F5F5F5F5F5F5F5F5F5F5F5F5F5F5E2F5F5F5E2F5F5E2E2EFE2F5F5E2F5F5F5E2F5F5F5F5F5F5F5F5F5F5F5F5F5F5F5F5F5F5F5F5F5F5F5F5F5F5F5F5F5F5F5F5F5F5F5F5F5F5F5F5F5F5F5F5F5F5F5F5F5F5282828F5F5F5F5F5F5F5F5F5F5F5F5F5F5F5F5F5F5F5F5F5F5F5F5F5F5F5F5F5F5F5F5F5F5F5F5F5F5F5F5F5F5
310
F5F5F5F5F5F5F5F5F5F5F5F5F5F5F5F5F5F5F5F5F5F5F5F5F5F5F5F5F5F5F5F5F5F5F5F5F5F5F5F5F5F5F5F5F5F5F5F5F5F5F5F5F5F5F5F5F5F5F5F5F5F5F5F5F5F5F5E2F5F5F5E2F5F5E2E2EFE2F5F5E2F5F5F5E2F5F5F5F5F5F5F5F5F5F5F5F5F5F5F5F5F5F5F5F5F5F5F5F5F5F5F5F5F5F5F5F5F5F5F5F5F5F5F5F5F5F5
310
F5F5F5F5F5F5F5F5282828282828282828F5F5F5F5F5F5F5F5F5F5F5F5F5F5F5F5F5F5F5F5F5F5F5F5F5F5F5F5F5F5F5F5F5F5F5F5F5F5F5F5F5F5F5F5F5F5F5F5F5F5F5F5F5F5F5F5F5F5F5F5F5F5F5F5F5F5F5F5F5F5F5F5F5F5F5F5F5F5F5F5F5F5F5F5F5F5F5F5F5F5F5F5F5F5F5F5F5F5F5F5F5F5F5E2F5F5F5E2F5F5
310
E2E2EFE2F5F5E2F5F5F5E2F5F5F5F5F5F5F5F5F5F5F5F5F5F5F5F5F5F5F5F5F5F5F5F5F5F5F5F5F5F5F5F5F5F5F5F5F5F5F5F5F5F5F5F5F5F5F5F5F5F5F5F5F5F5F5F5F5F5F5F5F5F5F5F5F5F528F5F5F528F5F5F5F5F5F5F5F5F5F5F5F5F5F5F5F5F5F5F5F5F5F5F5F5F5F5F5F5F5F5F5F5F5F5F5F5F5F5F5F5F5F5F5F5F5
310
F5F5F5F5F5F5F5F5F5F5F5F5F5F5F5F5F5F5F5F5F5F5F5F5F5F5F5F5F5F5F5F5F5F5F5F5F5F5F5F5F5F5F5F5F5F5E2F5F5F5E2F5F5E2E2EFE2F5F5E2F5F5F5E2F5F5F5F5F5F5F5F5F5F5F5F5F5F5F5F5F5F5F5F5F5F5F5F5F5F5F5F5F5F5F5F5F5F5F5F5F5F5F5F5F5F5F5F5F5F5F5F5F5F5F5ECECECECECF5ECECECECECEC
310
ECF5F5282828F5282828F5F5F5282828F5F5F5F5F5F5F5F5F5F5F5F5F5F5F5F5F5F5F5F5F5F5F5F5F5F5F5F5F5F5F5F5F5F5F5F5F5F5F5F5F5F5F5F5F5F5F5F5F5F5F5F5F5F5F5F5F5F5F5F5F5F5F5F5F5F5F5F5F5F5F5F5F5F5F5F5F5F5F5F5F5F5F5E2F5F5F5E2F5F5E2E2EFE2F5F5E2F5F5F5E2F5F5F5F5F5F5F5F5F5F5
310
F5F5F5F5F5F5F5F5F5F5F5F5F5F5F5F5F5F5F5F5F5F5F5F5F5F5F5F5F5F5F5F5F5F5F5F5F5F5F5F5F5ECECF5F5ECECECECECECF5F5ECF5F5282828282828282828F5282828F5F5F5F5F5F5F5F5F5F5F5F5F5F5F5F5F5F5F5F5F5F5F5F5F5F5F5F5F5F5F5F5F5F5F5F5F5F5F5F5F5F5F5F5F5F5F5F5F5F5F5F5F5F5F5F5F5F5
310
F5F5F5F5F5F5F5F5F5F5F5F5F5F5F5F5F5F5F5F5F5F5F5F5F5E2F5F5F5E2F5F5E2E2EFE2F5F5E2F5F5F5E2F5F5F5F5F5F5F5F5F5F5F5F5F5F5F5F5F5F5F5F5F5F5F5F5F5F5F5F5F5F5F5F5F5F5F5F5F5F5F5F5F5F5F5F5F5F5F5F5F5F5F5F5F5F5F5F5F5F5F5F5F5F5F5F5F5F528F5F5F528F5F5F5F5F52828F5F5F5F5F5F5
310
F5F5F5F5F5F5F5F5F5F5F5F5F5F5F5F5F5F5F5F5F5F5F5F5F5F5F5F5F5F5F5F5F5F5F5F5F5F5F5F5F5F5F5F5F5F5F5F5F5F5F5F5F5F5F5F5F5F5F5F5F5F5F5F5F5F5F5F5F5F5F5F5F5F5F5F5F5F5E2F5F5F5E2F5F5E2E2EFE2F5F5E2F5F5F5E2F5F5F5F5F5F5F5F5F5F5F5F5F5F5F5F5F5F5F5F5F5F5F5F5F5F5F5F5F5F5F5
310
F5F5F5F5F5F5F5F5F5F5F5F5F5F5F5F5F5F5F5F5F5F5F5F5F5F5F5F5F5F5F5F5F5F5F5F5F5F5F5F5F5F5F5F5F5F5F5F5F5F5F5F5F5F5F5F5F5F5F5F5F5F5F5F5F5F5F5F5F5F5F5F5F5F5F5F5F5F5F5F5F5F5F5F5F5F5F5F5F5F5F5F5F5F5F5F5F5F5F5F5F5F5F5F5F5F5F5F5F5F5F5F5F5F5F5F5F5F5F5F5F5F5F5F5F5F5F5
310
F5F5F5F5E2F5F5F5E2F5F5E2E2EFE2F5F5E2F5F5F5E2F5F5F5F5F5F5F5F5F5F5F5F5F5F5F5F5F5F5F5F5F5F5F5F5F5F5F5F5F5F5F5F5F5F5F5F5F5F5F5F5F5F5F5F5F5F5F5F5F5F5F5F5F5F5F5F5F5F5F5F5F5F5F5F5F5F5F5F5F5F5F5F5F5F5F5F5F5F5F5F5F5F5F5F5F5F5F5F5F5F5F5F5F5F5F5F5F5F5F5F5F5F5F5F5F5
310
F5F5F5F5F5F5F5F5F5F5F5F5F5F5F5F5F5F5F5F5F5F5F5F5F5F5F5F5F5F5F5F5F5F5F5F5F5F5F5F5F5F5F5F5F5F5F5F5F5F5F5F5F5F5F5F5F5E2F5F5F5E2F5F5E2E2EFE2F5F5E2F5F5F5E2F5F5F5F5F5F5F5F5F5F5F5F5F5F5F5F5F5F5F5F5F5F5F5F5F5F5F5F5F5F5F5F5F5F5F5F5F5F5F5F5F5F5F5F5F5F5F5F5F5F5F5F5
310
F5F5F5F5F5F5F5F5F5F5F5F5F5F5F5F5F5F5F5F5F5F5F5F5F5F5F5F5F5F5F5F5F5F5F5F5F5F5F5F5F5F5F5F5F5F5F5F5F5F5F5F5F5F5F5F5F5F5F5F5F5F5F5F5F5F5F5F5F5F5F5F5F5F5F5F5F5F5F5F5F5F5F5F5F5F5F5F5F5F5F5F5F5F5F5F5F5F5F5F5F5F5F5F5F5F5F5F5F5F5E2F5F5F5E2F5F5E2E2EFE2F5F5E2F5F5F5
310
E2F5F5F5F5F5F5F5F5F5F5F5F5F5F5F5F5F5F5F5F5F5F5F5F5F5F5F5F5F5F5F5F5F5F5F5F5F5F5F5F5F5F5F5F5F5F5F5F5F5F5F5F5F5F5F5F5F5F5F5F5F5F5F5F5F5F5F5F5F5F5F5F5F5F5F5F5F5F5F5F5F5F5F5F5F5F5F5F5F5F5F5F5F5F5F5F5F5F5F5F5F5F5F5F5F5F5F5F5F5F5F5F5F5F5F5F5F5F5F5F5F5F5F5F5F5F5
310
F5F5F5F5F5F5F5F5F5F5F5F5F5F5F5F5F5F5F5F5F5F5F5F5F5F5F5F5F5F5F5F5F5F5F5F5E2F5F5F5E2F5F5E2E2EFE2F5F5E2F5F5F5E2F5F5F5F5F5F5F5F5F5F5F5F5F5F5F5F5F5F5F5F5F5F5F5F5F5F5F5F5F5F5F5F5F5F5F5F5F5F5F5F5F5F5F5F5F5F5F5F5F5F5F5F5F5F5F5F5F5F5F5F5F5F5F5F5F5F5F5F5F5F5F5F5F5
310
F5F5F5F5F5F5F5F5F5F5F5F5F5F5F5F5F5F5F5F5F5F5F5F5F5F5F5F5F5F5F5F5F5F5F5F5F5F5F5F5F5F5F5F5F5F5F5F5F5F5F5F5F5F5F5F5F5F5F5F5F5F5F5F5F5F5F5F5F5F5F5F5F5F5F5F5F5F5F5F5F5F5F5F5F5F5F5F5F5E2F5F5F5E2F5F5E2E2EFE2F5F5E2F5F5F5E2F5F5F5F5F5F5F5F5F5F5F5F5F5F5F5F5F5F5F5F5
310
F5F5F5F5F5F5F5F5F5F5F5F5F5F5F5F5F5F5F5F5F5F5F5F5F5F5F5F5F5F5F5F5F5F5F5F5F5F5F5F5F5F5F5F5F5F5F5F5F5F5F5F5F5F5F5F5F5F5F5F5F5F5F5F5F5F5F5F5F5F5F5F5F5F5F5F5F5F5F5F5F5F5F5F5F5F5F5F5F5F5F5F5F5F5F5F5F5F5F5F5F5F5F5F5F5F5F5F5F5F5F5F5F5F5F5F5F5F5F5F5F5F5F5F5F5F5F5
310
F5F5F5F5F5F5F5F5F5F5F5F5F5F5F5E2F5F5F5E2F5F5E2E2EFE2F5F5E2F5F5F5E2F5F5F5F5F5F5F5F5F5F5F5F5F5F5F5F5F5F5F5F5F5F5F5F5F5F5F5F5F5F5F5F5F5F5F5F5F5F5F5F5F5F5F5F5F5F5F5F5F5F5F5F5F5F5F5F5F5F5F5F5F5F5F5F5F5F5F5F5F5F5F5F5F5F5F5F5F5F5F5F5F5F5F5F5F5F5F5F5F5F5F5F5F5F5
310
F5F5F5F5F5F5F5F5F5F5F5F5F5F5F5F5F5F5F5F5F5F5F5F5F5F5F5F5F5F5F5F5F5F5F5F5F5F5F5F5F5F5F5F5F5F5F5F5F5F5F5F5F5F5F5F5F5F5F5F5F5F5F5F5F5F5F5F5E2F5F5F5E2F5F5E2E2EFE2F5F5F5F5F5F5E2F5F5F5F5F5F5F5F5F5F5F5F5F5F5F5F5F5F5F5F5F5F5F5F5F5F5F5F5F5F5F5F5F5F5F5F5F5F5F5F5F5
310
F5F5F5F5F5F5F5F5F5F5F5F5F5F5F5F5F5F5F5F5F5F5F5F5F5F5F5F5F5F5F5F5F5F5F5F5F5F5F5F5F5F5F5F5F5F5F5F5F5F5F5F5F5F5F5F5F5F5F5F5F5F5F5F5F5F5F5F5F5F5F5F5F5F5F5F5F5F5F5F5F5F5F5F5F5F5F5F5F5F5F5F5F5F5F5F5F5F5F5F5F5F5F5F5F5F5F5F5F5F5F5F5F5F5F5F5F5F5F5F5F5E2F5F5F5F5F5
310
F5E2E2EFE2F5F5F5F5F5F5E2F5F5F5F5F5F5F5F5F5F5F5F5F5F5F5F5F5F5F5F5F5F5F5F5F5F5F5F5F5F5F5F5F5F5F5F5F5F5F5F5F5F5F5F5F5F5F5F5F5F5F5F5F5F5F5F5F5F5F5F5F5F5F5F5F5F5F5F5F5F5F5F5F5F5F5F5F5F5F5F5F5F5F5F5F5F5F5F5F5F5F5F5F5F5F5F5F5F5F5F5F5F5F5F5F5F5F5F5F5F5F5F5F5F5F5
310
F5F5F5F5F5F5F5F5F5F5F5F5F5F5F5F5F5F5F5F5F5F5F5F5F5F5F5F5F5F5F5F5F5F5F5F5F5F5F5F5F5F5F5F5F5F5F5E2F5F5F5F5F5F5E2E2EFE2F5F5F5F5F5F5E2F5F5F5F5F5F5F5F5F5F5F5F5F5F5F5F5F5F5F5F5F5F5F5F5F5F5F5F5F5F5F5F5F5F5F5F5F5F5F5F5F5F5F5F5F5F5F5F5F5F5F5F5F5F5F5F5F5F5F5F5F5F5
310
F5F5F5F5F5F5F5F5F5F5F5F5F5F5F5F5F5F5F5F5F5F5F5F5F5F5F5F5F5F5F5F5F5F5F5F5F5F5F5F5F5F5F5F5F5F5F5F5F5F5F5F5F5F5F5F5F5F5F5F5F5F5F5F5F5F5F5F5F5F5F5F5F5F5F5F5F5F5F5F5F5F5F5F5F5F5F5F5F5F5F5F5F5F5F5F5F5F5F5F5E2F5F5F5F5F5F5E2E2EFE2F5F5F5F5F5F5E2F5F5F5F5F5F5F5F5F5
310
F5F5F5F5F5F5F5F5F5F5F5F5F5F5F5F5F5F5F5F5F5F5F5F5F5F5F5F5F5F5F5F5F5F5F5F5F5F5F5F5F5F5F5F5F5F5F5F5F5F5F5F5F5F5F5F5F5F5F5F5F5F5F5F5F5F5F5F5F5F5F5F5F5F5F5F5F5F5F5F5F5F5F5F5F5F5F5F5F5F5F5F5F5F5F5F5F5F5F5F5F5F5F5F5F5F5F5F5F5F5F5F5F5F5F5F5F5F5F5F5F5F5F5F5F5F5F5
310
F5F5F5F5F5F5F5F5F5F5F5F5F5F5F5F5F5F5F5F5F5F5F5F5F5F5E2F5F5F5F5F5F5E2E2EFE2F5F5F5F5F5F5E2F5F5F5F5F5F5F5F5F5F5F5F5F5F5F5F5F5F5F5F5F5F5F5F5F5F5F5F5F5F5F5F5F5F5F5F5F5F5F5F5F5F5F5F5F5F5F5F5F5F5F5F5F5F5F5F5F5F5F5F5F5F5F5F5F5F5F5F5F5F5F5F5F5F5F5F5F5F5F5F5F5F5F5
310
F5F5F5F5F5F5F5F5F5F5F5F5F5F5F5F5F5F5F5F5F5F5F5F5F5F5F5F5F5F5F5F5F5F5F5F5F5F5F5F5F5F5F5F5F5F5F5F5F5F5F5F5F5F5F5F5F5F5F5F5F5F5F5F5F5F5F5F5F5F5F5F5F5F5F5F5F5F5F5E2F5F5F5F5F5F5E2E2EFE2F5F5F5F5F5F5E2F5F5F5F5F5F5F5F5F5F5F5F5F5F5F5F5F5F5F5F5F5F5F5F5F5F5F5F5F5F5
310
F5F5F5F5F5F5F5F5F5F5F5F5F5F5F5F5F5F5F5F5F5F5F5F5F5F5F5F5F5F5F5F5F5F5F5F5F5F5F5F5F5F5F5F5F5F5F5F5F5F5F5F5F5F5F5F5F5F5F5F5F5F5F5F5F5F5F5F5F5F5F5F5F5F5F5F5F5F5F5F5F5F5F5F5F5F5F5F5F5F5F5F5F5F5F5F5F5F5F5F5F5F5F5F5F5F5F5F5F5F5F5F5F5F5F5F5F5F5F5F5F5F5F5F5F5F5F5
310
F5F5F5F5F5E2F5F5F5F5F5F5E2E2EFE2F5F5F5F5F5F5E2F5F5F5F5F5F5F5F5F5F5F5F5F5F5F5F5F5F5F5F5F5F5F5F5F5F5F5F5F5F5F5F5F5F5F5F5F5F5F5F5F5F5F5F5F5F5F5F5F5F5F5F5F5F5F5F5F5F5F5F5F5F5F5F5F5F5F5F5F5F5F5F5F5F5F5F5F5F5F5F5F5F5F5F5F5F5F5F5F5F5F5F5F5F5F5F5F5F5F5F5F5F5F5F5
310
F5F5F5F5F5F5F5F5F5F5F5F5F5F5F5F5F5F5F5F5F5F5F5F5F5F5F5F5F5F5F5F5F5F5F5F5F5F5F5F5F5F5F5F5F5F5F5F5F5F5F5F5F5F5F5F5F5F5E2F5F5F5F5F5F5E2E2EFE2F5F5F5F5F5F5E2F5F5F5F5F5F5F5F5F5F5F5F5F5F5F5F5F5F5F5F5F5F5F5F5F5F5F5F5F5F5F5F5F5F5F5F5F5F5F5F5F5F5F5F5F5F5F5F5F5F5F5
310
F5F5F5F5F5F5F5F5F5F5F5F5F5F5F5F5F5F5F5F5F5F5F5F5F5F5F5F5F5F5F5F5F5F5F5F5F5F5F5F5F5F5F5F5F5F5F5F5F5F5F5F5F5F5F5F5F5F5F5F5F5F5F5F5F5F5F5F5F5F5F5F5F5F5F5F5F5F5F5F5F5F5F5F5F5F5F5F5F5F5F5F5F5F5F5F5F5F5F5F5F5F5F5F5F5F5F5F5F5F5F5E2F5F5F5F5F5F5E2E2EFE2F5F5F5F5F5
310
F5E2F5F5F5F5F5F5F5F5F5F5F5F5F5F5F5F5F5F5F5F5F5F5F5F5F5F5F5F5F5F5F5F5F5F5F5F5F5F5F5F5F5F5F5F5F5F5F5F5F5F5F5F5F5F5F5F5F5F5F5F5F5F5F5F5F5F5F5F5F5F5F5F5F5F5F5F5F5F5F5F5F5F5F5F5F5F5F5F5F5F5F5F5F5F5F5F5F5F5F5F5F5F5F5F5F5F5F5F5F5F5F5F5F5F5F5F5F5F5F5F5F5F5F5F5F5
310
F5F5F5F5F5F5F5F5F5F5F5F5F5F5F5F5F5F5F5F5F5F5F5F5F5F5F5F5F5F5F5F5F5F5F5F5F5E2F5F5F5F5F5F5E2E2EFE2F5F5E2F5F5F5E2F5F5F5F5F5F5F5F5F5F5F5F5F5F5F5F5F5F5F5F5F5F5F5F5F5F5F5F5F5F5F5F5F5F5F5F5F5F5F5F5F5F5F5F5F5F5F5F5F5F5F5F5F5F5F5F5F5F5F5F5F5F5F5F5F5F5F5F5F5F5F5F5
310
F5F5F5F5F5F5F5F5F5F5F5F5F5F5F5F5F5F5F5F5F5F5F5F5F5F5F5F5F5F5F5F5F5F5F5F5F5F5F5F5F5F5F5F5F5F5F5F5F5F5F5F5F5F5F5F5F5F5F5F5F5F5F5F5F5F5F5F5F5F5F5F5F5F5F5F5F5F5F5F5F5F5F5F5F5F5F5F5F5F5E2F5F5F5E2F5F5E2E2EFE2F5F5E2F5F5F5E2F5F5F5F5F5F5F5F5F5F5F5F5F5F5F5F5F5F5F5
310
F5F5F5F5F5F5F5F5F5F5F5F5F5F5F5F5F5F5F5F5F5F5F5F5F5F5F5F5F5F5F5F5F5F5F5F5F5F5F5F5F5F5F5F5F5F5F5F5F5F5F5F5F5F5F5F5F5F5F5F5F5F5F5F5F5F5F5F5F5F5F5F5F5F5F5F5F5F5F5F5F5F5F5F5F5F5F5F5F5F5F5F5F5F5F5F5F5F5F5F5F5F5F5F5F5F5F5F5F5F5F5F5F5F5F5F5F5F5F5F5F5F5F5F5F5F5F5
310
F5F5F5F5F5F5F5F5F5F5F5F5F5F5F5F5E2F5F5F5E2F5F5E2E2EFE2F5F5E2F5F5F5E2F5F5F5F5F5F5F5F5F5F5F5F5F5F5F5F5F5F5F5F5F5F5F5F5F5F5F5F5F5F5F5F5F5F5F5F5F5F5F5F5F5F5F5F5F5F5F5F5F5F5F5F5F5F5F5F5F5F5F5F5F5F5F5F5F5F5F5F5F5F5F5F5F5F5F5F5F5F5F5F5F5F5F5F5F5F5F5F5F5F5F5F5F5
310
F5F5F5F5F5F5F5F5F5F5F5F5F5F5F5F5F5F5F5F5F5F5F5F5F5F5F5F5F5F5F5F5F5F5F5F5F5F5F5F5F5F5F5F5F5F5F5F5F5F5F5F5F5F5F5F5F5F5F5F5F5F5F5F5F5F5F5F5F5E2F5F5F5E2F5F5E2E2EFE2F5F5E2F5F5F5E2F5F5F5F5F5F5F5F5F5F5F5F5F5F5F5F5F5F5F5F5F5F5F5F5F5F5F5F5F5F5F5F5F5F5F5F5F5F5F5F5
310
F5F5F5F5F5F5F5F5F5F5F5F5F5F5F5F5F5F5F5F5F5F5F5F5F5F5F5F5F5F5F5F5F5F5F5F5F5F5F5F5F5F5F5F5F5F5F5F5F5F5F5F5F5F5F5F5F5F5F5F5F5F5F5F5F5F5F5F5F5F5F5F5F5F5F5F5F5F5F5F5F5F5F5F5F5F5F5F5F5F5F5F5F5F5F5F5F5F5F5F5F5F5F5F5F5F5F5F5F5F5F5F5F5F5F5F5F5F5F5F5F5F5E2F5F5F5E2
310
F5F5E2E2EFE2F5F5E2F5F5F5E2F5F5F5F5F5F5F5F5F5F5F5F5F5F5F5F5F5F5F5F5F5F5F5F5F5F5F5F5F5F5F5F5F5F5F5F5F5F5F5F5F5F5F5F5F5F5F5F5F5F5F5F5F5F5F5F5F5F5F5F5F5F5F5F5F5F5F5F5F5F5F5F5F5F5F5F5F5F5F5F5F5F5F5F5F5F5F5F5F5F5F5F5F5F5F5F5F5F5F5F5F5F5F5F5F5F5F5F5F5F5F5F5F5F5
310
F5F5F5F5F5F5F5F5F5F5F5F5F5F5F5F5F5F5F5F5F5F5F5F5F5F5F5F5F5F5F5F5F5F5F5F5F5F5F5F5F5F5F5F5F5F5F5F5E2F5F5F5E2F5F5E2E2EFE2F5F5E2F5F5F5E2F5F5F5F5F5F5F5F5F5F5F5F5F5F5F5F5F5F5F5F5F5F5F5F5F5F5F5F5F5F5F5F5F5F5F5F5F5F5F5F5F5F5F5F5F5F5F5F5F5F5F5F5F5F5F5F5F5F5F5F5F5
310
F5F5F5F5F5F5F5F5F5F5F5F5F5F5F5F5F5F5F5F5F5F5F5F5F5F5F5F5F5F5F5F5F5F5F5F5F5F5F5F5F5F5F5F5F5F5F5F5F5F5F5F5F5F5F5F5F5F5F5F5F5F5F5F5F5F5F5F5F5F5F5F5F5F5F5F5F5F5F5F5F5F5F5F5F5F5F5F5F5F5F5F5F5F5F5F5F5F5F5F5F5E2F5F5F5E2F5F5E2E2EFE2F5F5E2F5F5F5E2E2E2E2E2E2E2E2E2
310
E2E2E2E2E2E2E2E2E2E2E2E2E2E2E2E2E2E2E2E2E2E2E2E2E2E2E2E2E2E2E2E2E2E2E2E2E2E2E2E2E2E2E2E2E2E2E2E2E2E2E2E2E2E2E2E2E2E2E2E2E2E2E2E2E2E2E2E2E2E2E2E2E2E2E2E2E2E2E2E2E2E2E2E2E2E2E2E2E2E2E2E2E2E2E2E2E2E2E2E2E2E2E2E2E2E2E2E2E2E2E2E2E2E2E2E2E2E2E2E2E2E2E2E2E2E2E2
310
E2E2E2E2E2E2E2E2E2E2E2E2E2E2E2E2E2E2E2E2E2E2E2E2E2E2E2E2F5F5F5E2F5F5E2E2EFE2F5F5E2E2E2E2E2E2E2E2F5F5F5F5F5F5F5F5F5E2E2E2E2E2E2E2E2E2E2E2E2E2E2E2E2F5F5F5F5F5F5F5F5F5E2E2E2E2E2E2E2E2E2E2E2E2E2E2E2F5F5F5F5F5F5F5F5F5E2E2E2E2E2E2E2E2E2E2E2E2E2E2E2E2F5F5F5F5F5
310
F5F5F5E2E2E2E2E2E2E2E2E2E2E2E2E2E2E2E2F5F5F5F5F5F5F5F5F5E2E2E2E2E2E2E2E2E2E2E2E2E2E2E2F5F5F5F5F5F5F5F5F5E2E2E2E2E2E2E2E2E2E2E2E2E2E2E2E2F5F5F5F5F5F5F5F5F5E2E2E2E2E2E2E2E2F5F5E2E2EFE2F5F5F5F5F5F5F5F5F5F5F5F5F5F5F5F5F5F5F5F5F5F5F5F5F5F5F5F5F5F5F5F5F5F5F5F5
310
F5F5F5F5F5F5F5F5F5F5F5F5F5F5F5F5F5F5F5F5F5F5F5F5F5F5F5F5F5F5F5F5F5F5F5F5F5F5F5F5F5F5F5F5F5F5F5F5F5F5F5F5F5F5F5F5F5F5F5F5F5F5F5F5F5F5F5F5F5F5F5F5F5F5F5F5F5F5F5F5F5F5F5F5F5F5F5F5F5F5F5F5F5F5F5F5F5F5F5F5F5F5F5F5F5F5F5F5F5F5F5F5F5F5F5F5F5F5F5F5F5F5F5F5F5F5F5
310
F5F5F5F5F5F5F5F5F5F5F5F5F5E2E2EFE2F5F5F5F5F5F5F5F5F5F5F5F5F5F5F5F5F5F5F5F5F5F5F5F5F5F5F5F5F5F5F5F5F5F5F5F5F5F5F5F5F5F5F5F5F5F5F5F5F5F5F5F5F5F5F5F5F5F5F5F5F5F5F5F5F5F5F5F5F5F5F5F5F5F5F5F5F5F5F5F5F5F5F5F5F5F5F5F5F5F5F5F5F5F5F5F5F5F5F5F5F5F5F5F5F5F5F5F5F5F5
310
F5F5F5F5F5F5F5F5F5F5F5F5F5F5F5F5F5F5F5F5F5F5F5F5F5F5F5F5F5F5F5F5F5F5F5F5F5F5F5F5F5F5F5F5F5F5F5F5F5F5F5F5F5F5F5F5F5F5F5F5F5F5F5F5F5F5E2E2EFE2F5F5F5F5F5F5F5F5F5F5F5F5F5F5F5F5F5F5F5F5F5F5F5F5F5F5F5F5F5F5F5F5F5F5F5F5F5F5F5F5F5F5F5F5F5F5F5F5F5F5F5F5F5F5F5F5F5
310
F5F5F5F5F5F5F5F5F5F5F5F5F5F5F5F5F5F5F5F5F5F5F5F5F5F5F5F5F5F5F5F5F5F5F5F5F5F5F5F5F5F5F5F5F5F5F5F5F5F5F5F5F5F5F5F5F5F5F5F5F5F5F5F5F5F5F5F5F5F5F5F5F5F5F5F5F5F5F5F5F5F5F5F5F5F5F5F5F5F5F5F5F5F5F5F5F5F5F5F5F5F5F5F5F5F5F5F5F5F5F5F5F5F5F5F5F5F5F5E2EFEFE2E2E2E2E2
310
E2E2E2E2E2E2E2E2E2E2E2E2E2E2E2E2E2E2E2E2E2E2E2E2E2E2E2E2E2E2E2E2E2E2E2E2E2E2E2E2E2E2E2E2E2E2E2E2E2E2E2E2E2E2E2E2E2E2E2E2E2E2E2E2E2E2E2E2E2E2E2E2E2E2E2E2E2E2E2E2E2E2E2E2E2E2E2E2E2E2E2E2E2E2E2E2E2E2E2E2E2E2E2E2E2E2E2E2E2E2E2E2E2E2E2E2E2E2E2E2E2E2E2E2E2E2E2
310
E2E2E2E2E2E2E2E2E2E2E2E2E2E2E2E2E2E2E2E2E2E2E2E2E2E2E2E2E2E2E2E2E2E2E2E2E2E2E2E2E2E2E2E2E2E2EFEF
  0
XRECORD
  5
1039
102
{ACAD_REACTORS
330
1038
102
}
330
1038
100
AcDbXrecord
280
     1
102
SHADEPLOT
 70
     0
102
SHADEPLOTRESLEVEL
 70
     2
102
SHADEPLOTCUSTOMDPI
 70
   300
  0
XRECORD
  5
1043
102
{ACAD_REACTORS
330
1042
102
}
330
1042
100
AcDbXrecord
280
     1
102
MATERIAL
148
0.0
149
0.0
149
0.0
 93
        0
 94
       63
282
     0
 72
     1
 77
     1
171
     1
175
     1
179
     1
273
     0
  0
XRECORD
  5
1041
102
{ACAD_REACTORS
330
1040
102
}
330
1040
100
AcDbXrecord
280
     1
102
MATERIAL
148
0.0
149
0.0
149
0.0
 93
        0
 94
       63
282
     0
 72
     1
 77
     1
171
     1
175
     1
179
     1
273
     0
  0
XRECORD
  5
1045
102
{ACAD_REACTORS
330
1044
102
}
330
1044
100
AcDbXrecord
280
     1
102
MATERIAL
148
0.0
149
0.0
149
0.0
 93
        0
 94
       63
282
     0
 72
     1
 77
     1
171
     1
175
     1
179
     1
273
     0
  0
XRECORD
  5
103D
102
{ACAD_REACTORS
330
103C
102
}
330
103C
100
AcDbXrecord
280
     1
102
SHADEPLOT
 70
     0
102
SHADEPLOTRESLEVEL
 70
     2
102
SHADEPLOTCUSTOMDPI
 70
   300
  0
XRECORD
  5
103F
102
{ACAD_REACTORS
330
103E
102
}
330
103E
100
AcDbXrecord
280
     1
102
ACAD_ROUNDTRIP_PRE2007_TABLESTYLE
 90
      512
 91
        0
  1

 92
      512
 93
        0
  2

 94
      512
 95
        0
  3

  0
ENDSEC
  0
EOF
