  0
SECTION
  2
HEADER
  9
$ACADVER
  1
AC1015
  9
$ACADMAINTVER
 70
    20
  9
$DWGCODEPAGE
  3
ANSI_932
  9
$INSBASE
 10
0.0
 20
0.0
 30
0.0
  9
$EXTMIN
 10
44.06951966389573
 20
1749.985149248707
 30
0.0
  9
$EXTMAX
 10
381.0008855761445
 20
1867.839265903346
 30
0.0
  9
$LIMMIN
 10
0.0
 20
0.0
  9
$LIMMAX
 10
420.0
 20
297.0
  9
$ORTHOMODE
 70
     0
  9
$REGENMODE
 70
     1
  9
$FILLMODE
 70
     1
  9
$QTEXTMODE
 70
     0
  9
$MIRRTEXT
 70
     0
  9
$LTSCALE
 40
1.0
  9
$ATTMODE
 70
     1
  9
$TEXTSIZE
 40
2.5
  9
$TRACEWID
 40
1.0
  9
$TEXTSTYLE
  7
Standard
  9
$CLAYER
  8
塗潰し
  9
$CELTYPE
  6
ByLayer
  9
$CECOLOR
 62
   256
  9
$CELTSCALE
 40
1.0
  9
$DISPSILH
 70
     0
  9
$DIMSCALE
 40
1.0
  9
$DIMASZ
 40
4.0
  9
$DIMEXO
 40
1.0
  9
$DIMDLI
 40
7.0
  9
$DIMRND
 40
0.0
  9
$DIMDLE
 40
0.0
  9
$DIMEXE
 40
1.0
  9
$DIMTP
 40
0.0
  9
$DIMTM
 40
0.0
  9
$DIMTXT
 40
5.0
  9
$DIMCEN
 40
0.0
  9
$DIMTSZ
 40
0.0
  9
$DIMTOL
 70
     0
  9
$DIMLIM
 70
     0
  9
$DIMTIH
 70
     0
  9
$DIMTOH
 70
     0
  9
$DIMSE1
 70
     0
  9
$DIMSE2
 70
     0
  9
$DIMTAD
 70
     1
  9
$DIMZIN
 70
     8
  9
$DIMBLK
  1
Open30
  9
$DIMASO
 70
     1
  9
$DIMSHO
 70
     1
  9
$DIMPOST
  1

  9
$DIMAPOST
  1

  9
$DIMALT
 70
     0
  9
$DIMALTD
 70
     2
  9
$DIMALTF
 40
0.0394
  9
$DIMLFAC
 40
1.0
  9
$DIMTOFL
 70
     1
  9
$DIMTVP
 40
0.0
  9
$DIMTIX
 70
     0
  9
$DIMSOXD
 70
     0
  9
$DIMSAH
 70
     0
  9
$DIMBLK1
  1

  9
$DIMBLK2
  1

  9
$DIMSTYLE
  2
JIS
  9
$DIMCLRD
 70
     0
  9
$DIMCLRE
 70
     0
  9
$DIMCLRT
 70
     0
  9
$DIMTFAC
 40
1.0
  9
$DIMGAP
 40
1.0
  9
$DIMJUST
 70
     0
  9
$DIMSD1
 70
     0
  9
$DIMSD2
 70
     0
  9
$DIMTOLJ
 70
     1
  9
$DIMTZIN
 70
     0
  9
$DIMALTZ
 70
     0
  9
$DIMALTTZ
 70
     0
  9
$DIMUPT
 70
     0
  9
$DIMDEC
 70
     4
  9
$DIMTDEC
 70
     4
  9
$DIMALTU
 70
     2
  9
$DIMALTTD
 70
     2
  9
$DIMTXSTY
  7
Standard
  9
$DIMAUNIT
 70
     0
  9
$DIMADEC
 70
     0
  9
$DIMALTRND
 40
0.0
  9
$DIMAZIN
 70
     0
  9
$DIMDSEP
 70
    46
  9
$DIMATFIT
 70
     3
  9
$DIMFRAC
 70
     0
  9
$DIMLDRBLK
  1
Open30
  9
$DIMLUNIT
 70
     2
  9
$DIMLWD
 70
    -2
  9
$DIMLWE
 70
    -2
  9
$DIMTMOVE
 70
     0
  9
$LUNITS
 70
     2
  9
$LUPREC
 70
     4
  9
$SKETCHINC
 40
1.0
  9
$FILLETRAD
 40
0.0
  9
$AUNITS
 70
     0
  9
$AUPREC
 70
     0
  9
$MENU
  1
.
  9
$ELEVATION
 40
0.0
  9
$PELEVATION
 40
0.0
  9
$THICKNESS
 40
0.0
  9
$LIMCHECK
 70
     0
  9
$CHAMFERA
 40
0.0
  9
$CHAMFERB
 40
0.0
  9
$CHAMFERC
 40
0.0
  9
$CHAMFERD
 40
0.0
  9
$SKPOLY
 70
     0
  9
$TDCREATE
 40
2454379.577641921
  9
$TDUCREATE
 40
2454379.202641921
  9
$TDUPDATE
 40
2454936.663870857
  9
$TDUUPDATE
 40
2454936.288870857
  9
$TDINDWG
 40
1.3287779630
  9
$TDUSRTIMER
 40
1.3287772454
  9
$USRTIMER
 70
     1
  9
$ANGBASE
 50
0.0
  9
$ANGDIR
 70
     0
  9
$PDMODE
 70
     0
  9
$PDSIZE
 40
0.0
  9
$PLINEWID
 40
0.0
  9
$SPLFRAME
 70
     0
  9
$SPLINETYPE
 70
     6
  9
$SPLINESEGS
 70
     8
  9
$HANDSEED
  5
164A8
  9
$SURFTAB1
 70
     6
  9
$SURFTAB2
 70
     6
  9
$SURFTYPE
 70
     6
  9
$SURFU
 70
     6
  9
$SURFV
 70
     6
  9
$UCSBASE
  2

  9
$UCSNAME
  2

  9
$UCSORG
 10
0.0
 20
0.0
 30
0.0
  9
$UCSXDIR
 10
1.0
 20
0.0
 30
0.0
  9
$UCSYDIR
 10
0.0
 20
1.0
 30
0.0
  9
$UCSORTHOREF
  2

  9
$UCSORTHOVIEW
 70
     0
  9
$UCSORGTOP
 10
0.0
 20
0.0
 30
0.0
  9
$UCSORGBOTTOM
 10
0.0
 20
0.0
 30
0.0
  9
$UCSORGLEFT
 10
0.0
 20
0.0
 30
0.0
  9
$UCSORGRIGHT
 10
0.0
 20
0.0
 30
0.0
  9
$UCSORGFRONT
 10
0.0
 20
0.0
 30
0.0
  9
$UCSORGBACK
 10
0.0
 20
0.0
 30
0.0
  9
$PUCSBASE
  2

  9
$PUCSNAME
  2

  9
$PUCSORG
 10
0.0
 20
0.0
 30
0.0
  9
$PUCSXDIR
 10
1.0
 20
0.0
 30
0.0
  9
$PUCSYDIR
 10
0.0
 20
1.0
 30
0.0
  9
$PUCSORTHOREF
  2

  9
$PUCSORTHOVIEW
 70
     0
  9
$PUCSORGTOP
 10
0.0
 20
0.0
 30
0.0
  9
$PUCSORGBOTTOM
 10
0.0
 20
0.0
 30
0.0
  9
$PUCSORGLEFT
 10
0.0
 20
0.0
 30
0.0
  9
$PUCSORGRIGHT
 10
0.0
 20
0.0
 30
0.0
  9
$PUCSORGFRONT
 10
0.0
 20
0.0
 30
0.0
  9
$PUCSORGBACK
 10
0.0
 20
0.0
 30
0.0
  9
$USERI1
 70
     0
  9
$USERI2
 70
     0
  9
$USERI3
 70
     0
  9
$USERI4
 70
     0
  9
$USERI5
 70
     0
  9
$USERR1
 40
0.0
  9
$USERR2
 40
0.0
  9
$USERR3
 40
0.0
  9
$USERR4
 40
0.0
  9
$USERR5
 40
0.0
  9
$WORLDVIEW
 70
     1
  9
$SHADEDGE
 70
     3
  9
$SHADEDIF
 70
    70
  9
$TILEMODE
 70
     0
  9
$MAXACTVP
 70
    64
  9
$PINSBASE
 10
0.0
 20
0.0
 30
0.0
  9
$PLIMCHECK
 70
     0
  9
$PEXTMIN
 10
0.0
 20
0.0
 30
0.0
  9
$PEXTMAX
 10
297.0
 20
210.0
 30
0.0
  9
$PLIMMIN
 10
0.037002778146416
 20
0.0133361937478469
  9
$PLIMMAX
 10
296.9629976511933
 20
209.9866638304666
  9
$UNITMODE
 70
     0
  9
$VISRETAIN
 70
     1
  9
$PLINEGEN
 70
     0
  9
$PSLTSCALE
 70
     1
  9
$TREEDEPTH
 70
  3020
  9
$CMLSTYLE
  2
Standard
  9
$CMLJUST
 70
     0
  9
$CMLSCALE
 40
20.0
  9
$PROXYGRAPHICS
 70
     1
  9
$MEASUREMENT
 70
     1
  9
$CELWEIGHT
370
    -1
  9
$ENDCAPS
280
     0
  9
$JOINSTYLE
280
     0
  9
$LWDISPLAY
290
     0
  9
$INSUNITS
 70
     4
  9
$HYPERLINKBASE
  1

  9
$STYLESHEET
  1

  9
$XEDIT
290
     1
  9
$CEPSNTYPE
380
     0
  9
$PSTYLEMODE
290
     1
  9
$FINGERPRINTGUID
  2
{733C549A-BCB8-4AFB-9693-44D802A4876F}
  9
$VERSIONGUID
  2
{12CC4596-FA24-453D-A7E6-7DB84F029362}
  9
$EXTNAMES
290
     1
  9
$PSVPSCALE
 40
0.0
  9
$OLESTARTUP
290
     0
  0
ENDSEC
  0
SECTION
  2
CLASSES
  0
CLASS
  1
ACDBDICTIONARYWDFLT
  2
AcDbDictionaryWithDefault
  3
ObjectDBX Classes
 90
        0
280
     0
281
     0
  0
CLASS
  1
PLOTSETTINGS
  2
AcDbPlotSettings
  3
ObjectDBX Classes
 90
        0
280
     0
281
     0
  0
CLASS
  1
DICTIONARYVAR
  2
AcDbDictionaryVar
  3
ObjectDBX Classes
 90
        0
280
     0
281
     0
  0
CLASS
  1
TABLESTYLE
  2
AcDbTableStyle
  3
ObjectDBX Classes
 90
     4095
280
     0
281
     0
  0
CLASS
  1
MATERIAL
  2
AcDbMaterial
  3
ObjectDBX Classes
 90
     1024
280
     0
281
     0
  0
CLASS
  1
VISUALSTYLE
  2
AcDbVisualStyle
  3
ObjectDBX Classes
 90
     4095
280
     0
281
     0
  0
CLASS
  1
ACAD_EVALUATION_GRAPH
  2
AcDbEvalGraph
  3
ObjectDBX Classes
 90
    33921
280
     0
281
     0
  0
CLASS
  1
ACAECUSTOBJ
  2
AcAeEditorObj
  3
AcAeEditorObj
 90
    33792
280
     0
281
     0
  0
CLASS
  1
ACDB_DYNAMICBLOCKPURGEPREVENTER_VERSION
  2
AcDbDynamicBlockPurgePreventer
  3
ObjectDBX Classes
 90
    33921
280
     0
281
     0
  0
CLASS
  1
SORTENTSTABLE
  2
AcDbSortentsTable
  3
ObjectDBX Classes
 90
        0
280
     0
281
     0
  0
CLASS
  1
DIMASSOC
  2
AcDbDimAssoc
  3
"AcDbDimAssoc|Product Desc:     AcDim ARX App For Dimension|Company:          Autodesk, Inc.|WEB Address:      www.autodesk.com"
 90
        0
280
     0
281
     0
  0
CLASS
  1
ACDBPLACEHOLDER
  2
AcDbPlaceHolder
  3
ObjectDBX Classes
 90
        0
280
     0
281
     0
  0
CLASS
  1
LAYOUT
  2
AcDbLayout
  3
ObjectDBX Classes
 90
        0
280
     0
281
     0
  0
ENDSEC
  0
SECTION
  2
TABLES
  0
TABLE
  2
VPORT
  5
8
330
0
100
AcDbSymbolTable
 70
     2
  0
VPORT
  5
1B5
330
8
100
AcDbSymbolTableRecord
100
AcDbViewportTableRecord
  2
*Active
 70
     0
 10
0.0
 20
0.0
 11
1.0
 21
1.0
 12
232.6902687565779
 22
1802.66893835742
 13
0.0
 23
0.0
 14
10.0
 24
10.0
 15
10.0
 25
10.0
 16
0.0
 26
0.0
 36
1.0
 17
0.0
 27
0.0
 37
0.0
 40
510.2475248465853
 41
1.554054054054053
 42
50.0
 43
0.0
 44
0.0
 50
0.0
 51
0.0
 71
     0
 72
  1000
 73
     1
 74
     3
 75
     0
 76
     0
 77
     0
 78
     0
281
     0
 65
     1
110
0.0
120
0.0
130
0.0
111
1.0
121
0.0
131
0.0
112
0.0
122
1.0
132
0.0
 79
     0
146
0.0
  0
VPORT
  5
45A
330
8
100
AcDbSymbolTableRecord
100
AcDbViewportTableRecord
  2
本図
 70
     0
 10
0.0
 20
0.0
 11
1.0
 21
1.0
 12
322.2643325138894
 22
893.4870383816823
 13
0.0
 23
0.0
 14
10.0
 24
10.0
 15
10.0
 25
10.0
 16
0.0
 26
0.0
 36
1.0
 17
0.0
 27
0.0
 37
0.0
 40
349.6006736910367
 41
1.105194805194805
 42
50.0
 43
0.0
 44
0.0
 50
0.0
 51
0.0
 71
     0
 72
  1000
 73
     1
 74
     3
 75
     0
 76
     1
 77
     0
 78
     0
281
     0
 65
     1
110
0.0
120
0.0
130
0.0
111
1.0
121
0.0
131
0.0
112
0.0
122
1.0
132
0.0
 79
     0
146
0.0
  0
ENDTAB
  0
TABLE
  2
LTYPE
  5
5
330
0
100
AcDbSymbolTable
 70
     6
  0
LTYPE
  5
14
330
5
100
AcDbSymbolTableRecord
100
AcDbLinetypeTableRecord
  2
ByBlock
 70
     0
  3

 72
    65
 73
     0
 40
0.0
  0
LTYPE
  5
15
330
5
100
AcDbSymbolTableRecord
100
AcDbLinetypeTableRecord
  2
ByLayer
 70
     0
  3

 72
    65
 73
     0
 40
0.0
  0
LTYPE
  5
16
330
5
100
AcDbSymbolTableRecord
100
AcDbLinetypeTableRecord
  2
Continuous
 70
     0
  3
Solid line
 72
    65
 73
     0
 40
0.0
  0
LTYPE
  5
291
330
5
100
AcDbSymbolTableRecord
100
AcDbLinetypeTableRecord
  2
HIDDEN2
 70
     0
  3
Hidden (.5x) _ _ _ _ _ _ _ _ _ _ _ _ _ _ _ _ _
 72
    65
 73
     2
 40
4.762499999999998
 49
3.174999999999998
 74
     0
 49
-1.587499999999999
 74
     0
  0
LTYPE
  5
4C3
330
5
100
AcDbSymbolTableRecord
100
AcDbLinetypeTableRecord
  2
CENTER2
 70
     0
  3
Center (.5x) ___ _ ___ _ ___ _ ___ _ ___ _ ___
 72
    65
 73
     4
 40
28.575
 49
19.05
 74
     0
 49
-3.174999999999998
 74
     0
 49
3.174999999999998
 74
     0
 49
-3.174999999999998
 74
     0
  0
LTYPE
  5
4C4
330
5
100
AcDbSymbolTableRecord
100
AcDbLinetypeTableRecord
  2
PHANTOM2
 70
     0
  3
Phantom (.5x) ___ _ _ ___ _ _ ___ _ _ ___ _ _
 72
    65
 73
     6
 40
31.75
 49
15.875
 74
     0
 49
-3.174999999999998
 74
     0
 49
3.174999999999998
 74
     0
 49
-3.174999999999998
 74
     0
 49
3.174999999999998
 74
     0
 49
-3.174999999999998
 74
     0
  0
LTYPE
  5
C92
330
5
100
AcDbSymbolTableRecord
100
AcDbLinetypeTableRecord
  2
CENTER
 70
     0
  3
Center ____ _ ____ _ ____ _ ____ _ ____ _ ____
 72
    65
 73
     4
 40
50.8
 49
31.75
 74
     0
 49
-6.349999999999998
 74
     0
 49
6.349999999999998
 74
     0
 49
-6.349999999999998
 74
     0
  0
LTYPE
  5
1F1A
330
5
100
AcDbSymbolTableRecord
100
AcDbLinetypeTableRecord
  2
HIDDEN
 70
     0
  3
Hidden __ __ __ __ __ __ __ __ __ __ __ __ __ _
 72
    65
 73
     2
 40
9.524999999999996
 49
6.349999999999998
 74
     0
 49
-3.174999999999998
 74
     0
  0
ENDTAB
  0
TABLE
  2
LAYER
  5
2
102
{ACAD_XDICTIONARY
360
18A
102
}
330
0
100
AcDbSymbolTable
 70
    23
  0
LAYER
  5
10
330
2
100
AcDbSymbolTableRecord
100
AcDbLayerTableRecord
  2
0
 70
     0
 62
     7
  6
Continuous
370
    -3
390
F
  0
LAYER
  5
E4
330
2
100
AcDbSymbolTableRecord
100
AcDbLayerTableRecord
  2
Object
 70
     0
 62
     7
  6
Continuous
370
    -3
390
F
  0
LAYER
  5
12C
330
2
100
AcDbSymbolTableRecord
100
AcDbLayerTableRecord
  2
Title Block
 70
     0
 62
     7
  6
Continuous
370
    -3
390
F
  0
LAYER
  5
12D
330
2
100
AcDbSymbolTableRecord
100
AcDbLayerTableRecord
  2
Viewport
 70
     0
 62
     7
  6
Continuous
370
    -3
390
F
  0
LAYER
  5
345
330
2
100
AcDbSymbolTableRecord
100
AcDbLayerTableRecord
  2
作図線
 70
     0
 62
     6
  6
Continuous
290
     0
370
    18
390
F
  0
LAYER
  5
3DA
330
2
100
AcDbSymbolTableRecord
100
AcDbLayerTableRecord
  2
Dims
 70
     0
 62
     6
  6
Continuous
370
    -3
390
F
  0
LAYER
  5
3DB
330
2
100
AcDbSymbolTableRecord
100
AcDbLayerTableRecord
  2
Defpoints
 70
     0
 62
     7
  6
Continuous
290
     0
370
    -3
390
F
  0
LAYER
  5
3DC
330
2
100
AcDbSymbolTableRecord
100
AcDbLayerTableRecord
  2
テキスト
 70
     0
 62
     4
  6
Continuous
370
    -3
390
F
1001
AcAecLayerStandard
1000

1000

  0
LAYER
  5
4C5
330
2
100
AcDbSymbolTableRecord
100
AcDbLayerTableRecord
  2
寸法線
 70
     0
 62
     3
  6
Continuous
370
    18
390
F
  0
LAYER
  5
4C6
330
2
100
AcDbSymbolTableRecord
100
AcDbLayerTableRecord
  2
隠れ線
 70
     0
 62
     5
  6
HIDDEN2
370
    18
390
F
  0
LAYER
  5
4C7
330
2
100
AcDbSymbolTableRecord
100
AcDbLayerTableRecord
  2
中心線
 70
     0
 62
     1
  6
CENTER2
370
    18
390
F
  0
LAYER
  5
4C8
330
2
100
AcDbSymbolTableRecord
100
AcDbLayerTableRecord
  2
太線0.5
 70
     0
 62
     8
  6
Continuous
370
    50
390
F
  0
LAYER
  5
4C9
330
2
100
AcDbSymbolTableRecord
100
AcDbLayerTableRecord
  2
想像線
 70
     0
 62
     5
  6
PHANTOM2
370
    18
390
F
  0
LAYER
  5
4CA
330
2
100
AcDbSymbolTableRecord
100
AcDbLayerTableRecord
  2
一時線
 70
     0
 62
     2
  6
Continuous
290
     0
370
    18
390
F
1001
AcAecLayerStandard
1000

1000

  0
LAYER
  5
4CB
330
2
100
AcDbSymbolTableRecord
100
AcDbLayerTableRecord
  2
切断線
 70
     0
 62
     8
  6
Continuous
370
    25
390
F
1001
AcAecLayerStandard
1000

1000

  0
LAYER
  5
4CC
330
2
100
AcDbSymbolTableRecord
100
AcDbLayerTableRecord
  2
塗潰し
 70
     0
 62
     8
  6
Continuous
370
    18
390
F
1001
AcAecLayerStandard
1000

1000

  0
LAYER
  5
A4A
330
2
100
AcDbSymbolTableRecord
100
AcDbLayerTableRecord
  2
寸法
 70
     0
 62
     3
  6
Continuous
370
    18
390
F
  0
LAYER
  5
C93
330
2
100
AcDbSymbolTableRecord
100
AcDbLayerTableRecord
  2
Bracket
 70
     0
 62
     5
  6
Continuous
370
    40
390
F
  0
LAYER
  5
C94
330
2
100
AcDbSymbolTableRecord
100
AcDbLayerTableRecord
  2
Center
 70
     0
 62
     1
  6
CENTER
370
    -3
390
F
  0
LAYER
  5
1F1B
330
2
100
AcDbSymbolTableRecord
100
AcDbLayerTableRecord
  2
外形線
 70
     0
 62
     7
  6
Continuous
370
    40
390
F
  0
LAYER
  5
2987
330
2
100
AcDbSymbolTableRecord
100
AcDbLayerTableRecord
  2
Hidden
 70
     0
 62
     3
  6
Continuous
370
    -3
390
F
  0
LAYER
  5
5B63
330
2
100
AcDbSymbolTableRecord
100
AcDbLayerTableRecord
  2
Text
 70
     0
 62
     4
  6
Continuous
370
    -3
390
F
  0
LAYER
  5
B2B7
102
{ACAD_XDICTIONARY
360
B2B8
102
}
330
2
100
AcDbSymbolTableRecord
100
AcDbLayerTableRecord
  2
MOLD
 70
     0
 62
     7
  6
Continuous
370
    -3
390
F
  0
ENDTAB
  0
TABLE
  2
STYLE
  5
3
330
0
100
AcDbSymbolTable
 70
     5
  0
STYLE
  5
11
330
3
100
AcDbSymbolTableRecord
100
AcDbTextStyleTableRecord
  2
Standard
 70
     0
 40
0.0
 41
1.0
 50
0.0
 71
     0
 42
2.5
  3
MS Gothic.ttf
  4

1001
ACAD
1000
MS Gothic
1071
    32817
  0
STYLE
  5
B0
330
3
100
AcDbSymbolTableRecord
100
AcDbTextStyleTableRecord
  2
Roman
 70
     0
 40
0.0
 41
1.0
 50
0.0
 71
     0
 42
5.0
  3
romans.shx
  4
extfont2.shx
  0
STYLE
  5
346
330
3
100
AcDbSymbolTableRecord
100
AcDbTextStyleTableRecord
  2
尺度１／２
 70
     0
 40
0.0
 41
1.0
 50
0.0
 71
     0
 42
8.0
  3
MS Gothic.ttf
  4

1001
ACAD
1000
MS Gothic
1071
    32817
  0
STYLE
  5
68E
330
3
100
AcDbSymbolTableRecord
100
AcDbTextStyleTableRecord
  2
BWH-jdt02
 70
     0
 40
0.0
 41
0.7
 50
0.0
 71
     0
 42
4.752464886293636
  3
SIMSUN.TTF
  4

1001
ACAD
1000
SimSun
1071
    34306
  0
STYLE
  5
B2BA
330
3
100
AcDbSymbolTableRecord
100
AcDbTextStyleTableRecord
  2
HZ
 70
     0
 40
0.0
 41
0.6700000000000001
 50
0.0
 71
     0
 42
5.0
  3
txt
  4

  0
ENDTAB
  0
TABLE
  2
VIEW
  5
6
330
0
100
AcDbSymbolTable
 70
     0
  0
ENDTAB
  0
TABLE
  2
UCS
  5
7
330
0
100
AcDbSymbolTable
 70
     0
  0
ENDTAB
  0
TABLE
  2
APPID
  5
9
330
0
100
AcDbSymbolTable
 70
    12
  0
APPID
  5
12
330
9
100
AcDbSymbolTableRecord
100
AcDbRegAppTableRecord
  2
ACAD
 70
     0
  0
APPID
  5
1B4
330
9
100
AcDbSymbolTableRecord
100
AcDbRegAppTableRecord
  2
ACAD_PSEXT
 70
     0
  0
APPID
  5
27C
330
9
100
AcDbSymbolTableRecord
100
AcDbRegAppTableRecord
  2
ACAUTHENVIRON
 70
     0
  0
APPID
  5
280
330
9
100
AcDbSymbolTableRecord
100
AcDbRegAppTableRecord
  2
AcDbDynamicBlockTrueName
 70
     0
  0
APPID
  5
281
330
9
100
AcDbSymbolTableRecord
100
AcDbRegAppTableRecord
  2
AcDbDynamicBlockGUID
 70
     0
  0
APPID
  5
283
330
9
100
AcDbSymbolTableRecord
100
AcDbRegAppTableRecord
  2
AcDbBlockRepETag
 70
     0
  0
APPID
  5
331
330
9
100
AcDbSymbolTableRecord
100
AcDbRegAppTableRecord
  2
ACAD_EXEMPT_FROM_CAD_STANDARDS
 70
     0
  0
APPID
  5
3DD
330
9
100
AcDbSymbolTableRecord
100
AcDbRegAppTableRecord
  2
AcAecLayerStandard
 70
     0
  0
APPID
  5
692
330
9
100
AcDbSymbolTableRecord
100
AcDbRegAppTableRecord
  2
RAK
 70
     0
  0
APPID
  5
78A4
330
9
100
AcDbSymbolTableRecord
100
AcDbRegAppTableRecord
  2
ACAD_DSTYLE_DIMJAG
 70
     0
  0
APPID
  5
78A5
330
9
100
AcDbSymbolTableRecord
100
AcDbRegAppTableRecord
  2
ACAD_DSTYLE_DIMTALN
 70
     0
  0
APPID
  5
B2BD
330
9
100
AcDbSymbolTableRecord
100
AcDbRegAppTableRecord
  2
AcadStringInfo
 70
     0
  0
ENDTAB
  0
TABLE
  2
DIMSTYLE
  5
A
330
0
100
AcDbSymbolTable
 70
     9
100
AcDbDimStyleTable
 71
     3
340
121
340
348
340
347
  0
DIMSTYLE
105
121
102
{ACAD_REACTORS
330
162D3
330
162D4
330
162D5
330
162DF
330
162E2
102
}
330
A
100
AcDbSymbolTableRecord
100
AcDbDimStyleTableRecord
  2
JIS
 70
     0
 41
4.0
 42
1.0
 43
7.0
 44
1.0
 73
     0
 74
     0
 77
     1
 78
     8
140
5.0
141
0.0
143
0.0394
147
1.0
172
     1
340
11
341
33F
342
33F
  0
DIMSTYLE
105
292
330
A
100
AcDbSymbolTableRecord
100
AcDbDimStyleTableRecord
  2
ISO-25
 70
     0
 41
2.5
 42
0.625
 43
3.75
 44
1.25
 73
     0
 74
     0
 77
     1
 78
     8
140
2.5
141
2.5
143
0.03937007874016
147
0.625
171
     3
172
     1
271
     2
272
     2
274
     3
278
    44
283
     0
284
     8
340
11
  0
DIMSTYLE
105
347
330
A
100
AcDbSymbolTableRecord
100
AcDbDimStyleTableRecord
  2
JIS１／２
 70
     0
 41
6.0
 42
1.0
 43
7.0
 44
1.0
 73
     0
 74
     0
 77
     1
 78
     8
140
7.0
141
0.0
143
0.0394
147
2.0
172
     1
271
     2
272
     2
340
346
341
33F
342
33F
  0
DIMSTYLE
105
348
330
A
100
AcDbSymbolTableRecord
100
AcDbDimStyleTableRecord
  2
JIS２／１
 70
     0
 41
2.5
 42
1.0
 43
7.0
 44
1.0
 73
     0
 74
     0
 77
     1
 78
     8
140
3.0
141
0.0
143
0.0394
147
0.5
172
     1
271
     2
272
     2
340
11
341
33F
342
33F
  0
DIMSTYLE
105
C95
330
A
100
AcDbSymbolTableRecord
100
AcDbDimStyleTableRecord
  2
ｺﾋﾟｰ - JIS
 70
     0
 41
2.5
 42
0.5
 43
7.0
 44
1.0
 48
0.5
 71
     1
 73
     0
 74
     0
 77
     1
 78
     8
 79
     2
140
3.5
141
0.0
143
0.0394
146
0.5
147
0.0
172
     1
271
     1
272
     1
340
11
  0
DIMSTYLE
105
109E
330
A
100
AcDbSymbolTableRecord
100
AcDbDimStyleTableRecord
  2
ｺﾋﾟｰ(2) - JIS
 70
     0
 41
5.0
 42
0.5
 43
7.0
 44
1.0
 48
0.2
 71
     1
 73
     0
 74
     0
 77
     1
 78
     8
 79
     2
140
8.0
141
0.0
143
0.0394
146
0.5
147
0.0
172
     1
271
     1
272
     1
340
11
  0
DIMSTYLE
105
1F1C
330
A
100
AcDbSymbolTableRecord
100
AcDbDimStyleTableRecord
  2
JIS2
 70
     0
 41
2.5
 42
1.0
 43
7.0
 44
1.0
 73
     0
 74
     0
 77
     1
 78
     8
140
4.0
141
0.0
143
0.0394
144
0.5
147
0.5
172
     1
271
     1
272
     1
340
11
341
33F
342
33F
  0
DIMSTYLE
105
B2BB
330
A
100
AcDbSymbolTableRecord
100
AcDbDimStyleTableRecord
  2
1
 70
     0
 41
1.5
 42
0.0
 43
0.5
 44
1.0
 73
     0
 74
     0
 78
     8
140
3.0
141
0.0
143
0.03937007874016
146
0.5
147
0.0
171
     3
172
     1
176
     6
177
     6
178
     4
274
     3
279
     2
284
     8
285
     8
286
     8
340
B2BA
  0
DIMSTYLE
105
B2BC
330
A
100
AcDbSymbolTableRecord
100
AcDbDimStyleTableRecord
  2
2
 70
     0
 41
1.5
 42
0.0
 43
0.5
 44
1.0
 73
     0
 74
     0
 78
     8
140
2.0
141
0.0
143
0.03937007874016
146
0.5
147
0.0
171
     3
172
     1
176
     6
177
     6
178
     4
274
     3
279
     2
284
     8
285
     8
286
     8
340
B2BA
  0
ENDTAB
  0
TABLE
  2
BLOCK_RECORD
  5
1
330
0
100
AcDbSymbolTable
 70
    17
  0
BLOCK_RECORD
  5
1F
102
{ACAD_XDICTIONARY
360
B52
102
}
330
1
100
AcDbSymbolTableRecord
100
AcDbBlockTableRecord
  2
*Model_Space
340
22
  0
BLOCK_RECORD
  5
1646A
330
1
100
AcDbSymbolTableRecord
100
AcDbBlockTableRecord
  2
*Paper_Space
340
16467
  0
BLOCK_RECORD
  5
AB
102
{ACAD_XDICTIONARY
360
28E
102
}
330
1
100
AcDbSymbolTableRecord
100
AcDbBlockTableRecord
  2
JIS A4 title block (portrait)
340
0
310
2800000020000000200000000100080000000000000400000000000000000000000000000000000000000000000080000080000000808000800000008000800080800000C0C0C000C0DCC000F0CAA6000020400000206000002080000020A0000020C0000020E00000400000004020000040400000406000004080000040A0
310
000040C0000040E00000600000006020000060400000606000006080000060A0000060C0000060E00000800000008020000080400000806000008080000080A0000080C0000080E00000A0000000A0200000A0400000A0600000A0800000A0A00000A0C00000A0E00000C0000000C0200000C0400000C0600000C0800000C0
310
A00000C0C00000C0E00000E0000000E0200000E0400000E0600000E0800000E0A00000E0C00000E0E00040000000400020004000400040006000400080004000A0004000C0004000E00040200000402020004020400040206000402080004020A0004020C0004020E000404000004040200040404000404060004040800040
310
40A0004040C0004040E00040600000406020004060400040606000406080004060A0004060C0004060E00040800000408020004080400040806000408080004080A0004080C0004080E00040A0000040A0200040A0400040A0600040A0800040A0A00040A0C00040A0E00040C0000040C0200040C0400040C0600040C08000
310
40C0A00040C0C00040C0E00040E0000040E0200040E0400040E0600040E0800040E0A00040E0C00040E0E00080000000800020008000400080006000800080008000A0008000C0008000E00080200000802020008020400080206000802080008020A0008020C0008020E00080400000804020008040400080406000804080
310
008040A0008040C0008040E00080600000806020008060400080606000806080008060A0008060C0008060E00080800000808020008080400080806000808080008080A0008080C0008080E00080A0000080A0200080A0400080A0600080A0800080A0A00080A0C00080A0E00080C0000080C0200080C0400080C0600080C0
310
800080C0A00080C0C00080C0E00080E0000080E0200080E0400080E0600080E0800080E0A00080E0C00080E0E000C0000000C0002000C0004000C0006000C0008000C000A000C000C000C000E000C0200000C0202000C0204000C0206000C0208000C020A000C020C000C020E000C0400000C0402000C0404000C0406000C0
310
408000C040A000C040C000C040E000C0600000C0602000C0604000C0606000C0608000C060A000C060C000C060E000C0800000C0802000C0804000C0806000C0808000C080A000C080C000C080E000C0A00000C0A02000C0A04000C0A06000C0A08000C0A0A000C0A0C000C0A0E000C0C00000C0C02000C0C04000C0C06000
310
C0C08000C0C0A000F0FBFF00A4A0A000808080000000FF0000FF000000FFFF00FF000000FF00FF00FFFF0000FFFFFF00FFFFFFFFFFFFFFFFFFFFFFFFFFFFFFFFFFFFFFFFFFFFFFFFFFFFFFFFFFFFFFFFFFFFFFFFFFFF000000FFFFFFFFFFFFFF00FFFFFFFFFFFFFFFF00FFFFFFFFFFFFFFFFFFFFFFFF000000000000000000
310
0000000000000000000000FFFFFFFFFFFFFFFFFFFFFFFFFFFF00FFFFFF0000000000000000000000000000FFFFFFFFFFFFFFFFFFFFFFFFFFFF00FFFFFF0000000000000000FFFFFFFFFF00FFFFFFFFFFFFFFFFFFFFFFFFFFFF00FFFFFF0000000000000000000000000000FFFFFFFFFFFFFFFFFFFFFFFFFFFF00FFFFFF0000
310
000000000000000000000000FFFFFFFFFFFFFFFFFFFFFFFFFF0000FFFFFFFFFFFFFFFFFFFFFFFFFFFFFFFF00FFFFFFFFFFFFFFFFFFFFFFFFFFFF00FFFFFFFFFFFFFFFFFFFFFFFFFFFFFFFF00FFFFFFFFFFFFFFFFFFFFFFFFFFFF00FFFFFFFFFFFFFFFFFFFFFFFFFFFFFFFF00FFFFFFFFFFFFFFFFFFFFFFFFFFFF00FFFFFFFF
310
FFFFFFFFFFFFFFFFFFFFFFFF00FFFFFFFFFFFFFFFFFFFFFFFFFF0000FFFFFFFFFFFFFFFFFFFFFFFFFFFFFFFF00FFFFFFFFFFFFFFFFFFFFFFFFFFFF00FFFFFFFFFFFFFFFFFFFFFFFFFFFFFFFF00FFFFFFFFFFFFFFFFFFFFFFFFFFFF00FFFFFFFFFFFFFFFFFFFFFFFFFFFFFFFF00FFFFFFFFFFFFFFFFFFFFFFFFFFFF00FFFFFF
310
FFFFFFFFFFFFFFFFFFFFFFFFFF00FFFFFFFFFFFFFFFFFFFFFFFF000000FFFFFFFFFFFFFFFFFFFFFFFFFFFFFFFF00FFFFFFFFFFFFFFFFFFFFFFFFFFFF00FFFFFFFFFFFFFFFFFFFFFFFFFFFFFFFF00FFFFFFFFFFFFFFFFFFFFFFFFFFFF00FFFFFFFFFFFFFFFFFFFFFFFFFFFFFFFF00FFFFFFFFFFFFFFFFFFFFFFFFFFFF00FFFF
310
FFFFFFFFFFFFFFFFFFFFFFFFFFFF00FFFFFFFFFFFFFFFFFFFFFFFFFFFF00FFFFFFFFFFFFFFFFFFFFFFFFFFFFFFFF00FFFFFFFFFFFFFFFFFFFFFFFFFF0000FFFFFFFFFFFFFFFFFFFFFFFFFFFFFFFF00FFFFFFFFFFFFFFFFFFFFFFFFFFFF00FFFFFFFFFFFFFFFFFFFFFFFFFFFFFFFF00FFFFFFFFFFFFFFFFFFFFFFFFFFFF00FF
310
FFFFFFFFFFFFFFFFFFFFFFFFFFFFFF00FFFFFFFFFFFFFFFFFFFFFFFFFFFF00FFFFFFFFFFFFFFFFFFFFFFFFFFFFFFFF00FFFFFFFFFFFFFFFFFFFFFFFFFF0000FFFFFFFFFFFFFFFFFFFFFFFFFFFFFFFF00FFFFFFFFFFFFFFFFFFFFFFFFFFFF00FFFFFFFFFFFFFFFFFFFFFFFFFFFFFFFF00FFFFFFFFFFFFFFFFFFFFFFFFFFFF00
310
00000000000000000000FFFFFFFFFFFF00FFFFFFFFFFFFFFFFFFFFFFFFFFFF0000000000000000000000FFFFFFFFFFFF00FFFFFFFFFFFFFFFFFFFFFFFFFFFF0000000000000000000000FFFFFFFFFFFF00FFFFFFFFFFFFFFFFFFFFFFFF00FF000000000000000000000000000000000000FFFFFFFFFFFFFFFFFFFFFFFF0000
310
00FFFFFFFFFFFFFF00FFFFFFFFFFFFFFFF00FFFFFFFFFFFFFFFFFFFFFFFFFFFFFFFFFFFFFFFFFFFFFFFFFFFFFFFFFFFFFFFFFFFFFFFFFFFF
102
{BLKREFS
331
11A
102
}
1001
AcDbDynamicBlockGUID
1000
{6DB1C6FB-04ED-4989-8D70-427348F3A6A6}
1001
AcDbBlockRepETag
1070
     1
1071
       23
1001
ACAD
1000
DesignCenter Data
1002
{
1070
     1
1070
     4
1002
}
  0
BLOCK_RECORD
  5
33F
330
1
100
AcDbSymbolTableRecord
100
AcDbBlockTableRecord
  2
_Open30
340
0
102
{BLKREFS
331
161B5
331
161B6
331
161BE
331
161BF
331
161FA
331
161FB
331
1620D
331
1620E
331
1623C
331
1623D
331
163F7
331
163F8
331
16401
331
16402
331
1640A
331
1640B
331
16413
331
16414
331
1641B
331
1641C
102
}
  0
BLOCK_RECORD
  5
4E7
102
{ACAD_XDICTIONARY
360
4E8
102
}
330
1
100
AcDbSymbolTableRecord
100
AcDbBlockTableRecord
  2
JIS A3 title block
340
0
310
2800000020000000200000000100080000000000000400000000000000000000000000000000000000000000000080000080000000808000800000008000800080800000C0C0C000C0DCC000F0CAA6000020400000206000002080000020A0000020C0000020E00000400000004020000040400000406000004080000040A0
310
000040C0000040E00000600000006020000060400000606000006080000060A0000060C0000060E00000800000008020000080400000806000008080000080A0000080C0000080E00000A0000000A0200000A0400000A0600000A0800000A0A00000A0C00000A0E00000C0000000C0200000C0400000C0600000C0800000C0
310
A00000C0C00000C0E00000E0000000E0200000E0400000E0600000E0800000E0A00000E0C00000E0E00040000000400020004000400040006000400080004000A0004000C0004000E00040200000402020004020400040206000402080004020A0004020C0004020E000404000004040200040404000404060004040800040
310
40A0004040C0004040E00040600000406020004060400040606000406080004060A0004060C0004060E00040800000408020004080400040806000408080004080A0004080C0004080E00040A0000040A0200040A0400040A0600040A0800040A0A00040A0C00040A0E00040C0000040C0200040C0400040C0600040C08000
310
40C0A00040C0C00040C0E00040E0000040E0200040E0400040E0600040E0800040E0A00040E0C00040E0E00080000000800020008000400080006000800080008000A0008000C0008000E00080200000802020008020400080206000802080008020A0008020C0008020E00080400000804020008040400080406000804080
310
008040A0008040C0008040E00080600000806020008060400080606000806080008060A0008060C0008060E00080800000808020008080400080806000808080008080A0008080C0008080E00080A0000080A0200080A0400080A0600080A0800080A0A00080A0C00080A0E00080C0000080C0200080C0400080C0600080C0
310
800080C0A00080C0C00080C0E00080E0000080E0200080E0400080E0600080E0800080E0A00080E0C00080E0E000C0000000C0002000C0004000C0006000C0008000C000A000C000C000C000E000C0200000C0202000C0204000C0206000C0208000C020A000C020C000C020E000C0400000C0402000C0404000C0406000C0
310
408000C040A000C040C000C040E000C0600000C0602000C0604000C0606000C0608000C060A000C060C000C060E000C0800000C0802000C0804000C0806000C0808000C080A000C080C000C080E000C0A00000C0A02000C0A04000C0A06000C0A08000C0A0A000C0A0C000C0A0E000C0C00000C0C02000C0C04000C0C06000
310
C0C08000C0C0A000F0FBFF00A4A0A000808080000000FF0000FF000000FFFF00FF000000FF00FF00FFFF0000FFFFFF00FFFFFFFFFFFFFFFFFFFFFFFFFFFFFFFFFFFFFFFFFFFFFFFFFFFFFFFFFFFFFFFFFFFFFFFFFFFFFFFFFFFFFFFFFFFFFFFFFFFFFFFFFFFFFFFFFFFFFFFFFFFFFFFFFFFFFFFFFFFFFFFFFFFFFFFFFFFFFF
310
FFFFFFFFFFFFFFFFFFFFFFFFFFFFFFFFFFFFFFFFFFFFFFFFFFFFFFFFFFFFFFFFFFFFFFFFFFFFFFFFFFFFFFFFFFFFFFFFFFFFFFFFFFFFFFFFFFFFFFFFFFFFFFFFFFFFFFFFFFFFFFFFFFFFFFFFFFFFFFFFFFFFFFFFFFFFFFFFFFFFFFFFFFFFFFFFFFFFFFFFFFFFFFFFFFFFFFFFFFFFFFFFFFFF00FFFF00000000000000000000
310
000000000000FFFFFFFFFFFF0000FFFF00FFFFFFFF0000000000000000FFFFFFFFFFFFFFFFFFFFFFFFFFFFFFFFFFFFFFFFFFFFFFFF0000000000000000FFFFFFFFFFFFFFFFFFFFFFFFFFFFFFFFFFFF00FFFFFFFFFF00FFFFFFFFFFFFFFFFFFFFFFFFFFFFFFFFFFFFFFFFFFFFFFFFFF00FFFFFFFFFFFFFFFFFFFFFFFFFFFFFF
310
FFFFFFFFFFFFFFFFFFFFFFFFFFFFFFFF00FFFFFFFFFF00FFFFFFFFFFFFFFFFFFFFFFFFFFFFFFFFFFFFFFFFFFFFFFFFFF00FFFFFFFFFF00FFFFFFFFFFFFFFFFFFFFFFFFFFFFFFFFFFFFFFFFFFFFFFFFFF00FFFFFFFFFFFFFFFFFFFFFFFFFFFFFFFFFFFFFFFFFFFFFFFFFFFFFFFFFFFFFF00FFFFFFFFFF00FFFFFFFFFFFFFFFF
310
FFFFFFFFFFFFFFFFFFFFFFFFFFFFFFFFFF00FFFFFFFFFF00FFFFFFFFFFFFFFFFFFFFFFFFFFFFFFFFFFFFFFFFFFFFFFFFFF00FFFFFF000000FFFFFFFFFFFFFFFFFFFFFFFFFFFFFFFFFFFFFFFFFFFFFFFFFF0000FFFFFFFF00FFFFFFFFFFFFFFFFFFFFFFFFFFFFFFFFFFFFFFFFFFFFFFFFFF00FFFFFFFFFF00FFFFFFFFFFFFFF
310
FFFFFFFFFFFFFFFFFFFFFFFFFFFFFFFFFFFF00FFFFFFFFFF00FFFFFFFFFFFFFFFFFFFFFFFFFFFFFFFFFFFFFFFFFFFFFFFFFF00FFFFFFFFFF00FFFFFFFFFFFFFFFFFFFFFFFFFFFFFFFFFFFFFFFFFFFFFFFFFF00FFFFFFFFFF00FFFFFFFFFFFFFFFFFFFFFFFFFFFFFFFFFFFFFFFFFFFFFFFFFF00FFFFFFFFFF00FFFFFFFFFFFF
310
FFFFFFFFFFFFFFFFFFFFFFFFFFFFFFFFFFFFFF00FFFFFFFFFF00FFFFFFFFFFFFFFFFFFFFFFFFFFFFFFFFFFFFFFFFFFFFFFFFFF00FFFFFFFFFF00FFFFFFFFFFFFFFFFFFFFFFFFFFFFFFFFFFFFFFFFFFFFFFFFFF00FFFFFF000000000000000000000000000000000000000000000000000000000000FFFFFFFFFFFFFFFFFFFF
310
FFFFFFFFFFFFFFFFFFFFFFFFFFFFFFFFFFFFFFFFFFFFFFFFFFFFFFFFFFFFFFFFFFFFFFFFFFFFFFFFFFFFFFFFFFFFFFFFFFFFFFFFFFFFFFFFFFFFFFFFFFFFFFFFFFFFFFFFFFFFFFFFFFFFFFFFFFFFFFFFFFFFFFFFFFFFFFFFFFFFFFFFFFFFFFFFFFFFFFFFFFFFFFFFFFFFFFFFFFFFFFFFFFFFFFFFFFFFFFFFFFFFFFFFFFFFFF
310
FFFFFFFFFFFFFFFFFFFFFFFFFFFFFFFFFFFFFFFFFFFFFFFFFFFFFFFFFFFFFFFFFFFFFFFFFFFFFFFFFFFFFFFFFFFFFFFFFFFFFFFFFFFFFFFF
102
{BLKREFS
331
6B2
102
}
1001
AcDbDynamicBlockGUID
1000
{ADD7F6C8-90DF-4B5E-9041-BE536E290B26}
1001
AcDbBlockRepETag
1070
     1
1071
       75
1001
ACAD
1000
DesignCenter Data
1002
{
1070
     1
1070
     4
1002
}
  0
BLOCK_RECORD
  5
6ED
102
{ACAD_XDICTIONARY
360
930
102
}
330
1
100
AcDbSymbolTableRecord
100
AcDbBlockTableRecord
  2
JIS A4 title block (landscape)
340
0
102
{BLKREFS
331
8B6
102
}
1001
AcDbDynamicBlockGUID
1000
{CEEEE382-D703-4645-97A2-E5AB7DAA0D3B}
1001
AcDbBlockRepETag
1070
     1
1071
       77
1001
ACAD
1000
DesignCenter Data
1002
{
1070
     1
1070
     4
1002
}
  0
BLOCK_RECORD
  5
160A0
330
1
100
AcDbSymbolTableRecord
100
AcDbBlockTableRecord
  2
*D6
340
0
  0
BLOCK_RECORD
  5
160AC
330
1
100
AcDbSymbolTableRecord
100
AcDbBlockTableRecord
  2
*D7
340
0
  0
BLOCK_RECORD
  5
160B8
330
1
100
AcDbSymbolTableRecord
100
AcDbBlockTableRecord
  2
*D8
340
0
  0
BLOCK_RECORD
  5
1613B
330
1
100
AcDbSymbolTableRecord
100
AcDbBlockTableRecord
  2
*D9
340
0
  0
BLOCK_RECORD
  5
16153
330
1
100
AcDbSymbolTableRecord
100
AcDbBlockTableRecord
  2
*D10
340
0
  0
BLOCK_RECORD
  5
162E9
330
1
100
AcDbSymbolTableRecord
100
AcDbBlockTableRecord
  2
*D11
340
0
  0
BLOCK_RECORD
  5
162F5
330
1
100
AcDbSymbolTableRecord
100
AcDbBlockTableRecord
  2
*D12
340
0
  0
BLOCK_RECORD
  5
16301
330
1
100
AcDbSymbolTableRecord
100
AcDbBlockTableRecord
  2
*D13
340
0
  0
BLOCK_RECORD
  5
16328
330
1
100
AcDbSymbolTableRecord
100
AcDbBlockTableRecord
  2
*D14
340
0
  0
BLOCK_RECORD
  5
16334
330
1
100
AcDbSymbolTableRecord
100
AcDbBlockTableRecord
  2
*D15
340
0
  0
ENDTAB
  0
ENDSEC
  0
SECTION
  2
BLOCKS
  0
BLOCK
  5
20
330
1F
100
AcDbEntity
  8
0
100
AcDbBlockBegin
  2
*Model_Space
 70
     0
 10
0.0
 20
0.0
 30
0.0
  3
*Model_Space
  1

  0
ENDBLK
  5
21
330
1F
100
AcDbEntity
  8
0
100
AcDbBlockEnd
  0
BLOCK
  5
16482
330
1646A
100
AcDbEntity
 67
     1
  8
0
100
AcDbBlockBegin
  2
*Paper_Space
 70
     0
 10
0.0
 20
0.0
 30
0.0
  3
*Paper_Space
  1

  0
ENDBLK
  5
16483
330
1646A
100
AcDbEntity
 67
     1
  8
0
100
AcDbBlockEnd
  0
BLOCK
  5
116
330
AB
100
AcDbEntity
  8
0
100
AcDbBlockBegin
  2
JIS A4 title block (portrait)
 70
     2
 10
0.0
 20
0.0
 30
0.0
  3
JIS A4 title block (portrait)
  1

  4
JIS A4 title block and attributes (portrait)
  0
LINE
  5
28C
330
AB
100
AcDbEntity
  8
0
100
AcDbLine
 10
0.0
 20
297.0
 30
0.0
 11
25.0
 21
297.0
 31
0.0
1001
AcDbBlockRepETag
1070
     1
1071
        0
1005
28C
  0
LINE
  5
28D
330
AB
100
AcDbEntity
  8
0
100
AcDbLine
 10
0.0
 20
287.0
 30
0.0
 11
0.0
 21
297.0
 31
0.0
1001
AcDbBlockRepETag
1070
     1
1071
        1
1005
28D
  0
LINE
  5
2E7
330
AB
100
AcDbEntity
  8
0
100
AcDbLine
 10
17.5
 20
10.0
 30
0.0
 11
17.5
 21
287.0
 31
0.0
1001
AcDbBlockRepETag
1070
     1
1071
        2
1005
2E7
  0
LINE
  5
2E8
330
AB
100
AcDbEntity
  8
0
100
AcDbLine
 10
192.5
 20
287.0
 30
0.0
 11
192.5
 21
10.0
 31
0.0
1001
AcDbBlockRepETag
1070
     1
1071
        3
1005
2E8
  0
LINE
  5
2E9
330
AB
100
AcDbEntity
  8
0
100
AcDbLine
 10
192.5
 20
10.0
 30
0.0
 11
17.5
 21
10.0
 31
0.0
1001
AcDbBlockRepETag
1070
     1
1071
        4
1005
2E9
  0
LINE
  5
2EA
330
AB
100
AcDbEntity
  8
0
100
AcDbLine
 10
25.0
 20
0.0
 30
0.0
 11
0.0
 21
0.0
 31
0.0
1001
AcDbBlockRepETag
1070
     1
1071
        5
1005
2EA
  0
LINE
  5
2EB
330
AB
100
AcDbEntity
  8
0
100
AcDbLine
 10
0.0
 20
0.0
 30
0.0
 11
0.0
 21
10.0
 31
0.0
1001
AcDbBlockRepETag
1070
     1
1071
        6
1005
2EB
  0
LINE
  5
2EC
330
AB
100
AcDbEntity
  8
0
100
AcDbLine
 10
61.25
 20
10.0
 30
0.0
 11
61.25
 21
5.0
 31
0.0
1001
AcDbBlockRepETag
1070
     1
1071
        7
1005
2EC
  0
LINE
  5
2ED
330
AB
100
AcDbEntity
  8
0
100
AcDbLine
 10
17.5
 20
148.5
 30
0.0
 11
0.0
 21
148.5
 31
0.0
1001
AcDbBlockRepETag
1070
     1
1071
        8
1005
2ED
  0
LINE
  5
2EE
330
AB
100
AcDbEntity
  8
0
100
AcDbLine
 10
17.5
 20
56.16666666666668
 30
0.0
 11
12.5
 21
56.16666666666668
 31
0.0
1001
AcDbBlockRepETag
1070
     1
1071
        9
1005
2EE
  0
LINE
  5
2EF
330
AB
100
AcDbEntity
  8
0
100
AcDbLine
 10
17.5
 20
102.3333333333333
 30
0.0
 11
12.5
 21
102.3333333333333
 31
0.0
1001
AcDbBlockRepETag
1070
     1
1071
       10
1005
2EF
  0
LINE
  5
2F0
330
AB
100
AcDbEntity
  8
0
100
AcDbLine
 10
17.5
 20
148.5
 30
0.0
 11
12.5
 21
148.5
 31
0.0
1001
AcDbBlockRepETag
1070
     1
1071
       11
1005
2F0
  0
LINE
  5
2F1
330
AB
100
AcDbEntity
  8
0
100
AcDbLine
 10
105.0
 20
10.0
 30
0.0
 11
105.0
 21
0.0
 31
0.0
1001
AcDbBlockRepETag
1070
     1
1071
       12
1005
2F1
  0
LINE
  5
2F2
330
AB
100
AcDbEntity
  8
0
100
AcDbLine
 10
210.0
 20
10.0
 30
0.0
 11
210.0
 21
0.0
 31
0.0
1001
AcDbBlockRepETag
1070
     1
1071
       13
1005
2F2
  0
LINE
  5
2F3
330
AB
100
AcDbEntity
  8
0
100
AcDbLine
 10
148.75
 20
10.0
 30
0.0
 11
148.75
 21
5.0
 31
0.0
1001
AcDbBlockRepETag
1070
     1
1071
       14
1005
2F3
  0
LINE
  5
2F4
330
AB
100
AcDbEntity
  8
0
100
AcDbLine
 10
210.0
 20
0.0
 30
0.0
 11
200.0
 21
0.0
 31
0.0
1001
AcDbBlockRepETag
1070
     1
1071
       15
1005
2F4
  0
LINE
  5
2F5
330
AB
100
AcDbEntity
  8
0
100
AcDbLine
 10
192.5
 20
56.16666666666668
 30
0.0
 11
197.5
 21
56.16666666666668
 31
0.0
1001
AcDbBlockRepETag
1070
     1
1071
       16
1005
2F5
  0
LINE
  5
2F6
330
AB
100
AcDbEntity
  8
0
100
AcDbLine
 10
192.5
 20
102.3333333333333
 30
0.0
 11
197.5
 21
102.3333333333333
 31
0.0
1001
AcDbBlockRepETag
1070
     1
1071
       17
1005
2F6
  0
LINE
  5
2F7
330
AB
100
AcDbEntity
  8
0
100
AcDbLine
 10
192.5
 20
148.5
 30
0.0
 11
210.0
 21
148.5
 31
0.0
1001
AcDbBlockRepETag
1070
     1
1071
       18
1005
2F7
  0
LINE
  5
2F8
330
AB
100
AcDbEntity
  8
0
100
AcDbLine
 10
192.5
 20
148.5
 30
0.0
 11
197.5
 21
148.5
 31
0.0
1001
AcDbBlockRepETag
1070
     1
1071
       19
1005
2F8
  0
LINE
  5
2F9
330
AB
100
AcDbEntity
  8
0
100
AcDbLine
 10
17.5
 20
287.0
 30
0.0
 11
192.5
 21
287.0
 31
0.0
1001
AcDbBlockRepETag
1070
     1
1071
       20
1005
2F9
  0
LINE
  5
2FA
330
AB
100
AcDbEntity
  8
0
100
AcDbLine
 10
17.5
 20
194.6666666666666
 30
0.0
 11
12.5
 21
194.6666666666666
 31
0.0
1001
AcDbBlockRepETag
1070
     1
1071
       21
1005
2FA
  0
LINE
  5
2FB
330
AB
100
AcDbEntity
  8
0
100
AcDbLine
 10
17.5
 20
240.8333333333333
 30
0.0
 11
12.5
 21
240.8333333333333
 31
0.0
1001
AcDbBlockRepETag
1070
     1
1071
       22
1005
2FB
  0
LINE
  5
2FC
330
AB
100
AcDbEntity
  8
0
100
AcDbLine
 10
61.25
 20
287.0
 30
0.0
 11
61.25
 21
292.0
 31
0.0
1001
AcDbBlockRepETag
1070
     1
1071
       24
1005
2FC
  0
ATTDEF
  5
2FD
330
AB
100
AcDbEntity
  8
0
 62
     0
380
     1
100
AcDbText
 10
17.5
 20
293.0
 30
0.0
 40
3.0
  1

  7
Roman
100
AcDbAttributeDefinition
  3
Author:
  2
USER
 70
     8
1001
AcDbBlockRepETag
1070
     1
1071
       25
1005
0
  0
LINE
  5
2FE
330
AB
100
AcDbEntity
  8
0
100
AcDbLine
 10
192.5
 20
194.6666666666667
 30
0.0
 11
197.5
 21
194.6666666666667
 31
0.0
1001
AcDbBlockRepETag
1070
     1
1071
       26
1005
2FE
  0
LINE
  5
2FF
330
AB
100
AcDbEntity
  8
0
100
AcDbLine
 10
192.5
 20
240.8333333333334
 30
0.0
 11
197.5
 21
240.8333333333334
 31
0.0
1001
AcDbBlockRepETag
1070
     1
1071
       27
1005
2FF
  0
ATTDEF
  5
300
330
AB
100
AcDbEntity
  8
0
 62
     0
380
     1
100
AcDbText
 10
125.5
 20
293.0
 30
0.0
 40
3.0
  1

  7
Roman
100
AcDbAttributeDefinition
  3
File name:
  2
FNAME
 70
     8
1001
AcDbBlockRepETag
1070
     1
1071
       28
1005
0
  0
LINE
  5
301
330
AB
100
AcDbEntity
  8
0
100
AcDbLine
 10
105.0
 20
287.0
 30
0.0
 11
105.0
 21
297.0
 31
0.0
1001
AcDbBlockRepETag
1070
     1
1071
       29
1005
301
  0
LINE
  5
302
330
AB
100
AcDbEntity
  8
0
100
AcDbLine
 10
105.0
 20
287.0
 30
0.0
 11
105.0
 21
292.0
 31
0.0
1001
AcDbBlockRepETag
1070
     1
1071
       30
1005
302
  0
ATTDEF
  5
303
330
AB
100
AcDbEntity
  8
0
 62
     0
380
     1
100
AcDbText
 10
77.5
 20
293.0
 30
0.0
 40
3.0
  1

  7
Roman
100
AcDbAttributeDefinition
  3
Revision date:
  2
REVDATE
 70
     8
1001
AcDbBlockRepETag
1070
     1
1071
       31
1005
0
  0
LINE
  5
304
330
AB
100
AcDbEntity
  8
0
100
AcDbLine
 10
210.0
 20
297.0
 30
0.0
 11
210.0
 21
287.0
 31
0.0
1001
AcDbBlockRepETag
1070
     1
1071
       32
1005
304
  0
LINE
  5
305
330
AB
100
AcDbEntity
  8
0
100
AcDbLine
 10
148.75
 20
287.0
 30
0.0
 11
148.75
 21
292.0
 31
0.0
1001
AcDbBlockRepETag
1070
     1
1071
       33
1005
305
  0
LINE
  5
306
330
AB
100
AcDbEntity
  8
0
100
AcDbLine
 10
200.0
 20
297.0
 30
0.0
 11
210.0
 21
297.0
 31
0.0
1001
AcDbBlockRepETag
1070
     1
1071
       34
1005
306
  0
TEXT
  5
307
330
AB
100
AcDbEntity
  8
0
100
AcDbText
 10
13.87568307432493
 20
120.75
 30
0.0
 40
3.0
  1
D
  7
Roman
 72
     1
 11
15.4471116457535
 21
120.75
 31
0.0
100
AcDbText
1001
AcDbBlockRepETag
1070
     1
1071
       35
1005
307
  0
TEXT
  5
308
330
AB
100
AcDbEntity
  8
0
100
AcDbText
 10
13.9471116457535
 20
168.25
 30
0.0
 40
3.0
  1
C
  7
Roman
 72
     1
 11
15.4471116457535
 21
168.25
 31
0.0
100
AcDbText
1001
AcDbBlockRepETag
1070
     1
1071
       36
1005
308
  0
TEXT
  5
309
330
AB
100
AcDbEntity
  8
0
100
AcDbText
 10
13.87568307432493
 20
215.75
 30
0.0
 40
3.0
  1
B
  7
Roman
 72
     1
 11
15.4471116457535
 21
215.75
 31
0.0
100
AcDbText
1001
AcDbBlockRepETag
1070
     1
1071
       37
1005
309
  0
TEXT
  5
30A
330
AB
100
AcDbEntity
  8
0
100
AcDbText
 10
14.16139736003921
 20
263.25
 30
0.0
 40
3.0
  1
A
  7
Roman
 72
     1
 11
15.4471116457535
 21
263.25
 31
0.0
100
AcDbText
1001
AcDbBlockRepETag
1070
     1
1071
       38
1005
30A
  0
TEXT
  5
30B
330
AB
100
AcDbEntity
  8
0
100
AcDbText
 10
38.11904761904761
 20
288.0
 30
0.0
 40
3.0
  1
1
  7
Roman
 72
     1
 11
39.33333333333332
 21
288.0
 31
0.0
100
AcDbText
1001
AcDbBlockRepETag
1070
     1
1071
       39
1005
30B
  0
TEXT
  5
30C
330
AB
100
AcDbEntity
  8
0
100
AcDbText
 10
81.57142857142856
 20
288.0
 30
0.0
 40
3.0
  1
2
  7
Roman
 72
     1
 11
83.0
 21
288.0
 31
0.0
100
AcDbText
1001
AcDbBlockRepETag
1070
     1
1071
       40
1005
30C
  0
TEXT
  5
30D
330
AB
100
AcDbEntity
  8
0
100
AcDbText
 10
125.2380952380953
 20
288.0
 30
0.0
 40
3.0
  1
3
  7
Roman
 72
     1
 11
126.6666666666667
 21
288.0
 31
0.0
100
AcDbText
1001
AcDbBlockRepETag
1070
     1
1071
       41
1005
30D
  0
TEXT
  5
30E
330
AB
100
AcDbEntity
  8
0
100
AcDbText
 10
168.8333333333333
 20
288.0
 30
0.0
 40
3.0
  1
4
  7
Roman
 72
     1
 11
170.3333333333333
 21
288.0
 31
0.0
100
AcDbText
1001
AcDbBlockRepETag
1070
     1
1071
       42
1005
30E
  0
TEXT
  5
30F
330
AB
100
AcDbEntity
  8
0
100
AcDbText
 10
13.9471116457535
 20
28.41666666666668
 30
0.0
 40
3.0
  1
F
  7
Roman
 72
     1
 11
15.4471116457535
 21
28.41666666666668
 31
0.0
100
AcDbText
1001
AcDbBlockRepETag
1070
     1
1071
       43
1005
30F
  0
TEXT
  5
310
330
AB
100
AcDbEntity
  8
0
100
AcDbText
 10
13.9471116457535
 20
75.91666666666668
 30
0.0
 40
3.0
  1
E
  7
Roman
 72
     1
 11
15.4471116457535
 21
75.91666666666668
 31
0.0
100
AcDbText
1001
AcDbBlockRepETag
1070
     1
1071
       44
1005
310
  0
LINE
  5
311
330
AB
100
AcDbEntity
  8
0
100
AcDbLine
 10
192.4978723404242
 20
19.0
 30
0.0
 11
75.49787234042418
 21
19.0
 31
0.0
1001
AcDbBlockRepETag
1070
     1
1071
      166
1005
311
  0
LINE
  5
312
330
AB
100
AcDbEntity
  8
0
100
AcDbLine
 10
115.4978723404242
 20
28.0
 30
0.0
 11
75.49787234042418
 21
28.0
 31
0.0
1001
AcDbBlockRepETag
1070
     1
1071
      168
1005
312
  0
LINE
  5
313
330
AB
100
AcDbEntity
  8
0
100
AcDbLine
 10
192.4978723404242
 20
37.0
 30
0.0
 11
75.49787234042418
 21
37.0
 31
0.0
1001
AcDbBlockRepETag
1070
     1
1071
      169
1005
313
  0
LINE
  5
314
330
AB
100
AcDbEntity
  8
0
100
AcDbLine
 10
192.4978723404242
 20
46.0
 30
0.0
 11
75.49787234042418
 21
46.0
 31
0.0
1001
AcDbBlockRepETag
1070
     1
1071
      170
1005
314
  0
MTEXT
  5
315
330
AB
100
AcDbEntity
  8
0
100
AcDbMText
 10
100.9978723404242
 20
14.5
 30
0.0
 40
4.0
 41
51.0
 71
     5
 72
     5
  1
富国石油株式会社
 73
     1
 44
1.0
1001
AcDbBlockRepETag
1070
     1
1071
      171
1005
315
1001
ACAD
1000
MTEXTBEGIN
1070
    73
1070
     1
1070
    44
1040
1.0
1070
    74
1070
     0
1000
MTEXTEND
  0
MTEXT
  5
316
102
{ACAD_XDICTIONARY
360
16493
102
}
330
AB
100
AcDbEntity
  8
0
100
AcDbMText
 10
78.47796344079569
 20
23.5
 30
0.0
 40
2.0
 41
3.96018220074299
 71
     5
 72
     5
  1
検\P図
 73
     1
 44
1.0
1001
AcDbBlockRepETag
1070
     1
1071
      172
1005
316
1001
ACAD
1000
MTEXTBEGIN
1070
    73
1070
     1
1070
    44
1040
1.0
1070
    74
1070
     0
1000
MTEXTEND
1000
ACAD_MTEXT_DEFINED_HEIGHT_BEGIN
1070
    46
1040
9.0
1000
ACAD_MTEXT_DEFINED_HEIGHT_END
  0
MTEXT
  5
317
330
AB
100
AcDbEntity
  8
0
100
AcDbMText
 10
78.47796344079569
 20
32.5
 30
0.0
 40
2.0
 41
3.96018220074299
 71
     5
 72
     5
  1
確\P認
 73
     1
 44
1.0
1001
AcDbBlockRepETag
1070
     1
1071
      173
1005
317
1001
ACAD
1000
MTEXTBEGIN
1070
    73
1070
     1
1070
    44
1040
1.0
1070
    74
1070
     0
1000
MTEXTEND
1000
ACAD_MTEXT_DEFINED_HEIGHT_BEGIN
1070
    46
1040
9.0
1000
ACAD_MTEXT_DEFINED_HEIGHT_END
  0
MTEXT
  5
318
330
AB
100
AcDbEntity
  8
0
100
AcDbMText
 10
78.47796344079569
 20
41.5
 30
0.0
 40
2.0
 41
3.96018220074299
 71
     5
 72
     5
  1
縮\P尺
 73
     1
 44
1.0
1001
AcDbBlockRepETag
1070
     1
1071
      174
1005
318
1001
ACAD
1000
MTEXTBEGIN
1070
    73
1070
     1
1070
    44
1040
1.0
1070
    74
1070
     0
1000
MTEXTEND
1000
ACAD_MTEXT_DEFINED_HEIGHT_BEGIN
1070
    46
1040
9.0
1000
ACAD_MTEXT_DEFINED_HEIGHT_END
  0
LINE
  5
319
330
AB
100
AcDbEntity
  8
0
100
AcDbLine
 10
95.49787234042415
 20
19.0
 30
0.0
 11
95.49787234042415
 21
46.0
 31
0.0
1001
AcDbBlockRepETag
1070
     1
1071
      175
1005
319
  0
LINE
  5
31A
330
AB
100
AcDbEntity
  8
0
100
AcDbLine
 10
115.4978723404242
 20
19.0
 30
0.0
 11
115.4978723404242
 21
46.0
 31
0.0
1001
AcDbBlockRepETag
1070
     1
1071
      176
1005
31A
  0
LINE
  5
31B
330
AB
100
AcDbEntity
  8
0
100
AcDbLine
 10
147.4978723404241
 20
37.0
 30
0.0
 11
147.4978723404241
 21
46.0
 31
0.0
1001
AcDbBlockRepETag
1070
     1
1071
      194
1005
31B
  0
MTEXT
  5
31C
330
AB
100
AcDbEntity
  8
0
100
AcDbMText
 10
98.47796344079569
 20
32.5
 30
0.0
 40
2.0
 41
3.96018220074299
 71
     5
 72
     5
  1
設\P計
 73
     1
 44
1.0
1001
AcDbBlockRepETag
1070
     1
1071
      177
1005
31C
1001
ACAD
1000
MTEXTBEGIN
1070
    73
1070
     1
1070
    44
1040
1.0
1070
    74
1070
     0
1000
MTEXTEND
1000
ACAD_MTEXT_DEFINED_HEIGHT_BEGIN
1070
    46
1040
9.0
1000
ACAD_MTEXT_DEFINED_HEIGHT_END
  0
MTEXT
  5
31D
330
AB
100
AcDbEntity
  8
0
100
AcDbMText
 10
98.47796344079569
 20
23.5
 30
0.0
 40
2.0
 41
3.96018220074299
 71
     5
 72
     5
  1
製\P図
 73
     1
 44
1.0
1001
AcDbBlockRepETag
1070
     1
1071
      178
1005
31D
1001
ACAD
1000
MTEXTBEGIN
1070
    73
1070
     1
1070
    44
1040
1.0
1070
    74
1070
     0
1000
MTEXTEND
1000
ACAD_MTEXT_DEFINED_HEIGHT_BEGIN
1070
    46
1040
9.0
1000
ACAD_MTEXT_DEFINED_HEIGHT_END
  0
MTEXT
  5
31E
330
AB
100
AcDbEntity
  8
0
100
AcDbMText
 10
118.4779634407957
 20
41.5
 30
0.0
 40
2.0
 41
3.96018220074299
 71
     5
 72
     5
  1
材\P料
 73
     1
 44
1.0
1001
AcDbBlockRepETag
1070
     1
1071
      179
1005
31E
1001
ACAD
1000
MTEXTBEGIN
1070
    73
1070
     1
1070
    44
1040
1.0
1070
    74
1070
     0
1000
MTEXTEND
1000
ACAD_MTEXT_DEFINED_HEIGHT_BEGIN
1070
    46
1040
9.0
1000
ACAD_MTEXT_DEFINED_HEIGHT_END
  0
LINE
  5
31F
330
AB
100
AcDbEntity
  8
0
  6
HIDDEN2
 48
0.5
100
AcDbLine
 10
192.4978723404242
 20
32.5
 30
0.0
 11
115.4978723404242
 21
32.5
 31
0.0
1001
AcDbBlockRepETag
1070
     1
1071
      180
1005
31F
  0
POINT
  5
320
330
AB
100
AcDbEntity
  8
0
100
AcDbPoint
 10
101.2478723404242
 20
37.0
 30
0.0
1001
AcDbBlockRepETag
1070
     1
1071
      189
1005
320
  0
POINT
  5
321
330
AB
100
AcDbEntity
  8
0
100
AcDbPoint
 10
101.2478723404242
 20
28.0
 30
0.0
1001
AcDbBlockRepETag
1070
     1
1071
      190
1005
321
  0
MTEXT
  5
322
330
AB
100
AcDbEntity
  8
0
100
AcDbMText
 10
108.3728723404242
 20
23.5
 30
0.0
 40
3.0
 41
14.25
 71
     5
 72
     5
  1
齊藤
 73
     1
 44
1.0
1001
AcDbBlockRepETag
1070
     1
1071
      192
1005
322
1001
ACAD
1000
MTEXTBEGIN
1070
    73
1070
     1
1070
    44
1040
1.0
1070
    74
1070
     0
1000
MTEXTEND
1000
ACAD_MTEXT_DEFINED_HEIGHT_BEGIN
1070
    46
1040
9.0
1000
ACAD_MTEXT_DEFINED_HEIGHT_END
  0
TEXT
  5
323
330
AB
100
AcDbEntity
  8
0
100
AcDbText
 10
38.45238095238097
 20
6.230338100985591
 30
0.0
 40
3.0
  1
1
  7
Roman
 72
     1
 11
39.66666666666668
 21
6.230338100985591
 31
0.0
100
AcDbText
1001
AcDbBlockRepETag
1070
     1
1071
       45
1005
323
  0
TEXT
  5
324
330
AB
100
AcDbEntity
  8
0
100
AcDbText
 10
81.90476190476188
 20
6.230338100985591
 30
0.0
 40
3.0
  1
2
  7
Roman
 72
     1
 11
83.33333333333332
 21
6.230338100985591
 31
0.0
100
AcDbText
1001
AcDbBlockRepETag
1070
     1
1071
       46
1005
324
  0
TEXT
  5
325
330
AB
100
AcDbEntity
  8
0
100
AcDbText
 10
125.5714285714286
 20
6.230338100985591
 30
0.0
 40
3.0
  1
3
  7
Roman
 72
     1
 11
127.0
 21
6.230338100985591
 31
0.0
100
AcDbText
1001
AcDbBlockRepETag
1070
     1
1071
       47
1005
325
  0
TEXT
  5
326
330
AB
100
AcDbEntity
  8
0
100
AcDbText
 10
169.1666666666667
 20
6.230338100985591
 30
0.0
 40
3.0
  1
4
  7
Roman
 72
     1
 11
170.6666666666667
 21
6.230338100985591
 31
0.0
100
AcDbText
1001
AcDbBlockRepETag
1070
     1
1071
       48
1005
326
  0
TEXT
  5
327
330
AB
100
AcDbEntity
  8
0
100
AcDbText
 10
193.2387724536951
 20
33.75
 30
0.0
 40
3.0
  1
F
  7
Roman
 72
     1
 11
194.7387724536952
 21
33.75
 31
0.0
100
AcDbText
1001
AcDbBlockRepETag
1070
     1
1071
       49
1005
327
  0
TEXT
  5
328
330
AB
100
AcDbEntity
  8
0
100
AcDbText
 10
193.2387724536951
 20
81.25
 30
0.0
 40
3.0
  1
E
  7
Roman
 72
     1
 11
194.7387724536952
 21
81.25
 31
0.0
100
AcDbText
1001
AcDbBlockRepETag
1070
     1
1071
       50
1005
328
  0
TEXT
  5
329
330
AB
100
AcDbEntity
  8
0
100
AcDbText
 10
193.1673438822666
 20
221.0833333333333
 30
0.0
 40
3.0
  1
B
  7
Roman
 72
     1
 11
194.7387724536952
 21
221.0833333333333
 31
0.0
100
AcDbText
1001
AcDbBlockRepETag
1070
     1
1071
       51
1005
329
  0
TEXT
  5
32A
330
AB
100
AcDbEntity
  8
0
100
AcDbText
 10
193.4530581679809
 20
268.5833333333333
 30
0.0
 40
3.0
  1
A
  7
Roman
 72
     1
 11
194.7387724536952
 21
268.5833333333333
 31
0.0
100
AcDbText
1001
AcDbBlockRepETag
1070
     1
1071
       52
1005
32A
  0
LINE
  5
32B
330
AB
100
AcDbEntity
  8
0
100
AcDbLine
 10
75.49787234042418
 20
10.0
 30
0.0
 11
75.49787234042418
 21
46.0
 31
0.0
1001
AcDbBlockRepETag
1070
     1
1071
      162
1005
32B
  0
LINE
  5
32C
330
AB
100
AcDbEntity
  8
0
100
AcDbLine
 10
126.4978723404242
 20
10.0
 30
0.0
 11
126.4978723404242
 21
19.0
 31
0.0
1001
AcDbBlockRepETag
1070
     1
1071
      167
1005
32C
  0
TEXT
  5
32D
330
AB
100
AcDbEntity
  8
0
100
AcDbText
 10
193.1673438822666
 20
126.0833333333333
 30
0.0
 40
3.0
  1
D
  7
Roman
 72
     1
 11
194.7387724536952
 21
126.0833333333333
 31
0.0
100
AcDbText
1001
AcDbBlockRepETag
1070
     1
1071
       54
1005
32D
  0
TEXT
  5
32E
330
AB
100
AcDbEntity
  8
0
100
AcDbText
 10
193.2387724536951
 20
173.5833333333333
 30
0.0
 40
3.0
  1
C
  7
Roman
 72
     1
 11
194.7387724536952
 21
173.5833333333333
 31
0.0
100
AcDbText
1001
AcDbBlockRepETag
1070
     1
1071
       53
1005
32E
  0
ENDBLK
  5
117
330
AB
100
AcDbEntity
  8
0
100
AcDbBlockEnd
  0
BLOCK
  5
340
330
33F
100
AcDbEntity
  8
0
100
AcDbBlockBegin
  2
_Open30
 70
     0
 10
0.0
 20
0.0
 30
0.0
  3
_Open30
  1

  0
LINE
  5
341
330
33F
100
AcDbEntity
  8
0
  6
ByBlock
 62
     0
370
    -2
100
AcDbLine
 10
-1.0
 20
0.26794919
 30
0.0
 11
0.0
 21
0.0
 31
0.0
  0
LINE
  5
342
330
33F
100
AcDbEntity
  8
0
  6
ByBlock
 62
     0
370
    -2
100
AcDbLine
 10
0.0
 20
0.0
 30
0.0
 11
-1.0
 21
-0.26794919
 31
0.0
  0
LINE
  5
343
330
33F
100
AcDbEntity
  8
0
  6
ByBlock
 62
     0
370
    -2
100
AcDbLine
 10
0.0
 20
0.0
 30
0.0
 11
-1.0
 21
0.0
 31
0.0
  0
ENDBLK
  5
344
330
33F
100
AcDbEntity
  8
0
100
AcDbBlockEnd
  0
BLOCK
  5
4EA
330
4E7
100
AcDbEntity
  8
0
100
AcDbBlockBegin
  2
JIS A3 title block
 70
     2
 10
0.0
 20
0.0
 30
0.0
  3
JIS A3 title block
  1

  4
JIS A3 title block and attributes
  0
LINE
  5
4EB
330
4E7
100
AcDbEntity
  8
0
100
AcDbLine
 10
402.5
 20
10.0
 30
0.0
 11
17.49999999999999
 21
10.0
 31
0.0
1001
AcDbBlockRepETag
1070
     1
1071
        0
1005
4EB
  0
LINE
  5
4EC
330
4E7
100
AcDbEntity
  8
0
100
AcDbLine
 10
17.5
 20
287.0
 30
0.0
 11
402.5
 21
287.0
 31
0.0
1001
AcDbBlockRepETag
1070
     1
1071
        1
1005
4EC
  0
LINE
  5
4ED
330
4E7
100
AcDbEntity
  8
0
100
AcDbLine
 10
25.0
 20
0.0
 30
0.0
 11
0.0
 21
0.0
 31
0.0
1001
AcDbBlockRepETag
1070
     1
1071
        3
1005
4ED
  0
LINE
  5
4EE
330
4E7
100
AcDbEntity
  8
0
100
AcDbLine
 10
0.0
 20
0.0
 30
0.0
 11
0.0
 21
10.0
 31
0.0
1001
AcDbBlockRepETag
1070
     1
1071
        4
1005
4EE
  0
LINE
  5
4EF
330
4E7
100
AcDbEntity
  8
0
100
AcDbLine
 10
65.625
 20
10.0
 30
0.0
 11
65.625
 21
5.0
 31
0.0
1001
AcDbBlockRepETag
1070
     1
1071
        5
1005
4EF
  0
TEXT
  5
4F0
330
4E7
100
AcDbEntity
  8
0
100
AcDbText
 10
40.34821428571429
 20
6.019997240728746
 30
0.0
 40
3.0
  1
1
  7
Roman
 72
     1
 11
41.5625
 21
6.019997240728746
 31
0.0
100
AcDbText
1001
AcDbBlockRepETag
1070
     1
1071
        6
1005
4F0
  0
ATTDEF
  5
4F1
330
4E7
100
AcDbEntity
  8
0
 62
     0
380
     1
100
AcDbText
 10
11.49999999999999
 20
10.0
 30
0.0
 40
3.0
  1

 50
90.0
  7
Roman
100
AcDbAttributeDefinition
  3
Author:
  2
USER
 70
     8
1001
AcDbBlockRepETag
1070
     1
1071
        7
1005
0
  0
TEXT
  5
4F2
330
4E7
100
AcDbEntity
  8
0
100
AcDbText
 10
13.60716135953388
 20
33.08333333333334
 30
0.0
 40
3.0
  1
F
  7
Roman
 72
     1
 11
15.10716135953388
 21
33.08333333333334
 31
0.0
100
AcDbText
1001
AcDbBlockRepETag
1070
     1
1071
        8
1005
4F2
  0
LINE
  5
4F3
330
4E7
100
AcDbEntity
  8
0
100
AcDbLine
 10
17.49999999999999
 20
148.5
 30
0.0
 11
0.0
 21
148.5
 31
0.0
1001
AcDbBlockRepETag
1070
     1
1071
        9
1005
4F3
  0
ATTDEF
  5
4F4
330
4E7
100
AcDbEntity
  8
0
 62
     0
380
     1
100
AcDbText
 10
11.49999999999999
 20
70.0
 30
0.0
 40
3.0
  1

 50
90.0
  7
Roman
100
AcDbAttributeDefinition
  3
Revision date:
  2
REVDATE
 70
     8
1001
AcDbBlockRepETag
1070
     1
1071
       10
1005
0
  0
LINE
  5
4F5
330
4E7
100
AcDbEntity
  8
0
100
AcDbLine
 10
17.49999999999999
 20
56.16666666666667
 30
0.0
 11
12.49999999999999
 21
56.16666666666667
 31
0.0
1001
AcDbBlockRepETag
1070
     1
1071
       11
1005
4F5
  0
TEXT
  5
4F6
330
4E7
100
AcDbEntity
  8
0
100
AcDbText
 10
13.60716135953388
 20
79.25
 30
0.0
 40
3.0
  1
E
  7
Roman
 72
     1
 11
15.10716135953388
 21
79.25
 31
0.0
100
AcDbText
1001
AcDbBlockRepETag
1070
     1
1071
       12
1005
4F6
  0
ATTDEF
  5
4F7
330
4E7
100
AcDbEntity
  8
0
 62
     0
380
     1
100
AcDbText
 10
11.49999999999999
 20
118.0
 30
0.0
 40
3.0
  1

 50
90.0
  7
Roman
100
AcDbAttributeDefinition
  3
File name:
  2
FNAME
 70
     8
1001
AcDbBlockRepETag
1070
     1
1071
       13
1005
0
  0
LINE
  5
4F8
330
4E7
100
AcDbEntity
  8
0
100
AcDbLine
 10
17.49999999999999
 20
102.3333333333333
 30
0.0
 11
12.49999999999999
 21
102.3333333333333
 31
0.0
1001
AcDbBlockRepETag
1070
     1
1071
       14
1005
4F8
  0
TEXT
  5
4F9
330
4E7
100
AcDbEntity
  8
0
100
AcDbText
 10
13.53573278810531
 20
125.4166666666666
 30
0.0
 40
3.0
  1
D
  7
Roman
 72
     1
 11
15.10716135953388
 21
125.4166666666666
 31
0.0
100
AcDbText
1001
AcDbBlockRepETag
1070
     1
1071
       15
1005
4F9
  0
LINE
  5
4FA
330
4E7
100
AcDbEntity
  8
0
100
AcDbLine
 10
17.49999999999999
 20
148.5
 30
0.0
 11
12.49999999999999
 21
148.5
 31
0.0
1001
AcDbBlockRepETag
1070
     1
1071
       16
1005
4FA
  0
TEXT
  5
4FB
330
4E7
100
AcDbEntity
  8
0
100
AcDbText
 10
136.3839285714286
 20
6.019997240728746
 30
0.0
 40
3.0
  1
3
  7
Roman
 72
     1
 11
137.8125
 21
6.019997240728746
 31
0.0
100
AcDbText
1001
AcDbBlockRepETag
1070
     1
1071
       17
1005
4FB
  0
LINE
  5
4FC
330
4E7
100
AcDbEntity
  8
0
100
AcDbLine
 10
113.75
 20
10.0
 30
0.0
 11
113.75
 21
5.0
 31
0.0
1001
AcDbBlockRepETag
1070
     1
1071
       18
1005
4FC
  0
TEXT
  5
4FD
330
4E7
100
AcDbEntity
  8
0
100
AcDbText
 10
88.25892857142857
 20
6.019997240728746
 30
0.0
 40
3.0
  1
2
  7
Roman
 72
     1
 11
89.6875
 21
6.019997240728746
 31
0.0
100
AcDbText
1001
AcDbBlockRepETag
1070
     1
1071
       19
1005
4FD
  0
LINE
  5
4FE
330
4E7
100
AcDbEntity
  8
0
100
AcDbLine
 10
161.875
 20
10.0
 30
0.0
 11
161.875
 21
5.0
 31
0.0
1001
AcDbBlockRepETag
1070
     1
1071
       20
1005
4FE
  0
TEXT
  5
4FF
330
4E7
100
AcDbEntity
  8
0
100
AcDbText
 10
184.4375
 20
6.019997240728746
 30
0.0
 40
3.0
  1
4
  7
Roman
 72
     1
 11
185.9375
 21
6.019997240728746
 31
0.0
100
AcDbText
1001
AcDbBlockRepETag
1070
     1
1071
       21
1005
4FF
  0
TEXT
  5
500
330
4E7
100
AcDbEntity
  8
0
100
AcDbText
 10
13.60716135953388
 20
171.5833333333333
 30
0.0
 40
3.0
  1
C
  7
Roman
 72
     1
 11
15.10716135953388
 21
171.5833333333333
 31
0.0
100
AcDbText
1001
AcDbBlockRepETag
1070
     1
1071
       22
1005
500
  0
LINE
  5
501
330
4E7
100
AcDbEntity
  8
0
100
AcDbLine
 10
17.49999999999999
 20
194.6666666666666
 30
0.0
 11
12.49999999999999
 21
194.6666666666666
 31
0.0
1001
AcDbBlockRepETag
1070
     1
1071
       23
1005
501
  0
TEXT
  5
502
330
4E7
100
AcDbEntity
  8
0
100
AcDbText
 10
13.53573278810531
 20
217.75
 30
0.0
 40
3.0
  1
B
  7
Roman
 72
     1
 11
15.10716135953388
 21
217.75
 31
0.0
100
AcDbText
1001
AcDbBlockRepETag
1070
     1
1071
       24
1005
502
  0
LINE
  5
503
330
4E7
100
AcDbEntity
  8
0
100
AcDbLine
 10
17.49999999999999
 20
240.8333333333333
 30
0.0
 11
12.49999999999999
 21
240.8333333333333
 31
0.0
1001
AcDbBlockRepETag
1070
     1
1071
       25
1005
503
  0
LINE
  5
504
330
4E7
100
AcDbEntity
  8
0
100
AcDbLine
 10
0.0
 20
297.0
 30
0.0
 11
25.0
 21
297.0
 31
0.0
1001
AcDbBlockRepETag
1070
     1
1071
       26
1005
504
  0
LINE
  5
505
330
4E7
100
AcDbEntity
  8
0
100
AcDbLine
 10
0.0
 20
287.0
 30
0.0
 11
0.0
 21
297.0
 31
0.0
1001
AcDbBlockRepETag
1070
     1
1071
       27
1005
505
  0
LINE
  5
506
330
4E7
100
AcDbEntity
  8
0
100
AcDbLine
 10
65.625
 20
287.0
 30
0.0
 11
65.625
 21
292.0
 31
0.0
1001
AcDbBlockRepETag
1070
     1
1071
       28
1005
506
  0
TEXT
  5
507
330
4E7
100
AcDbEntity
  8
0
100
AcDbText
 10
13.82144707381959
 20
263.9166666666666
 30
0.0
 40
3.0
  1
A
  7
Roman
 72
     1
 11
15.10716135953388
 21
263.9166666666666
 31
0.0
100
AcDbText
1001
AcDbBlockRepETag
1070
     1
1071
       29
1005
507
  0
TEXT
  5
508
330
4E7
100
AcDbEntity
  8
0
100
AcDbText
 10
40.34821428571429
 20
288.0
 30
0.0
 40
3.0
  1
1
  7
Roman
 72
     1
 11
41.5625
 21
288.0
 31
0.0
100
AcDbText
1001
AcDbBlockRepETag
1070
     1
1071
       30
1005
508
  0
TEXT
  5
509
330
4E7
100
AcDbEntity
  8
0
100
AcDbText
 10
136.3839285714286
 20
288.0
 30
0.0
 40
3.0
  1
3
  7
Roman
 72
     1
 11
137.8125
 21
288.0
 31
0.0
100
AcDbText
1001
AcDbBlockRepETag
1070
     1
1071
       31
1005
509
  0
LINE
  5
50A
330
4E7
100
AcDbEntity
  8
0
100
AcDbLine
 10
113.75
 20
287.0
 30
0.0
 11
113.75
 21
292.0
 31
0.0
1001
AcDbBlockRepETag
1070
     1
1071
       32
1005
50A
  0
TEXT
  5
50B
330
4E7
100
AcDbEntity
  8
0
100
AcDbText
 10
88.25892857142857
 20
288.0
 30
0.0
 40
3.0
  1
2
  7
Roman
 72
     1
 11
89.6875
 21
288.0
 31
0.0
100
AcDbText
1001
AcDbBlockRepETag
1070
     1
1071
       33
1005
50B
  0
LINE
  5
50C
330
4E7
100
AcDbEntity
  8
0
100
AcDbLine
 10
161.875
 20
287.0
 30
0.0
 11
161.875
 21
292.0
 31
0.0
1001
AcDbBlockRepETag
1070
     1
1071
       34
1005
50C
  0
TEXT
  5
50D
330
4E7
100
AcDbEntity
  8
0
100
AcDbText
 10
184.4375
 20
288.0
 30
0.0
 40
3.0
  1
4
  7
Roman
 72
     1
 11
185.9375
 21
288.0
 31
0.0
100
AcDbText
1001
AcDbBlockRepETag
1070
     1
1071
       35
1005
50D
  0
LINE
  5
50E
330
4E7
100
AcDbEntity
  8
0
100
AcDbLine
 10
402.5
 20
287.0
 30
0.0
 11
402.5
 21
10.0
 31
0.0
1001
AcDbBlockRepETag
1070
     1
1071
       36
1005
50E
  0
LINE
  5
50F
330
4E7
100
AcDbEntity
  8
0
100
AcDbLine
 10
210.0
 20
10.0
 30
0.0
 11
210.0
 21
0.0
 31
0.0
1001
AcDbBlockRepETag
1070
     1
1071
       37
1005
50F
  0
LINE
  5
510
330
4E7
100
AcDbEntity
  8
0
100
AcDbLine
 10
258.125
 20
10.0
 30
0.0
 11
258.125
 21
5.0
 31
0.0
1001
AcDbBlockRepETag
1070
     1
1071
       39
1005
510
  0
TEXT
  5
511
330
4E7
100
AcDbEntity
  8
0
100
AcDbText
 10
232.6339285714286
 20
6.019997240728746
 30
0.0
 40
3.0
  1
5
  7
Roman
 72
     1
 11
234.0625
 21
6.019997240728746
 31
0.0
100
AcDbText
1001
AcDbBlockRepETag
1070
     1
1071
       40
1005
511
  0
LINE
  5
512
330
4E7
100
AcDbEntity
  8
0
100
AcDbLine
 10
306.25
 20
10.0
 30
0.0
 11
306.25
 21
5.0
 31
0.0
1001
AcDbBlockRepETag
1070
     1
1071
       41
1005
512
  0
TEXT
  5
513
330
4E7
100
AcDbEntity
  8
0
100
AcDbText
 10
280.6875
 20
6.019997240728746
 30
0.0
 40
3.0
  1
6
  7
Roman
 72
     1
 11
282.1875
 21
6.019997240728746
 31
0.0
100
AcDbText
1001
AcDbBlockRepETag
1070
     1
1071
       42
1005
513
  0
TEXT
  5
514
330
4E7
100
AcDbEntity
  8
0
100
AcDbText
 10
328.8839285714285
 20
6.019997240728746
 30
0.0
 40
3.0
  1
7
  7
Roman
 72
     1
 11
330.3125
 21
6.019997240728746
 31
0.0
100
AcDbText
1001
AcDbBlockRepETag
1070
     1
1071
       43
1005
514
  0
LINE
  5
515
330
4E7
100
AcDbEntity
  8
0
100
AcDbLine
 10
354.375
 20
10.0
 30
0.0
 11
354.375
 21
5.0
 31
0.0
1001
AcDbBlockRepETag
1070
     1
1071
       44
1005
515
  0
TEXT
  5
516
330
4E7
100
AcDbEntity
  8
0
100
AcDbText
 10
377.0089285714286
 20
6.019997240728746
 30
0.0
 40
3.0
  1
8
  7
Roman
 72
     1
 11
378.4375
 21
6.019997240728746
 31
0.0
100
AcDbText
1001
AcDbBlockRepETag
1070
     1
1071
       45
1005
516
  0
LINE
  5
517
330
4E7
100
AcDbEntity
  8
0
100
AcDbLine
 10
420.0
 20
10.0
 30
0.0
 11
420.0
 21
0.0
 31
0.0
1001
AcDbBlockRepETag
1070
     1
1071
       46
1005
517
  0
LINE
  5
518
330
4E7
100
AcDbEntity
  8
0
100
AcDbLine
 10
420.0
 20
0.0
 30
0.0
 11
410.0
 21
0.0
 31
0.0
1001
AcDbBlockRepETag
1070
     1
1071
       47
1005
518
  0
LINE
  5
519
330
4E7
100
AcDbEntity
  8
0
 62
     0
380
     1
100
AcDbLine
 10
402.5
 20
49.00000000000036
 30
0.0
 11
402.5
 21
10.0
 31
0.0
1001
AcDbBlockRepETag
1070
     1
1071
       48
1005
519
  0
LINE
  5
51A
330
4E7
100
AcDbEntity
  8
0
 62
     0
380
     1
100
AcDbLine
 10
402.5
 20
10.0
 30
0.0
 11
402.5
 21
49.00000000000036
 31
0.0
1001
AcDbBlockRepETag
1070
     1
1071
       49
1005
51A
  0
TEXT
  5
51B
330
4E7
100
AcDbEntity
  8
0
100
AcDbText
 10
403.8708251683468
 20
33.08333333333334
 30
0.0
 40
3.0
  1
F
  7
Roman
 72
     1
 11
405.3708251683468
 21
33.08333333333334
 31
0.0
100
AcDbText
1001
AcDbBlockRepETag
1070
     1
1071
       50
1005
51B
  0
LINE
  5
51C
330
4E7
100
AcDbEntity
  8
0
100
AcDbLine
 10
402.5
 20
56.16666666666668
 30
0.0
 11
407.5
 21
56.16666666666668
 31
0.0
1001
AcDbBlockRepETag
1070
     1
1071
       51
1005
51C
  0
TEXT
  5
51D
330
4E7
100
AcDbEntity
  8
0
100
AcDbText
 10
403.8708251683468
 20
79.25
 30
0.0
 40
3.0
  1
E
  7
Roman
 72
     1
 11
405.3708251683468
 21
79.25
 31
0.0
100
AcDbText
1001
AcDbBlockRepETag
1070
     1
1071
       52
1005
51D
  0
LINE
  5
51E
330
4E7
100
AcDbEntity
  8
0
100
AcDbLine
 10
402.5
 20
102.3333333333333
 30
0.0
 11
407.5
 21
102.3333333333333
 31
0.0
1001
AcDbBlockRepETag
1070
     1
1071
       53
1005
51E
  0
TEXT
  5
51F
330
4E7
100
AcDbEntity
  8
0
100
AcDbText
 10
403.7993965969183
 20
125.4166666666666
 30
0.0
 40
3.0
  1
D
  7
Roman
 72
     1
 11
405.3708251683468
 21
125.4166666666666
 31
0.0
100
AcDbText
1001
AcDbBlockRepETag
1070
     1
1071
       54
1005
51F
  0
LINE
  5
520
330
4E7
100
AcDbEntity
  8
0
100
AcDbLine
 10
402.5
 20
148.5
 30
0.0
 11
420.0
 21
148.5
 31
0.0
1001
AcDbBlockRepETag
1070
     1
1071
       56
1005
520
  0
LINE
  5
521
330
4E7
100
AcDbEntity
  8
0
100
AcDbLine
 10
210.0
 20
287.0
 30
0.0
 11
210.0
 21
297.0
 31
0.0
1001
AcDbBlockRepETag
1070
     1
1071
       57
1005
521
  0
LINE
  5
522
330
4E7
100
AcDbEntity
  8
0
100
AcDbLine
 10
258.125
 20
287.0
 30
0.0
 11
258.125
 21
292.0
 31
0.0
1001
AcDbBlockRepETag
1070
     1
1071
       58
1005
522
  0
LINE
  5
523
330
4E7
100
AcDbEntity
  8
0
100
AcDbLine
 10
210.0
 20
287.0
 30
0.0
 11
210.0
 21
292.0
 31
0.0
1001
AcDbBlockRepETag
1070
     1
1071
       59
1005
523
  0
TEXT
  5
524
330
4E7
100
AcDbEntity
  8
0
100
AcDbText
 10
232.6339285714286
 20
288.0
 30
0.0
 40
3.0
  1
5
  7
Roman
 72
     1
 11
234.0625
 21
288.0
 31
0.0
100
AcDbText
1001
AcDbBlockRepETag
1070
     1
1071
       60
1005
524
  0
LINE
  5
525
330
4E7
100
AcDbEntity
  8
0
100
AcDbLine
 10
306.25
 20
287.0
 30
0.0
 11
306.25
 21
292.0
 31
0.0
1001
AcDbBlockRepETag
1070
     1
1071
       61
1005
525
  0
TEXT
  5
526
330
4E7
100
AcDbEntity
  8
0
100
AcDbText
 10
280.6875
 20
288.0
 30
0.0
 40
3.0
  1
6
  7
Roman
 72
     1
 11
282.1875
 21
288.0
 31
0.0
100
AcDbText
1001
AcDbBlockRepETag
1070
     1
1071
       62
1005
526
  0
TEXT
  5
527
330
4E7
100
AcDbEntity
  8
0
100
AcDbText
 10
328.8839285714285
 20
288.0
 30
0.0
 40
3.0
  1
7
  7
Roman
 72
     1
 11
330.3125
 21
288.0
 31
0.0
100
AcDbText
1001
AcDbBlockRepETag
1070
     1
1071
       63
1005
527
  0
TEXT
  5
528
330
4E7
100
AcDbEntity
  8
0
100
AcDbText
 10
403.8708251683468
 20
171.5833333333333
 30
0.0
 40
3.0
  1
C
  7
Roman
 72
     1
 11
405.3708251683468
 21
171.5833333333333
 31
0.0
100
AcDbText
1001
AcDbBlockRepETag
1070
     1
1071
       64
1005
528
  0
LINE
  5
529
330
4E7
100
AcDbEntity
  8
0
100
AcDbLine
 10
402.5
 20
194.6666666666667
 30
0.0
 11
407.5
 21
194.6666666666667
 31
0.0
1001
AcDbBlockRepETag
1070
     1
1071
       65
1005
529
  0
TEXT
  5
52A
330
4E7
100
AcDbEntity
  8
0
100
AcDbText
 10
403.7993965969183
 20
217.75
 30
0.0
 40
3.0
  1
B
  7
Roman
 72
     1
 11
405.3708251683468
 21
217.75
 31
0.0
100
AcDbText
1001
AcDbBlockRepETag
1070
     1
1071
       66
1005
52A
  0
LINE
  5
52B
330
4E7
100
AcDbEntity
  8
0
100
AcDbLine
 10
402.5
 20
240.8333333333334
 30
0.0
 11
407.5
 21
240.8333333333334
 31
0.0
1001
AcDbBlockRepETag
1070
     1
1071
       67
1005
52B
  0
LINE
  5
52C
330
4E7
100
AcDbEntity
  8
0
100
AcDbLine
 10
354.375
 20
287.0
 30
0.0
 11
354.375
 21
292.0
 31
0.0
1001
AcDbBlockRepETag
1070
     1
1071
       68
1005
52C
  0
TEXT
  5
52D
330
4E7
100
AcDbEntity
  8
0
100
AcDbText
 10
377.0089285714286
 20
288.0
 30
0.0
 40
3.0
  1
8
  7
Roman
 72
     1
 11
378.4375
 21
288.0
 31
0.0
100
AcDbText
1001
AcDbBlockRepETag
1070
     1
1071
       69
1005
52D
  0
LINE
  5
52E
330
4E7
100
AcDbEntity
  8
0
100
AcDbLine
 10
420.0
 20
297.0
 30
0.0
 11
420.0
 21
287.0
 31
0.0
1001
AcDbBlockRepETag
1070
     1
1071
       70
1005
52E
  0
TEXT
  5
52F
330
4E7
100
AcDbEntity
  8
0
100
AcDbText
 10
404.0851108826325
 20
263.9166666666666
 30
0.0
 40
3.0
  1
A
  7
Roman
 72
     1
 11
405.3708251683468
 21
263.9166666666666
 31
0.0
100
AcDbText
1001
AcDbBlockRepETag
1070
     1
1071
       71
1005
52F
  0
LINE
  5
530
330
4E7
100
AcDbEntity
  8
0
100
AcDbLine
 10
410.0
 20
297.0
 30
0.0
 11
420.0
 21
297.0
 31
0.0
1001
AcDbBlockRepETag
1070
     1
1071
       72
1005
530
  0
LINE
  5
531
330
4E7
100
AcDbEntity
  8
0
100
AcDbLine
 10
286.4978723404242
 20
10.0
 30
0.0
 11
286.4978723404242
 21
10.0
 31
0.0
1001
AcDbBlockRepETag
1070
     1
1071
      161
1005
531
  0
LINE
  5
532
330
4E7
100
AcDbEntity
  8
0
100
AcDbLine
 10
285.4978723404242
 20
10.0
 30
0.0
 11
285.4978723404242
 21
46.0
 31
0.0
1001
AcDbBlockRepETag
1070
     1
1071
      162
1005
532
  0
LINE
  5
533
330
4E7
100
AcDbEntity
  8
0
100
AcDbLine
 10
402.4978723404242
 20
19.0
 30
0.0
 11
285.4978723404242
 21
19.0
 31
0.0
1001
AcDbBlockRepETag
1070
     1
1071
      166
1005
533
  0
LINE
  5
534
330
4E7
100
AcDbEntity
  8
0
100
AcDbLine
 10
336.4978723404242
 20
10.0
 30
0.0
 11
336.4978723404242
 21
19.0
 31
0.0
1001
AcDbBlockRepETag
1070
     1
1071
      167
1005
534
  0
LINE
  5
535
330
4E7
100
AcDbEntity
  8
0
100
AcDbLine
 10
325.4978723404242
 20
28.0
 30
0.0
 11
285.4978723404242
 21
28.0
 31
0.0
1001
AcDbBlockRepETag
1070
     1
1071
      168
1005
535
  0
LINE
  5
536
330
4E7
100
AcDbEntity
  8
0
100
AcDbLine
 10
402.4978723404242
 20
37.0
 30
0.0
 11
285.4978723404242
 21
37.0
 31
0.0
1001
AcDbBlockRepETag
1070
     1
1071
      169
1005
536
  0
LINE
  5
537
330
4E7
100
AcDbEntity
  8
0
100
AcDbLine
 10
402.4978723404242
 20
46.0
 30
0.0
 11
285.4978723404242
 21
46.0
 31
0.0
1001
AcDbBlockRepETag
1070
     1
1071
      170
1005
537
  0
MTEXT
  5
538
330
4E7
100
AcDbEntity
  8
0
100
AcDbMText
 10
310.9978723404242
 20
14.5
 30
0.0
 40
4.0
 41
51.0
 71
     5
 72
     5
  1
富国石油株式会社
 73
     1
 44
1.0
1001
AcDbBlockRepETag
1070
     1
1071
      171
1005
538
1001
ACAD
1000
MTEXTBEGIN
1070
    73
1070
     1
1070
    44
1040
1.0
1070
    74
1070
     0
1000
MTEXTEND
  0
MTEXT
  5
539
102
{ACAD_XDICTIONARY
360
16497
102
}
330
4E7
100
AcDbEntity
  8
0
100
AcDbMText
 10
288.4779634407957
 20
23.5
 30
0.0
 40
2.0
 41
3.96018220074299
 71
     5
 72
     5
  1
検\P図
 73
     1
 44
1.0
1001
AcDbBlockRepETag
1070
     1
1071
      172
1005
539
1001
ACAD
1000
MTEXTBEGIN
1070
    73
1070
     1
1070
    44
1040
1.0
1070
    74
1070
     0
1000
MTEXTEND
1000
ACAD_MTEXT_DEFINED_HEIGHT_BEGIN
1070
    46
1040
9.0
1000
ACAD_MTEXT_DEFINED_HEIGHT_END
  0
MTEXT
  5
53A
330
4E7
100
AcDbEntity
  8
0
100
AcDbMText
 10
288.4779634407957
 20
32.5
 30
0.0
 40
2.0
 41
3.96018220074299
 71
     5
 72
     5
  1
確\P認
 73
     1
 44
1.0
1001
AcDbBlockRepETag
1070
     1
1071
      173
1005
53A
1001
ACAD
1000
MTEXTBEGIN
1070
    73
1070
     1
1070
    44
1040
1.0
1070
    74
1070
     0
1000
MTEXTEND
1000
ACAD_MTEXT_DEFINED_HEIGHT_BEGIN
1070
    46
1040
9.0
1000
ACAD_MTEXT_DEFINED_HEIGHT_END
  0
MTEXT
  5
53B
330
4E7
100
AcDbEntity
  8
0
100
AcDbMText
 10
288.4779634407957
 20
41.5
 30
0.0
 40
2.0
 41
3.96018220074299
 71
     5
 72
     5
  1
縮\P尺
 73
     1
 44
1.0
1001
AcDbBlockRepETag
1070
     1
1071
      174
1005
53B
1001
ACAD
1000
MTEXTBEGIN
1070
    73
1070
     1
1070
    44
1040
1.0
1070
    74
1070
     0
1000
MTEXTEND
1000
ACAD_MTEXT_DEFINED_HEIGHT_BEGIN
1070
    46
1040
9.0
1000
ACAD_MTEXT_DEFINED_HEIGHT_END
  0
LINE
  5
53C
330
4E7
100
AcDbEntity
  8
0
100
AcDbLine
 10
305.4978723404242
 20
19.0
 30
0.0
 11
305.4978723404242
 21
46.0
 31
0.0
1001
AcDbBlockRepETag
1070
     1
1071
      175
1005
53C
  0
LINE
  5
53D
330
4E7
100
AcDbEntity
  8
0
100
AcDbLine
 10
325.4978723404242
 20
19.0
 30
0.0
 11
325.4978723404242
 21
46.0
 31
0.0
1001
AcDbBlockRepETag
1070
     1
1071
      176
1005
53D
  0
LINE
  5
53E
330
4E7
100
AcDbEntity
  8
0
100
AcDbLine
 10
357.4978723404242
 20
37.0
 30
0.0
 11
357.4978723404242
 21
46.0
 31
0.0
1001
AcDbBlockRepETag
1070
     1
1071
      194
1005
53E
  0
MTEXT
  5
53F
330
4E7
100
AcDbEntity
  8
0
100
AcDbMText
 10
308.4779634407957
 20
32.5
 30
0.0
 40
2.0
 41
3.96018220074299
 71
     5
 72
     5
  1
設\P計
 73
     1
 44
1.0
1001
AcDbBlockRepETag
1070
     1
1071
      177
1005
53F
1001
ACAD
1000
MTEXTBEGIN
1070
    73
1070
     1
1070
    44
1040
1.0
1070
    74
1070
     0
1000
MTEXTEND
1000
ACAD_MTEXT_DEFINED_HEIGHT_BEGIN
1070
    46
1040
9.0
1000
ACAD_MTEXT_DEFINED_HEIGHT_END
  0
MTEXT
  5
540
330
4E7
100
AcDbEntity
  8
0
100
AcDbMText
 10
308.4779634407957
 20
23.5
 30
0.0
 40
2.0
 41
3.96018220074299
 71
     5
 72
     5
  1
製\P図
 73
     1
 44
1.0
1001
AcDbBlockRepETag
1070
     1
1071
      178
1005
540
1001
ACAD
1000
MTEXTBEGIN
1070
    73
1070
     1
1070
    44
1040
1.0
1070
    74
1070
     0
1000
MTEXTEND
1000
ACAD_MTEXT_DEFINED_HEIGHT_BEGIN
1070
    46
1040
9.0
1000
ACAD_MTEXT_DEFINED_HEIGHT_END
  0
MTEXT
  5
541
330
4E7
100
AcDbEntity
  8
0
100
AcDbMText
 10
328.4779634407957
 20
41.5
 30
0.0
 40
2.0
 41
3.96018220074299
 71
     5
 72
     5
  1
材\P料
 73
     1
 44
1.0
1001
AcDbBlockRepETag
1070
     1
1071
      179
1005
541
1001
ACAD
1000
MTEXTBEGIN
1070
    73
1070
     1
1070
    44
1040
1.0
1070
    74
1070
     0
1000
MTEXTEND
1000
ACAD_MTEXT_DEFINED_HEIGHT_BEGIN
1070
    46
1040
9.0
1000
ACAD_MTEXT_DEFINED_HEIGHT_END
  0
LINE
  5
542
330
4E7
100
AcDbEntity
  8
0
  6
HIDDEN2
 48
0.5
100
AcDbLine
 10
402.4978723404242
 20
32.5
 30
0.0
 11
325.4978723404242
 21
32.5
 31
0.0
1001
AcDbBlockRepETag
1070
     1
1071
      180
1005
542
  0
POINT
  5
543
330
4E7
100
AcDbEntity
  8
0
100
AcDbPoint
 10
311.2478723404242
 20
37.0
 30
0.0
1001
AcDbBlockRepETag
1070
     1
1071
      189
1005
543
  0
POINT
  5
544
330
4E7
100
AcDbEntity
  8
0
100
AcDbPoint
 10
311.2478723404242
 20
28.0
 30
0.0
1001
AcDbBlockRepETag
1070
     1
1071
      190
1005
544
  0
LINE
  5
545
330
4E7
100
AcDbEntity
  8
0
100
AcDbLine
 10
17.5
 20
10.0
 30
0.0
 11
17.5
 21
287.0
 31
0.0
1001
AcDbBlockRepETag
1070
     1
1071
       74
1005
545
  0
ENDBLK
  5
546
330
4E7
100
AcDbEntity
  8
0
100
AcDbBlockEnd
  0
BLOCK
  5
6F0
330
6ED
100
AcDbEntity
  8
0
100
AcDbBlockBegin
  2
JIS A4 title block (landscape)
 70
     2
 10
0.0
 20
0.0
 30
0.0
  3
JIS A4 title block (landscape)
  1

  4
JIS A3 title block and attributes
  0
LINE
  5
92E
330
6ED
100
AcDbEntity
  8
0
100
AcDbLine
 10
0.0
 20
297.0
 30
0.0
 11
25.0
 21
297.0
 31
0.0
1001
AcDbBlockRepETag
1070
     1
1071
       26
1005
92E
  0
LINE
  5
92F
330
6ED
100
AcDbEntity
  8
0
100
AcDbLine
 10
0.0
 20
287.0
 30
0.0
 11
0.0
 21
297.0
 31
0.0
1001
AcDbBlockRepETag
1070
     1
1071
       27
1005
92F
  0
LINE
  5
989
330
6ED
100
AcDbEntity
  8
0
100
AcDbLine
 10
279.5
 20
97.0
 30
0.0
 11
17.5
 21
97.0
 31
0.0
1001
AcDbBlockRepETag
1070
     1
1071
        0
1005
989
  0
LINE
  5
98A
330
6ED
100
AcDbEntity
  8
0
100
AcDbLine
 10
17.5
 20
287.0
 30
0.0
 11
279.5
 21
287.0
 31
0.0
1001
AcDbBlockRepETag
1070
     1
1071
        1
1005
98A
  0
LINE
  5
98B
330
6ED
100
AcDbEntity
  8
0
100
AcDbLine
 10
17.5
 20
97.0
 30
0.0
 11
17.5
 21
287.0
 31
0.0
1001
AcDbBlockRepETag
1070
     1
1071
        2
1005
98B
  0
LINE
  5
98C
330
6ED
100
AcDbEntity
  8
0
100
AcDbLine
 10
25.0
 20
87.0
 30
0.0
 11
0.0
 21
87.0
 31
0.0
1001
AcDbBlockRepETag
1070
     1
1071
        3
1005
98C
  0
LINE
  5
98D
330
6ED
100
AcDbEntity
  8
0
100
AcDbLine
 10
0.0
 20
87.0
 30
0.0
 11
0.0
 21
97.0
 31
0.0
1001
AcDbBlockRepETag
1070
     1
1071
        4
1005
98D
  0
LINE
  5
98E
330
6ED
100
AcDbEntity
  8
0
100
AcDbLine
 10
61.16666666666668
 20
97.0
 30
0.0
 11
61.16666666666668
 21
92.0
 31
0.0
1001
AcDbBlockRepETag
1070
     1
1071
        5
1005
98E
  0
TEXT
  5
98F
330
6ED
100
AcDbEntity
  8
0
100
AcDbText
 10
38.11904761904761
 20
93.23033810098564
 30
0.0
 40
3.0
  1
1
  7
Roman
 72
     1
 11
39.33333333333332
 21
93.23033810098564
 31
0.0
100
AcDbText
1001
AcDbBlockRepETag
1070
     1
1071
        6
1005
98F
  0
ATTDEF
  5
990
330
6ED
100
AcDbEntity
  8
0
 62
     0
100
AcDbText
 10
11.5
 20
97.0
 30
0.0
 40
3.0
  1

 50
90.0
  7
Roman
100
AcDbAttributeDefinition
  3
Author:
  2
USER
 70
     8
1001
AcDbBlockRepETag
1070
     1
1071
        7
1005
0
  0
TEXT
  5
991
330
6ED
100
AcDbEntity
  8
0
100
AcDbText
 10
13.87568307432493
 20
120.75
 30
0.0
 40
3.0
  1
D
  7
Roman
 72
     1
 11
15.4471116457535
 21
120.75
 31
0.0
100
AcDbText
1001
AcDbBlockRepETag
1070
     1
1071
        8
1005
991
  0
LINE
  5
992
330
6ED
100
AcDbEntity
  8
0
100
AcDbLine
 10
17.5
 20
192.0
 30
0.0
 11
0.0
 21
192.0
 31
0.0
1001
AcDbBlockRepETag
1070
     1
1071
        9
1005
992
  0
ATTDEF
  5
993
330
6ED
100
AcDbEntity
  8
0
 62
     0
100
AcDbText
 10
11.5
 20
157.0
 30
0.0
 40
3.0
  1

 50
90.0
  7
Roman
100
AcDbAttributeDefinition
  3
Revision date:
  2
REVDATE
 70
     8
1001
AcDbBlockRepETag
1070
     1
1071
       10
1005
0
  0
LINE
  5
994
330
6ED
100
AcDbEntity
  8
0
100
AcDbLine
 10
17.5
 20
144.5
 30
0.0
 11
12.5
 21
144.5
 31
0.0
1001
AcDbBlockRepETag
1070
     1
1071
       11
1005
994
  0
TEXT
  5
995
330
6ED
100
AcDbEntity
  8
0
100
AcDbText
 10
13.9471116457535
 20
168.25
 30
0.0
 40
3.0
  1
C
  7
Roman
 72
     1
 11
15.4471116457535
 21
168.25
 31
0.0
100
AcDbText
1001
AcDbBlockRepETag
1070
     1
1071
       12
1005
995
  0
ATTDEF
  5
996
330
6ED
100
AcDbEntity
  8
0
 62
     0
100
AcDbText
 10
11.5
 20
205.0
 30
0.0
 40
3.0
  1

 50
90.0
  7
Roman
100
AcDbAttributeDefinition
  3
File name:
  2
FNAME
 70
     8
1001
AcDbBlockRepETag
1070
     1
1071
       13
1005
0
  0
LINE
  5
997
330
6ED
100
AcDbEntity
  8
0
100
AcDbLine
 10
17.5
 20
192.0
 30
0.0
 11
12.5
 21
192.0
 31
0.0
1001
AcDbBlockRepETag
1070
     1
1071
       14
1005
997
  0
TEXT
  5
998
330
6ED
100
AcDbEntity
  8
0
100
AcDbText
 10
13.87568307432493
 20
215.75
 30
0.0
 40
3.0
  1
B
  7
Roman
 72
     1
 11
15.4471116457535
 21
215.75
 31
0.0
100
AcDbText
1001
AcDbBlockRepETag
1070
     1
1071
       15
1005
998
  0
LINE
  5
999
330
6ED
100
AcDbEntity
  8
0
100
AcDbLine
 10
104.8333333333333
 20
97.0
 30
0.0
 11
104.8333333333333
 21
92.0
 31
0.0
1001
AcDbBlockRepETag
1070
     1
1071
       16
1005
999
  0
TEXT
  5
99A
330
6ED
100
AcDbEntity
  8
0
100
AcDbText
 10
81.57142857142856
 20
93.23033810098564
 30
0.0
 40
3.0
  1
2
  7
Roman
 72
     1
 11
83.0
 21
93.23033810098564
 31
0.0
100
AcDbText
1001
AcDbBlockRepETag
1070
     1
1071
       17
1005
99A
  0
TEXT
  5
99B
330
6ED
100
AcDbEntity
  8
0
100
AcDbText
 10
125.2380952380953
 20
93.23033810098564
 30
0.0
 40
3.0
  1
3
  7
Roman
 72
     1
 11
126.6666666666667
 21
93.23033810098564
 31
0.0
100
AcDbText
1001
AcDbBlockRepETag
1070
     1
1071
       18
1005
99B
  0
LINE
  5
99C
330
6ED
100
AcDbEntity
  8
0
100
AcDbLine
 10
148.5
 20
97.0
 30
0.0
 11
148.5
 21
87.0
 31
0.0
1001
AcDbBlockRepETag
1070
     1
1071
       19
1005
99C
  0
LINE
  5
99D
330
6ED
100
AcDbEntity
  8
0
100
AcDbLine
 10
148.5
 20
97.0
 30
0.0
 11
148.5
 21
92.0
 31
0.0
1001
AcDbBlockRepETag
1070
     1
1071
       20
1005
99D
  0
LINE
  5
99E
330
6ED
100
AcDbEntity
  8
0
100
AcDbLine
 10
192.1666666666667
 20
97.0
 30
0.0
 11
192.1666666666667
 21
92.0
 31
0.0
1001
AcDbBlockRepETag
1070
     1
1071
       21
1005
99E
  0
TEXT
  5
99F
330
6ED
100
AcDbEntity
  8
0
100
AcDbText
 10
168.8333333333333
 20
93.23033810098564
 30
0.0
 40
3.0
  1
4
  7
Roman
 72
     1
 11
170.3333333333333
 21
93.23033810098564
 31
0.0
100
AcDbText
1001
AcDbBlockRepETag
1070
     1
1071
       22
1005
99F
  0
LINE
  5
9A0
330
6ED
100
AcDbEntity
  8
0
100
AcDbLine
 10
17.5
 20
239.5
 30
0.0
 11
12.5
 21
239.5
 31
0.0
1001
AcDbBlockRepETag
1070
     1
1071
       25
1005
9A0
  0
TEXT
  5
9A1
330
6ED
100
AcDbEntity
  8
0
100
AcDbText
 10
14.16139736003921
 20
263.25
 30
0.0
 40
3.0
  1
A
  7
Roman
 72
     1
 11
15.4471116457535
 21
263.25
 31
0.0
100
AcDbText
1001
AcDbBlockRepETag
1070
     1
1071
       75
1005
9A1
  0
TEXT
  5
9A2
330
6ED
100
AcDbEntity
  8
0
100
AcDbText
 10
38.11904761904761
 20
288.0
 30
0.0
 40
3.0
  1
1
  7
Roman
 72
     1
 11
39.33333333333332
 21
288.0
 31
0.0
100
AcDbText
1001
AcDbBlockRepETag
1070
     1
1071
       76
1005
9A2
  0
LINE
  5
9A3
330
6ED
100
AcDbEntity
  8
0
100
AcDbLine
 10
61.16666666666666
 20
287.0
 30
0.0
 11
61.16666666666666
 21
292.0
 31
0.0
1001
AcDbBlockRepETag
1070
     1
1071
       28
1005
9A3
  0
TEXT
  5
9A4
330
6ED
100
AcDbEntity
  8
0
100
AcDbText
 10
81.57142857142856
 20
288.0
 30
0.0
 40
3.0
  1
2
  7
Roman
 72
     1
 11
83.0
 21
288.0
 31
0.0
100
AcDbText
1001
AcDbBlockRepETag
1070
     1
1071
       29
1005
9A4
  0
LINE
  5
9A5
330
6ED
100
AcDbEntity
  8
0
100
AcDbLine
 10
104.8333333333333
 20
287.0
 30
0.0
 11
104.8333333333333
 21
292.0
 31
0.0
1001
AcDbBlockRepETag
1070
     1
1071
       30
1005
9A5
  0
TEXT
  5
9A6
330
6ED
100
AcDbEntity
  8
0
100
AcDbText
 10
125.2380952380953
 20
288.0
 30
0.0
 40
3.0
  1
3
  7
Roman
 72
     1
 11
126.6666666666667
 21
288.0
 31
0.0
100
AcDbText
1001
AcDbBlockRepETag
1070
     1
1071
       31
1005
9A6
  0
TEXT
  5
9A7
330
6ED
100
AcDbEntity
  8
0
100
AcDbText
 10
168.8333333333333
 20
288.0
 30
0.0
 40
3.0
  1
4
  7
Roman
 72
     1
 11
170.3333333333333
 21
288.0
 31
0.0
100
AcDbText
1001
AcDbBlockRepETag
1070
     1
1071
       32
1005
9A7
  0
LINE
  5
9A8
330
6ED
100
AcDbEntity
  8
0
100
AcDbLine
 10
148.5
 20
287.0
 30
0.0
 11
148.5
 21
297.0
 31
0.0
1001
AcDbBlockRepETag
1070
     1
1071
       33
1005
9A8
  0
LINE
  5
9A9
330
6ED
100
AcDbEntity
  8
0
100
AcDbLine
 10
148.5
 20
287.0
 30
0.0
 11
148.5
 21
292.0
 31
0.0
1001
AcDbBlockRepETag
1070
     1
1071
       34
1005
9A9
  0
LINE
  5
9AA
330
6ED
100
AcDbEntity
  8
0
100
AcDbLine
 10
192.1666666666666
 20
287.0
 30
0.0
 11
192.1666666666666
 21
292.0
 31
0.0
1001
AcDbBlockRepETag
1070
     1
1071
       35
1005
9AA
  0
LINE
  5
9AB
330
6ED
100
AcDbEntity
  8
0
100
AcDbLine
 10
279.5
 20
287.0
 30
0.0
 11
279.5
 21
97.0
 31
0.0
1001
AcDbBlockRepETag
1070
     1
1071
       36
1005
9AB
  0
LINE
  5
9AC
330
6ED
100
AcDbEntity
  8
0
100
AcDbLine
 10
235.8333333333334
 20
97.0
 30
0.0
 11
235.8333333333334
 21
92.0
 31
0.0
1001
AcDbBlockRepETag
1070
     1
1071
       37
1005
9AC
  0
TEXT
  5
9AD
330
6ED
100
AcDbEntity
  8
0
100
AcDbText
 10
212.5714285714286
 20
93.23033810098564
 30
0.0
 40
3.0
  1
5
  7
Roman
 72
     1
 11
214.0
 21
93.23033810098564
 31
0.0
100
AcDbText
1001
AcDbBlockRepETag
1070
     1
1071
       38
1005
9AD
  0
TEXT
  5
9AE
330
6ED
100
AcDbEntity
  8
0
100
AcDbText
 10
256.1666666666667
 20
93.23033810098564
 30
0.0
 40
3.0
  1
6
  7
Roman
 72
     1
 11
257.6666666666667
 21
93.23033810098564
 31
0.0
100
AcDbText
1001
AcDbBlockRepETag
1070
     1
1071
       39
1005
9AE
  0
LINE
  5
9AF
330
6ED
100
AcDbEntity
  8
0
100
AcDbLine
 10
297.0
 20
97.0
 30
0.0
 11
297.0
 21
87.0
 31
0.0
1001
AcDbBlockRepETag
1070
     1
1071
       40
1005
9AF
  0
LINE
  5
9B0
330
6ED
100
AcDbEntity
  8
0
100
AcDbLine
 10
297.0
 20
87.0
 30
0.0
 11
287.0
 21
87.0
 31
0.0
1001
AcDbBlockRepETag
1070
     1
1071
       41
1005
9B0
  0
TEXT
  5
9B1
330
6ED
100
AcDbEntity
  8
0
100
AcDbText
 10
280.1673438822666
 20
120.75
 30
0.0
 40
3.0
  1
D
  7
Roman
 72
     1
 11
281.7387724536952
 21
120.75
 31
0.0
100
AcDbText
1001
AcDbBlockRepETag
1070
     1
1071
       42
1005
9B1
  0
LINE
  5
9B2
330
6ED
100
AcDbEntity
  8
0
100
AcDbLine
 10
279.5
 20
144.5
 30
0.0
 11
284.5
 21
144.5
 31
0.0
1001
AcDbBlockRepETag
1070
     1
1071
       43
1005
9B2
  0
TEXT
  5
9B3
330
6ED
100
AcDbEntity
  8
0
100
AcDbText
 10
280.2387724536952
 20
168.25
 30
0.0
 40
3.0
  1
C
  7
Roman
 72
     1
 11
281.7387724536952
 21
168.25
 31
0.0
100
AcDbText
1001
AcDbBlockRepETag
1070
     1
1071
       44
1005
9B3
  0
LINE
  5
9B4
330
6ED
100
AcDbEntity
  8
0
100
AcDbLine
 10
279.5
 20
192.0
 30
0.0
 11
297.0
 21
192.0
 31
0.0
1001
AcDbBlockRepETag
1070
     1
1071
       45
1005
9B4
  0
LINE
  5
9B5
330
6ED
100
AcDbEntity
  8
0
100
AcDbLine
 10
279.5
 20
192.0
 30
0.0
 11
284.5
 21
192.0
 31
0.0
1001
AcDbBlockRepETag
1070
     1
1071
       46
1005
9B5
  0
TEXT
  5
9B6
330
6ED
100
AcDbEntity
  8
0
100
AcDbText
 10
280.1673438822666
 20
215.75
 30
0.0
 40
3.0
  1
B
  7
Roman
 72
     1
 11
281.7387724536952
 21
215.75
 31
0.0
100
AcDbText
1001
AcDbBlockRepETag
1070
     1
1071
       47
1005
9B6
  0
TEXT
  5
9B7
330
6ED
100
AcDbEntity
  8
0
100
AcDbText
 10
212.5714285714286
 20
288.0
 30
0.0
 40
3.0
  1
5
  7
Roman
 72
     1
 11
214.0
 21
288.0
 31
0.0
100
AcDbText
1001
AcDbBlockRepETag
1070
     1
1071
       48
1005
9B7
  0
LINE
  5
9B8
330
6ED
100
AcDbEntity
  8
0
100
AcDbLine
 10
235.8333333333333
 20
287.0
 30
0.0
 11
235.8333333333333
 21
292.0
 31
0.0
1001
AcDbBlockRepETag
1070
     1
1071
       49
1005
9B8
  0
TEXT
  5
9B9
330
6ED
100
AcDbEntity
  8
0
100
AcDbText
 10
256.1666666666667
 20
288.0
 30
0.0
 40
3.0
  1
6
  7
Roman
 72
     1
 11
257.6666666666667
 21
288.0
 31
0.0
100
AcDbText
1001
AcDbBlockRepETag
1070
     1
1071
       50
1005
9B9
  0
LINE
  5
9BA
330
6ED
100
AcDbEntity
  8
0
100
AcDbLine
 10
279.5
 20
239.5
 30
0.0
 11
284.5
 21
239.5
 31
0.0
1001
AcDbBlockRepETag
1070
     1
1071
       51
1005
9BA
  0
TEXT
  5
9BB
330
6ED
100
AcDbEntity
  8
0
100
AcDbText
 10
280.4530581679809
 20
263.25
 30
0.0
 40
3.0
  1
A
  7
Roman
 72
     1
 11
281.7387724536952
 21
263.25
 31
0.0
100
AcDbText
1001
AcDbBlockRepETag
1070
     1
1071
       52
1005
9BB
  0
LINE
  5
9BC
330
6ED
100
AcDbEntity
  8
0
100
AcDbLine
 10
287.0
 20
297.0
 30
0.0
 11
297.0
 21
297.0
 31
0.0
1001
AcDbBlockRepETag
1070
     1
1071
       53
1005
9BC
  0
LINE
  5
9BD
330
6ED
100
AcDbEntity
  8
0
100
AcDbLine
 10
297.0
 20
297.0
 30
0.0
 11
297.0
 21
287.0
 31
0.0
1001
AcDbBlockRepETag
1070
     1
1071
       54
1005
9BD
  0
LINE
  5
9BE
330
6ED
100
AcDbEntity
  8
0
100
AcDbLine
 10
163.4978723404242
 20
97.0
 30
0.0
 11
163.4978723404242
 21
97.0
 31
0.0
1001
AcDbBlockRepETag
1070
     1
1071
      161
1005
9BE
  0
LINE
  5
9BF
330
6ED
100
AcDbEntity
  8
0
100
AcDbLine
 10
162.4978723404242
 20
97.0
 30
0.0
 11
162.4978723404242
 21
133.0
 31
0.0
1001
AcDbBlockRepETag
1070
     1
1071
      162
1005
9BF
  0
LINE
  5
9C0
330
6ED
100
AcDbEntity
  8
0
100
AcDbLine
 10
279.4978723404242
 20
106.0
 30
0.0
 11
162.4978723404242
 21
106.0
 31
0.0
1001
AcDbBlockRepETag
1070
     1
1071
      166
1005
9C0
  0
LINE
  5
9C1
330
6ED
100
AcDbEntity
  8
0
100
AcDbLine
 10
213.4978723404242
 20
97.0
 30
0.0
 11
213.4978723404242
 21
106.0
 31
0.0
1001
AcDbBlockRepETag
1070
     1
1071
      167
1005
9C1
  0
LINE
  5
9C2
330
6ED
100
AcDbEntity
  8
0
100
AcDbLine
 10
202.4978723404242
 20
115.0
 30
0.0
 11
162.4978723404242
 21
115.0
 31
0.0
1001
AcDbBlockRepETag
1070
     1
1071
      168
1005
9C2
  0
LINE
  5
9C3
330
6ED
100
AcDbEntity
  8
0
100
AcDbLine
 10
279.4978723404242
 20
124.0
 30
0.0
 11
162.4978723404242
 21
124.0
 31
0.0
1001
AcDbBlockRepETag
1070
     1
1071
      169
1005
9C3
  0
LINE
  5
9C4
330
6ED
100
AcDbEntity
  8
0
100
AcDbLine
 10
279.4978723404242
 20
133.0
 30
0.0
 11
162.4978723404242
 21
133.0
 31
0.0
1001
AcDbBlockRepETag
1070
     1
1071
      170
1005
9C4
  0
MTEXT
  5
9C5
330
6ED
100
AcDbEntity
  8
0
100
AcDbMText
 10
187.997872340424
 20
101.5
 30
0.0
 40
4.0
 41
51.0
 71
     5
 72
     5
  1
富国石油株式会社
 73
     1
 44
1.0
1001
AcDbBlockRepETag
1070
     1
1071
      171
1005
9C5
1001
ACAD
1000
MTEXTBEGIN
1070
    73
1070
     1
1070
    44
1040
1.0
1070
    74
1070
     0
1000
MTEXTEND
  0
MTEXT
  5
9C6
102
{ACAD_XDICTIONARY
360
1649F
102
}
330
6ED
100
AcDbEntity
  8
0
100
AcDbMText
 10
165.4779634407957
 20
110.5
 30
0.0
 40
2.0
 41
3.96018220074299
 71
     5
 72
     5
  1
検\P図
 73
     1
 44
1.0
1001
AcDbBlockRepETag
1070
     1
1071
      172
1005
9C6
1001
ACAD
1000
MTEXTBEGIN
1070
    73
1070
     1
1070
    44
1040
1.0
1070
    74
1070
     0
1000
MTEXTEND
1000
ACAD_MTEXT_DEFINED_HEIGHT_BEGIN
1070
    46
1040
9.0
1000
ACAD_MTEXT_DEFINED_HEIGHT_END
  0
MTEXT
  5
9C7
330
6ED
100
AcDbEntity
  8
0
100
AcDbMText
 10
165.4779634407957
 20
119.5
 30
0.0
 40
2.0
 41
3.96018220074299
 71
     5
 72
     5
  1
確\P認
 73
     1
 44
1.0
1001
AcDbBlockRepETag
1070
     1
1071
      173
1005
9C7
1001
ACAD
1000
MTEXTBEGIN
1070
    73
1070
     1
1070
    44
1040
1.0
1070
    74
1070
     0
1000
MTEXTEND
1000
ACAD_MTEXT_DEFINED_HEIGHT_BEGIN
1070
    46
1040
9.0
1000
ACAD_MTEXT_DEFINED_HEIGHT_END
  0
MTEXT
  5
9C8
330
6ED
100
AcDbEntity
  8
0
100
AcDbMText
 10
165.4779634407957
 20
128.5
 30
0.0
 40
2.0
 41
3.96018220074299
 71
     5
 72
     5
  1
縮\P尺
 73
     1
 44
1.0
1001
AcDbBlockRepETag
1070
     1
1071
      174
1005
9C8
1001
ACAD
1000
MTEXTBEGIN
1070
    73
1070
     1
1070
    44
1040
1.0
1070
    74
1070
     0
1000
MTEXTEND
1000
ACAD_MTEXT_DEFINED_HEIGHT_BEGIN
1070
    46
1040
9.0
1000
ACAD_MTEXT_DEFINED_HEIGHT_END
  0
LINE
  5
9C9
330
6ED
100
AcDbEntity
  8
0
100
AcDbLine
 10
182.4978723404242
 20
106.0
 30
0.0
 11
182.4978723404242
 21
133.0
 31
0.0
1001
AcDbBlockRepETag
1070
     1
1071
      175
1005
9C9
  0
LINE
  5
9CA
330
6ED
100
AcDbEntity
  8
0
100
AcDbLine
 10
202.4978723404242
 20
106.0
 30
0.0
 11
202.4978723404242
 21
133.0
 31
0.0
1001
AcDbBlockRepETag
1070
     1
1071
      176
1005
9CA
  0
LINE
  5
9CB
330
6ED
100
AcDbEntity
  8
0
100
AcDbLine
 10
234.4978723404242
 20
124.0
 30
0.0
 11
234.4978723404242
 21
133.0
 31
0.0
1001
AcDbBlockRepETag
1070
     1
1071
      194
1005
9CB
  0
MTEXT
  5
9CC
330
6ED
100
AcDbEntity
  8
0
100
AcDbMText
 10
185.4779634407956
 20
119.5
 30
0.0
 40
2.0
 41
3.96018220074299
 71
     5
 72
     5
  1
設\P計
 73
     1
 44
1.0
1001
AcDbBlockRepETag
1070
     1
1071
      177
1005
9CC
1001
ACAD
1000
MTEXTBEGIN
1070
    73
1070
     1
1070
    44
1040
1.0
1070
    74
1070
     0
1000
MTEXTEND
1000
ACAD_MTEXT_DEFINED_HEIGHT_BEGIN
1070
    46
1040
9.0
1000
ACAD_MTEXT_DEFINED_HEIGHT_END
  0
MTEXT
  5
9CD
330
6ED
100
AcDbEntity
  8
0
100
AcDbMText
 10
185.4779634407956
 20
110.5
 30
0.0
 40
2.0
 41
3.96018220074299
 71
     5
 72
     5
  1
製\P図
 73
     1
 44
1.0
1001
AcDbBlockRepETag
1070
     1
1071
      178
1005
9CD
1001
ACAD
1000
MTEXTBEGIN
1070
    73
1070
     1
1070
    44
1040
1.0
1070
    74
1070
     0
1000
MTEXTEND
1000
ACAD_MTEXT_DEFINED_HEIGHT_BEGIN
1070
    46
1040
9.0
1000
ACAD_MTEXT_DEFINED_HEIGHT_END
  0
MTEXT
  5
9CE
330
6ED
100
AcDbEntity
  8
0
100
AcDbMText
 10
205.4779634407957
 20
128.5
 30
0.0
 40
2.0
 41
3.96018220074299
 71
     5
 72
     5
  1
材\P料
 73
     1
 44
1.0
1001
AcDbBlockRepETag
1070
     1
1071
      179
1005
9CE
1001
ACAD
1000
MTEXTBEGIN
1070
    73
1070
     1
1070
    44
1040
1.0
1070
    74
1070
     0
1000
MTEXTEND
1000
ACAD_MTEXT_DEFINED_HEIGHT_BEGIN
1070
    46
1040
9.0
1000
ACAD_MTEXT_DEFINED_HEIGHT_END
  0
LINE
  5
9CF
330
6ED
100
AcDbEntity
  8
0
  6
HIDDEN2
 48
0.5
100
AcDbLine
 10
279.4978723404242
 20
119.5
 30
0.0
 11
202.4978723404242
 21
119.5
 31
0.0
1001
AcDbBlockRepETag
1070
     1
1071
      180
1005
9CF
  0
POINT
  5
9D0
330
6ED
100
AcDbEntity
  8
0
100
AcDbPoint
 10
188.2478723404242
 20
124.0
 30
0.0
1001
AcDbBlockRepETag
1070
     1
1071
      189
1005
9D0
  0
POINT
  5
9D1
330
6ED
100
AcDbEntity
  8
0
100
AcDbPoint
 10
188.2478723404242
 20
115.0
 30
0.0
1001
AcDbBlockRepETag
1070
     1
1071
      190
1005
9D1
  0
ENDBLK
  5
74C
330
6ED
100
AcDbEntity
  8
0
100
AcDbBlockEnd
  0
BLOCK
  5
160AA
330
160A0
100
AcDbEntity
  8
0
100
AcDbBlockBegin
  2
*D6
 70
     1
 10
0.0
 20
0.0
 30
0.0
  3
*D6
  1

  0
LINE
  5
161BB
330
160A0
100
AcDbEntity
  8
Object
 62
     0
370
    -2
100
AcDbLine
 10
-151.8219557923079
 20
1759.92238695701
 30
0.0
 11
-151.8219557923079
 21
1745.782038200584
 31
0.0
  0
LINE
  5
161BC
330
160A0
100
AcDbEntity
  8
Object
 62
     0
370
    -2
100
AcDbLine
 10
-98.82195579230792
 20
1759.92238695701
 30
0.0
 11
-98.82195579230792
 21
1745.782038200584
 31
0.0
  0
LINE
  5
161BD
330
160A0
100
AcDbEntity
  8
Object
 62
     0
370
    -2
100
AcDbLine
 10
-147.8219557923079
 20
1746.782038200583
 30
0.0
 11
-102.8219557923079
 21
1746.782038200583
 31
0.0
  0
INSERT
  5
161BE
330
160A0
100
AcDbEntity
  8
Object
 62
     0
370
    -2
100
AcDbBlockReference
  2
_Open30
 10
-151.8219557923079
 20
1746.782038200583
 30
0.0
 41
4.0
 42
4.0
 43
4.0
 50
180.0
  0
INSERT
  5
161BF
330
160A0
100
AcDbEntity
  8
Object
 62
     0
370
    -2
100
AcDbBlockReference
  2
_Open30
 10
-98.82195579230792
 20
1746.782038200583
 30
0.0
 41
4.0
 42
4.0
 43
4.0
  0
MTEXT
  5
161C0
330
160A0
100
AcDbEntity
  8
Object
 62
     0
100
AcDbMText
 10
-125.3219557923079
 20
1751.200819926472
 30
0.0
 40
5.0
 41
0.0
 71
     5
 72
     1
  1
\A1;幅53
 73
     1
 44
1.0
1001
ACAD
1000
MTEXTBEGIN
1070
    73
1070
     1
1070
    44
1040
1.0
1070
    74
1070
     0
1000
MTEXTEND
  0
POINT
  5
161C1
330
160A0
100
AcDbEntity
  8
Defpoints
 62
     0
100
AcDbPoint
 10
-151.8219557923079
 20
1760.92238695701
 30
0.0
  0
POINT
  5
161C2
330
160A0
100
AcDbEntity
  8
Defpoints
 62
     0
100
AcDbPoint
 10
-98.82195579230792
 20
1760.92238695701
 30
0.0
  0
POINT
  5
161C3
330
160A0
100
AcDbEntity
  8
Defpoints
 62
     0
100
AcDbPoint
 10
-98.82195579230792
 20
1746.782038200583
 30
0.0
  0
ENDBLK
  5
160AB
330
160A0
100
AcDbEntity
  8
0
100
AcDbBlockEnd
  0
BLOCK
  5
160B6
330
160AC
100
AcDbEntity
  8
0
100
AcDbBlockBegin
  2
*D7
 70
     1
 10
0.0
 20
0.0
 30
0.0
  3
*D7
  1

  0
LINE
  5
161F6
330
160AC
100
AcDbEntity
  8
Object
 62
     0
370
    -2
100
AcDbLine
 10
-126.3219557923079
 20
1793.92238695701
 30
0.0
 11
-164.7198651183573
 21
1793.92238695701
 31
0.0
  0
LINE
  5
161F7
330
160AC
100
AcDbEntity
  8
Object
 62
     0
370
    -2
100
AcDbLine
 10
-101.8219557923079
 20
1758.92238695701
 30
0.0
 11
-164.7198651183573
 21
1758.92238695701
 31
0.0
  0
LINE
  5
161F8
330
160AC
100
AcDbEntity
  8
Object
 62
     0
370
    -2
100
AcDbLine
 10
-163.7198651183573
 20
1789.92238695701
 30
0.0
 11
-163.7198651183573
 21
1762.92238695701
 31
0.0
  0
MTEXT
  5
161F9
330
160AC
100
AcDbEntity
  8
Object
 62
     0
100
AcDbMText
 10
-173.4781732101421
 20
1776.626115548063
 30
0.0
 40
5.0
 41
0.0
 71
     5
 72
     1
  1
\A1;カブリ
 11
0.9999999998476914
 21
-0.000017453292519
 31
0.0
 73
     1
 44
1.0
1001
ACAD
1000
MTEXTBEGIN
1070
    73
1070
     1
1070
    44
1040
1.0
1070
    74
1070
     0
1000
MTEXTEND
  0
INSERT
  5
161FA
330
160AC
100
AcDbEntity
  8
Object
 62
     0
370
    -2
100
AcDbBlockReference
  2
_Open30
 10
-163.7198651183573
 20
1793.92238695701
 30
0.0
 41
4.0
 42
4.0
 43
4.0
 50
90.0
  0
INSERT
  5
161FB
330
160AC
100
AcDbEntity
  8
Object
 62
     0
370
    -2
100
AcDbBlockReference
  2
_Open30
 10
-163.7198651183573
 20
1758.92238695701
 30
0.0
 41
4.0
 42
4.0
 43
4.0
 50
270.0
  0
POINT
  5
161FC
330
160AC
100
AcDbEntity
  8
Defpoints
 62
     0
100
AcDbPoint
 10
-125.3219557923079
 20
1793.92238695701
 30
0.0
  0
POINT
  5
161FD
330
160AC
100
AcDbEntity
  8
Defpoints
 62
     0
100
AcDbPoint
 10
-100.8219557923079
 20
1758.92238695701
 30
0.0
  0
POINT
  5
161FE
330
160AC
100
AcDbEntity
  8
Defpoints
 62
     0
100
AcDbPoint
 10
-163.7198651183573
 20
1758.92238695701
 30
0.0
  0
ENDBLK
  5
160B7
330
160AC
100
AcDbEntity
  8
0
100
AcDbBlockEnd
  0
BLOCK
  5
160C2
330
160B8
100
AcDbEntity
  8
0
100
AcDbBlockBegin
  2
*D8
 70
     1
 10
0.0
 20
0.0
 30
0.0
  3
*D8
  1

  0
LINE
  5
16238
330
160B8
100
AcDbEntity
  8
Object
 62
     0
370
    -2
100
AcDbLine
 10
-150.8219557923079
 20
1758.92238695701
 30
0.0
 11
-189.5372297752177
 21
1758.92238695701
 31
0.0
  0
LINE
  5
16239
330
160B8
100
AcDbEntity
  8
Object
 62
     0
370
    -2
100
AcDbLine
 10
-144.3219557923079
 20
1823.92238695701
 30
0.0
 11
-189.5372297752177
 21
1823.92238695701
 31
0.0
  0
LINE
  5
1623A
330
160B8
100
AcDbEntity
  8
Object
 62
     0
370
    -2
100
AcDbLine
 10
-188.5372297752177
 20
1762.92238695701
 30
0.0
 11
-188.5372297752177
 21
1819.92238695701
 31
0.0
  0
MTEXT
  5
1623B
330
160B8
100
AcDbEntity
  8
Object
 62
     0
100
AcDbMText
 10
-200.8614618652357
 20
1791.155450460699
 30
0.0
 40
5.0
 41
0.0
 71
     5
 72
     1
  1
\A1;高さ65
 11
0.9999999998476914
 21
-0.000017453292519
 31
0.0
 73
     1
 44
1.0
1001
ACAD
1000
MTEXTBEGIN
1070
    73
1070
     1
1070
    44
1040
1.0
1070
    74
1070
     0
1000
MTEXTEND
  0
INSERT
  5
1623C
330
160B8
100
AcDbEntity
  8
Object
 62
     0
370
    -2
100
AcDbBlockReference
  2
_Open30
 10
-188.5372297752177
 20
1758.92238695701
 30
0.0
 41
4.0
 42
4.0
 43
4.0
 50
270.0
  0
INSERT
  5
1623D
330
160B8
100
AcDbEntity
  8
Object
 62
     0
370
    -2
100
AcDbBlockReference
  2
_Open30
 10
-188.5372297752177
 20
1823.92238695701
 30
0.0
 41
4.0
 42
4.0
 43
4.0
 50
90.0
  0
POINT
  5
1623E
330
160B8
100
AcDbEntity
  8
Defpoints
 62
     0
100
AcDbPoint
 10
-149.8219557923079
 20
1758.92238695701
 30
0.0
  0
POINT
  5
1623F
330
160B8
100
AcDbEntity
  8
Defpoints
 62
     0
100
AcDbPoint
 10
-143.3219557923079
 20
1823.92238695701
 30
0.0
  0
POINT
  5
16240
330
160B8
100
AcDbEntity
  8
Defpoints
 62
     0
100
AcDbPoint
 10
-188.5372297752177
 20
1823.92238695701
 30
0.0
  0
ENDBLK
  5
160C3
330
160B8
100
AcDbEntity
  8
0
100
AcDbBlockEnd
  0
BLOCK
  5
16145
330
1613B
100
AcDbEntity
  8
0
100
AcDbBlockBegin
  2
*D9
 70
     1
 10
0.0
 20
0.0
 30
0.0
  3
*D9
  1

  0
LINE
  5
161B2
330
1613B
100
AcDbEntity
  8
Object
 62
     0
370
    -2
100
AcDbLine
 10
-60.31231050398753
 20
1759.92238695701
 30
0.0
 11
-60.31231050398753
 21
1745.782038200584
 31
0.0
  0
LINE
  5
161B3
330
1613B
100
AcDbEntity
  8
Object
 62
     0
370
    -2
100
AcDbLine
 10
-7.312310503987531
 20
1759.92238695701
 30
0.0
 11
-7.312310503987531
 21
1745.782038200584
 31
0.0
  0
LINE
  5
161B4
330
1613B
100
AcDbEntity
  8
Object
 62
     0
370
    -2
100
AcDbLine
 10
-56.31231050398753
 20
1746.782038200583
 30
0.0
 11
-11.31231050398753
 21
1746.782038200583
 31
0.0
  0
INSERT
  5
161B5
330
1613B
100
AcDbEntity
  8
Object
 62
     0
370
    -2
100
AcDbBlockReference
  2
_Open30
 10
-60.31231050398753
 20
1746.782038200583
 30
0.0
 41
4.0
 42
4.0
 43
4.0
 50
180.0
  0
INSERT
  5
161B6
330
1613B
100
AcDbEntity
  8
Object
 62
     0
370
    -2
100
AcDbBlockReference
  2
_Open30
 10
-7.312310503987531
 20
1746.782038200583
 30
0.0
 41
4.0
 42
4.0
 43
4.0
  0
MTEXT
  5
161B7
330
1613B
100
AcDbEntity
  8
Object
 62
     0
100
AcDbMText
 10
-33.81231050398753
 20
1751.200819926472
 30
0.0
 40
5.0
 41
0.0
 71
     5
 72
     1
  1
\A1;幅53
 73
     1
 44
1.0
1001
ACAD
1000
MTEXTBEGIN
1070
    73
1070
     1
1070
    44
1040
1.0
1070
    74
1070
     0
1000
MTEXTEND
  0
POINT
  5
161B8
330
1613B
100
AcDbEntity
  8
Defpoints
 62
     0
100
AcDbPoint
 10
-60.31231050398753
 20
1760.92238695701
 30
0.0
  0
POINT
  5
161B9
330
1613B
100
AcDbEntity
  8
Defpoints
 62
     0
100
AcDbPoint
 10
-7.312310503987531
 20
1760.92238695701
 30
0.0
  0
POINT
  5
161BA
330
1613B
100
AcDbEntity
  8
Defpoints
 62
     0
100
AcDbPoint
 10
-7.312310503987531
 20
1746.782038200583
 30
0.0
  0
ENDBLK
  5
16146
330
1613B
100
AcDbEntity
  8
0
100
AcDbBlockEnd
  0
BLOCK
  5
1615D
330
16153
100
AcDbEntity
  8
0
100
AcDbBlockBegin
  2
*D10
 70
     1
 10
0.0
 20
0.0
 30
0.0
  3
*D10
  1

  0
LINE
  5
16209
330
16153
100
AcDbEntity
  8
Object
 62
     0
370
    -2
100
AcDbLine
 10
-59.31231050398753
 20
1758.92238695701
 30
0.0
 11
-71.4981282367153
 21
1758.92238695701
 31
0.0
  0
LINE
  5
1620A
330
16153
100
AcDbEntity
  8
Object
 62
     0
370
    -2
100
AcDbLine
 10
-67.84077617017553
 20
1793.92238695701
 30
0.0
 11
-71.49812823671528
 21
1793.92238695701
 31
0.0
  0
LINE
  5
1620B
330
16153
100
AcDbEntity
  8
Object
 62
     0
370
    -2
100
AcDbLine
 10
-70.49812823671527
 20
1762.92238695701
 30
0.0
 11
-70.49812823671527
 21
1789.92238695701
 31
0.0
  0
MTEXT
  5
1620C
330
16153
100
AcDbEntity
  8
Object
 62
     0
100
AcDbMText
 10
-80.89242430710203
 20
1776.626115548063
 30
0.0
 40
5.0
 41
0.0
 71
     5
 72
     1
  1
\A1;カブリ
 11
0.9999999998476914
 21
-0.000017453292519
 31
0.0
 73
     1
 44
1.0
1001
ACAD
1000
MTEXTBEGIN
1070
    73
1070
     1
1070
    44
1040
1.0
1070
    74
1070
     0
1000
MTEXTEND
  0
INSERT
  5
1620D
330
16153
100
AcDbEntity
  8
Object
 62
     0
370
    -2
100
AcDbBlockReference
  2
_Open30
 10
-70.4981282367153
 20
1758.92238695701
 30
0.0
 41
4.0
 42
4.0
 43
4.0
 50
270.0
  0
INSERT
  5
1620E
330
16153
100
AcDbEntity
  8
Object
 62
     0
370
    -2
100
AcDbBlockReference
  2
_Open30
 10
-70.49812823671527
 20
1793.92238695701
 30
0.0
 41
4.0
 42
4.0
 43
4.0
 50
90.0
  0
POINT
  5
1620F
330
16153
100
AcDbEntity
  8
Defpoints
 62
     0
100
AcDbPoint
 10
-58.31231050398753
 20
1758.92238695701
 30
0.0
  0
POINT
  5
16210
330
16153
100
AcDbEntity
  8
Defpoints
 62
     0
100
AcDbPoint
 10
-66.84077617017553
 20
1793.92238695701
 30
0.0
  0
POINT
  5
16211
330
16153
100
AcDbEntity
  8
Defpoints
 62
     0
100
AcDbPoint
 10
-70.49812823671527
 20
1793.92238695701
 30
0.0
  0
ENDBLK
  5
1615E
330
16153
100
AcDbEntity
  8
0
100
AcDbBlockEnd
  0
BLOCK
  5
162F3
330
162E9
100
AcDbEntity
  8
0
100
AcDbBlockBegin
  2
*D11
 70
     1
 10
0.0
 20
0.0
 30
0.0
  3
*D11
  1

  0
LINE
  5
163F4
330
162E9
100
AcDbEntity
  8
Object
  6
HIDDEN2
 62
     0
370
    -2
100
AcDbLine
 10
133.2227745782211
 20
1772.339265903346
 30
0.0
 11
133.2227745782211
 21
1751.128742768706
 31
0.0
  0
LINE
  5
163F5
330
162E9
100
AcDbEntity
  8
Object
  6
HIDDEN2
 62
     0
370
    -2
100
AcDbLine
 10
212.7227745782211
 20
1772.339265903346
 30
0.0
 11
212.7227745782211
 21
1751.128742768706
 31
0.0
  0
LINE
  5
163F6
330
162E9
100
AcDbEntity
  8
Object
  6
HIDDEN2
 62
     0
370
    -2
100
AcDbLine
 10
141.2227745782211
 20
1752.128742768707
 30
0.0
 11
204.7227745782211
 21
1752.128742768707
 31
0.0
  0
INSERT
  5
163F7
330
162E9
100
AcDbEntity
  8
Object
  6
HIDDEN2
 62
     0
370
    -2
100
AcDbBlockReference
  2
_Open30
 10
133.2227745782211
 20
1752.128742768707
 30
0.0
 41
8.0
 42
8.0
 43
8.0
 50
180.0
  0
INSERT
  5
163F8
330
162E9
100
AcDbEntity
  8
Object
  6
HIDDEN2
 62
     0
370
    -2
100
AcDbBlockReference
  2
_Open30
 10
212.7227745782211
 20
1752.128742768707
 30
0.0
 41
8.0
 42
8.0
 43
8.0
  0
MTEXT
  5
163F9
330
162E9
100
AcDbEntity
  8
Object
  6
HIDDEN2
 62
     0
100
AcDbMText
 10
172.9727745782211
 20
1759.798793530128
 30
0.0
 40
8.0
 41
0.0
 71
     5
 72
     1
  1
\A1;幅53
 73
     1
 44
1.0
1001
ACAD
1000
MTEXTBEGIN
1070
    73
1070
     1
1070
    44
1040
1.0
1070
    74
1070
     0
1000
MTEXTEND
  0
POINT
  5
163FA
330
162E9
100
AcDbEntity
  8
Defpoints
  6
HIDDEN2
 62
     0
100
AcDbPoint
 10
133.2227745782211
 20
1773.339265903346
 30
0.0
  0
POINT
  5
163FB
330
162E9
100
AcDbEntity
  8
Defpoints
  6
HIDDEN2
 62
     0
100
AcDbPoint
 10
212.7227745782211
 20
1773.339265903346
 30
0.0
  0
POINT
  5
163FC
330
162E9
100
AcDbEntity
  8
Defpoints
  6
HIDDEN2
 62
     0
100
AcDbPoint
 10
212.7227745782211
 20
1752.128742768707
 30
0.0
  0
ENDBLK
  5
162F4
330
162E9
100
AcDbEntity
  8
0
100
AcDbBlockEnd
  0
BLOCK
  5
162FF
330
162F5
100
AcDbEntity
  8
0
100
AcDbBlockBegin
  2
*D12
 70
     1
 10
0.0
 20
0.0
 30
0.0
  3
*D12
  1

  0
LINE
  5
16406
330
162F5
100
AcDbEntity
  8
Object
  6
HIDDEN2
 62
     0
370
    -2
100
AcDbLine
 10
171.9727745782211
 20
1822.839265903346
 30
0.0
 11
114.375910589147
 21
1822.839265903346
 31
0.0
  0
LINE
  5
16407
330
162F5
100
AcDbEntity
  8
Object
  6
HIDDEN2
 62
     0
370
    -2
100
AcDbLine
 10
208.7227745782211
 20
1770.339265903346
 30
0.0
 11
114.375910589147
 21
1770.339265903346
 31
0.0
  0
LINE
  5
16408
330
162F5
100
AcDbEntity
  8
Object
  6
HIDDEN2
 62
     0
370
    -2
100
AcDbLine
 10
115.375910589147
 20
1814.839265903346
 30
0.0
 11
115.375910589147
 21
1778.339265903346
 31
0.0
  0
MTEXT
  5
16409
330
162F5
100
AcDbEntity
  8
Object
  6
HIDDEN2
 62
     0
100
AcDbMText
 10
100.7384484514696
 20
1796.894858789925
 30
0.0
 40
8.0
 41
0.0
 71
     5
 72
     1
  1
\A1;カブリ
 11
0.9999999998476914
 21
-0.000017453292519
 31
0.0
 73
     1
 44
1.0
1001
ACAD
1000
MTEXTBEGIN
1070
    73
1070
     1
1070
    44
1040
1.0
1070
    74
1070
     0
1000
MTEXTEND
  0
INSERT
  5
1640A
330
162F5
100
AcDbEntity
  8
Object
  6
HIDDEN2
 62
     0
370
    -2
100
AcDbBlockReference
  2
_Open30
 10
115.375910589147
 20
1822.839265903346
 30
0.0
 41
8.0
 42
8.0
 43
8.0
 50
90.0
  0
INSERT
  5
1640B
330
162F5
100
AcDbEntity
  8
Object
  6
HIDDEN2
 62
     0
370
    -2
100
AcDbBlockReference
  2
_Open30
 10
115.375910589147
 20
1770.339265903346
 30
0.0
 41
8.0
 42
8.0
 43
8.0
 50
270.0
  0
POINT
  5
1640C
330
162F5
100
AcDbEntity
  8
Defpoints
  6
HIDDEN2
 62
     0
100
AcDbPoint
 10
172.9727745782211
 20
1822.839265903346
 30
0.0
  0
POINT
  5
1640D
330
162F5
100
AcDbEntity
  8
Defpoints
  6
HIDDEN2
 62
     0
100
AcDbPoint
 10
209.7227745782212
 20
1770.339265903346
 30
0.0
  0
POINT
  5
1640E
330
162F5
100
AcDbEntity
  8
Defpoints
  6
HIDDEN2
 62
     0
100
AcDbPoint
 10
115.375910589147
 20
1770.339265903346
 30
0.0
  0
ENDBLK
  5
16300
330
162F5
100
AcDbEntity
  8
0
100
AcDbBlockEnd
  0
BLOCK
  5
1630B
330
16301
100
AcDbEntity
  8
0
100
AcDbBlockBegin
  2
*D13
 70
     1
 10
0.0
 20
0.0
 30
0.0
  3
*D13
  1

  0
LINE
  5
163FD
330
16301
100
AcDbEntity
  8
Object
  6
HIDDEN2
 62
     0
370
    -2
100
AcDbLine
 10
135.222774578221
 20
1770.339265903346
 30
0.0
 11
77.14986360385641
 21
1770.339265903346
 31
0.0
  0
LINE
  5
163FE
330
16301
100
AcDbEntity
  8
Object
  6
HIDDEN2
 62
     0
370
    -2
100
AcDbLine
 10
144.9727745782212
 20
1867.839265903346
 30
0.0
 11
77.14986360385644
 21
1867.839265903346
 31
0.0
  0
LINE
  5
163FF
330
16301
100
AcDbEntity
  8
Object
  6
HIDDEN2
 62
     0
370
    -2
100
AcDbLine
 10
78.14986360385642
 20
1778.339265903346
 30
0.0
 11
78.14986360385645
 21
1859.839265903346
 31
0.0
  0
MTEXT
  5
16400
330
16301
100
AcDbEntity
  8
Object
  6
HIDDEN2
 62
     0
100
AcDbMText
 10
59.66351546882947
 20
1818.688861158879
 30
0.0
 40
8.0
 41
0.0
 71
     5
 72
     1
  1
\A1;高さ65
 11
0.9999999998476914
 21
-0.000017453292519
 31
0.0
 73
     1
 44
1.0
1001
ACAD
1000
MTEXTBEGIN
1070
    73
1070
     1
1070
    44
1040
1.0
1070
    74
1070
     0
1000
MTEXTEND
  0
INSERT
  5
16401
330
16301
100
AcDbEntity
  8
Object
  6
HIDDEN2
 62
     0
370
    -2
100
AcDbBlockReference
  2
_Open30
 10
78.14986360385642
 20
1770.339265903346
 30
0.0
 41
8.0
 42
8.0
 43
8.0
 50
270.0
  0
INSERT
  5
16402
330
16301
100
AcDbEntity
  8
Object
  6
HIDDEN2
 62
     0
370
    -2
100
AcDbBlockReference
  2
_Open30
 10
78.14986360385645
 20
1867.839265903346
 30
0.0
 41
8.0
 42
8.0
 43
8.0
 50
90.0
  0
POINT
  5
16403
330
16301
100
AcDbEntity
  8
Defpoints
  6
HIDDEN2
 62
     0
100
AcDbPoint
 10
136.222774578221
 20
1770.339265903346
 30
0.0
  0
POINT
  5
16404
330
16301
100
AcDbEntity
  8
Defpoints
  6
HIDDEN2
 62
     0
100
AcDbPoint
 10
145.9727745782211
 20
1867.839265903346
 30
0.0
  0
POINT
  5
16405
330
16301
100
AcDbEntity
  8
Defpoints
  6
HIDDEN2
 62
     0
100
AcDbPoint
 10
78.14986360385645
 20
1867.839265903346
 30
0.0
  0
ENDBLK
  5
1630C
330
16301
100
AcDbEntity
  8
0
100
AcDbBlockEnd
  0
BLOCK
  5
16332
330
16328
100
AcDbEntity
  8
0
100
AcDbBlockBegin
  2
*D14
 70
     1
 10
0.0
 20
0.0
 30
0.0
  3
*D14
  1

  0
LINE
  5
16418
330
16328
100
AcDbEntity
  8
Object
  6
HIDDEN2
 62
     0
370
    -2
100
AcDbLine
 10
270.4872425107017
 20
1772.339265903346
 30
0.0
 11
270.4872425107017
 21
1751.128742768706
 31
0.0
  0
LINE
  5
16419
330
16328
100
AcDbEntity
  8
Object
  6
HIDDEN2
 62
     0
370
    -2
100
AcDbLine
 10
349.9872425107017
 20
1772.339265903346
 30
0.0
 11
349.9872425107017
 21
1751.128742768706
 31
0.0
  0
LINE
  5
1641A
330
16328
100
AcDbEntity
  8
Object
  6
HIDDEN2
 62
     0
370
    -2
100
AcDbLine
 10
278.4872425107017
 20
1752.128742768707
 30
0.0
 11
341.9872425107016
 21
1752.128742768707
 31
0.0
  0
INSERT
  5
1641B
330
16328
100
AcDbEntity
  8
Object
  6
HIDDEN2
 62
     0
370
    -2
100
AcDbBlockReference
  2
_Open30
 10
270.4872425107017
 20
1752.128742768707
 30
0.0
 41
8.0
 42
8.0
 43
8.0
 50
180.0
  0
INSERT
  5
1641C
330
16328
100
AcDbEntity
  8
Object
  6
HIDDEN2
 62
     0
370
    -2
100
AcDbBlockReference
  2
_Open30
 10
349.9872425107017
 20
1752.128742768707
 30
0.0
 41
8.0
 42
8.0
 43
8.0
  0
MTEXT
  5
1641D
330
16328
100
AcDbEntity
  8
Object
  6
HIDDEN2
 62
     0
100
AcDbMText
 10
310.2372425107017
 20
1759.798793530128
 30
0.0
 40
8.0
 41
0.0
 71
     5
 72
     1
  1
\A1;幅53
 73
     1
 44
1.0
1001
ACAD
1000
MTEXTBEGIN
1070
    73
1070
     1
1070
    44
1040
1.0
1070
    74
1070
     0
1000
MTEXTEND
  0
POINT
  5
1641E
330
16328
100
AcDbEntity
  8
Defpoints
  6
HIDDEN2
 62
     0
100
AcDbPoint
 10
270.4872425107017
 20
1773.339265903346
 30
0.0
  0
POINT
  5
1641F
330
16328
100
AcDbEntity
  8
Defpoints
  6
HIDDEN2
 62
     0
100
AcDbPoint
 10
349.9872425107017
 20
1773.339265903346
 30
0.0
  0
POINT
  5
16420
330
16328
100
AcDbEntity
  8
Defpoints
  6
HIDDEN2
 62
     0
100
AcDbPoint
 10
349.9872425107017
 20
1752.128742768707
 30
0.0
  0
ENDBLK
  5
16333
330
16328
100
AcDbEntity
  8
0
100
AcDbBlockEnd
  0
BLOCK
  5
1633E
330
16334
100
AcDbEntity
  8
0
100
AcDbBlockBegin
  2
*D15
 70
     1
 10
0.0
 20
0.0
 30
0.0
  3
*D15
  1

  0
LINE
  5
1640F
330
16334
100
AcDbEntity
  8
Object
  6
HIDDEN2
 62
     0
370
    -2
100
AcDbLine
 10
272.4872425107017
 20
1770.339265903346
 30
0.0
 11
254.2085159116101
 21
1770.339265903346
 31
0.0
  0
LINE
  5
16410
330
16334
100
AcDbEntity
  8
Object
  6
HIDDEN2
 62
     0
370
    -2
100
AcDbLine
 10
259.6945440114197
 20
1822.839265903347
 30
0.0
 11
254.2085159116101
 21
1822.839265903347
 31
0.0
  0
LINE
  5
16411
330
16334
100
AcDbEntity
  8
Object
  6
HIDDEN2
 62
     0
370
    -2
100
AcDbLine
 10
255.2085159116101
 20
1778.339265903346
 30
0.0
 11
255.2085159116101
 21
1814.839265903346
 31
0.0
  0
MTEXT
  5
16412
330
16334
100
AcDbEntity
  8
Object
  6
HIDDEN2
 62
     0
100
AcDbMText
 10
239.61707180603
 20
1796.894858789925
 30
0.0
 40
8.0
 41
0.0
 71
     5
 72
     1
  1
\A1;カブリ
 11
0.9999999998476914
 21
-0.000017453292519
 31
0.0
 73
     1
 44
1.0
1001
ACAD
1000
MTEXTBEGIN
1070
    73
1070
     1
1070
    44
1040
1.0
1070
    74
1070
     0
1000
MTEXTEND
  0
INSERT
  5
16413
330
16334
100
AcDbEntity
  8
Object
  6
HIDDEN2
 62
     0
370
    -2
100
AcDbBlockReference
  2
_Open30
 10
255.2085159116101
 20
1770.339265903346
 30
0.0
 41
8.0
 42
8.0
 43
8.0
 50
270.0
  0
INSERT
  5
16414
330
16334
100
AcDbEntity
  8
Object
  6
HIDDEN2
 62
     0
370
    -2
100
AcDbBlockReference
  2
_Open30
 10
255.2085159116101
 20
1822.839265903347
 30
0.0
 41
8.0
 42
8.0
 43
8.0
 50
90.0
  0
POINT
  5
16415
330
16334
100
AcDbEntity
  8
Defpoints
  6
HIDDEN2
 62
     0
100
AcDbPoint
 10
273.4872425107017
 20
1770.339265903346
 30
0.0
  0
POINT
  5
16416
330
16334
100
AcDbEntity
  8
Defpoints
  6
HIDDEN2
 62
     0
100
AcDbPoint
 10
260.6945440114198
 20
1822.839265903347
 30
0.0
  0
POINT
  5
16417
330
16334
100
AcDbEntity
  8
Defpoints
  6
HIDDEN2
 62
     0
100
AcDbPoint
 10
255.2085159116101
 20
1822.839265903347
 30
0.0
  0
ENDBLK
  5
1633F
330
16334
100
AcDbEntity
  8
0
100
AcDbBlockEnd
  0
ENDSEC
  0
SECTION
  2
ENTITIES
  0
LINE
  5
1628C
330
1F
100
AcDbEntity
  8
Object
100
AcDbLine
 10
133.2227745782211
 20
1815.339265903346
 30
0.0
 11
133.2227745782211
 21
1773.339265903346
 31
0.0
  0
LINE
  5
1628D
330
1F
100
AcDbEntity
  8
Object
100
AcDbLine
 10
212.7227745782211
 20
1815.339265903346
 30
0.0
 11
212.7227745782211
 21
1773.339265903346
 31
0.0
  0
LINE
  5
1628E
330
1F
100
AcDbEntity
  8
Object
100
AcDbLine
 10
145.9727745782211
 20
1867.839265903346
 30
0.0
 11
158.2840833463386
 21
1867.839265903346
 31
0.0
  0
LINE
  5
1628F
330
1F
100
AcDbEntity
  8
Object
100
AcDbLine
 10
199.9727745782211
 20
1815.339265903346
 30
0.0
 11
199.9727745782211
 21
1867.839265903346
 31
0.0
  0
LINE
  5
16290
330
1F
100
AcDbEntity
  8
Object
100
AcDbLine
 10
145.9727745782211
 20
1815.339265903346
 30
0.0
 11
145.9727745782211
 21
1867.839265903346
 31
0.0
  0
LINE
  5
16291
330
1F
100
AcDbEntity
  8
Object
100
AcDbLine
 10
150.4727745782211
 20
1819.839265903346
 30
0.0
 11
150.4727745782211
 21
1834.839265903346
 31
0.0
  0
LINE
  5
16292
330
1F
100
AcDbEntity
  8
Object
100
AcDbLine
 10
195.4727745782211
 20
1819.839265903346
 30
0.0
 11
195.4727745782211
 21
1834.839265903346
 31
0.0
  0
HATCH
  5
16293
330
1F
100
AcDbEntity
  8
塗潰し
100
AcDbHatch
 10
0.0
 20
0.0
 30
0.0
210
0.0
220
0.0
230
1.0
  2
ANSI31
 70
     0
 71
     1
 91
        1
 92
        7
 72
     1
 73
     1
 93
        8
 10
160.9727745782211
 20
1834.839265903346
 42
1.0
 10
184.9727745782211
 20
1834.839265903346
 42
0.2012459839043041
 10
181.3815583613023
 20
1843.400361352492
 42
-0.0317993364526231
 10
181.2368779973421
 20
1843.524446819205
 42
0.0136720564395264
 10
180.6943480801278
 20
1844.024977778571
 42
0.3644708068993105
 10
165.2512010763253
 20
1844.02497777858
 42
0.0136720564397938
 10
164.7086711591002
 20
1843.524446819205
 42
-0.0317993364529452
 10
164.5639907951384
 20
1843.40036135249
 42
0.201245983904261
 97
        5
330
162B0
330
162B7
330
162D8
330
16294
330
162B4
 75
     0
 76
     1
 52
0.0
 41
0.75
 77
     0
 78
     1
 53
44.99999999999999
 43
360.9557082666829
 44
-868.0443145321687
 45
-1.683798022700464
 46
1.683798022700465
 79
     0
 47
0.3134523906806445
 98
        1
 10
172.3276034372791
 20
1835.277411356221
1001
ACAD
1010
0.0
1020
0.0
1030
0.0
  0
ARC
  5
16294
102
{ACAD_REACTORS
330
16293
102
}
330
1F
100
AcDbEntity
  8
Object
100
AcDbCircle
 10
174.1306699478011
 20
1833.856151270055
 30
0.0
 40
13.5
100
AcDbArc
 50
120.7391704772685
 51
134.2608295227365
  0
LINE
  5
16295
330
1F
100
AcDbEntity
  8
Object
100
AcDbLine
 10
133.2227745782211
 20
1815.339265903346
 30
0.0
 11
145.9727745782211
 21
1815.339265903346
 31
0.0
  0
LINE
  5
16296
330
1F
100
AcDbEntity
  8
Object
100
AcDbLine
 10
150.4727745782211
 20
1863.339265903346
 30
0.0
 11
156.2448006119268
 21
1863.339265903346
 31
0.0
  0
LINE
  5
16297
330
1F
100
AcDbEntity
  8
Object
100
AcDbLine
 10
190.9727745782211
 20
1773.339265903346
 30
0.0
 11
190.9727745782211
 21
1781.589265903346
 31
0.0
  0
LINE
  5
16298
330
1F
100
AcDbEntity
  8
Object
100
AcDbLine
 10
154.9727745782211
 20
1773.339265903346
 30
0.0
 11
154.9727745782211
 21
1781.589265903346
 31
0.0
  0
LINE
  5
16299
330
1F
100
AcDbEntity
  8
Object
100
AcDbLine
 10
133.2227745782211
 20
1773.339265903346
 30
0.0
 11
154.9727745782211
 21
1773.339265903346
 31
0.0
  0
ARC
  5
1629A
330
1F
100
AcDbEntity
  8
Object
100
AcDbCircle
 10
172.9727745782211
 20
1781.589265903346
 30
0.0
 40
17.99999999999997
100
AcDbArc
 50
0.0
 51
180.0
  0
LINE
  5
1629B
330
1F
100
AcDbEntity
  8
Object
100
AcDbLine
 10
190.9727745782211
 20
1773.339265903346
 30
0.0
 11
212.7227745782211
 21
1773.339265903346
 31
0.0
  0
LINE
  5
1629C
330
1F
100
AcDbEntity
  8
Object
100
AcDbLine
 10
167.8231720309435
 20
1847.382624203856
 30
0.0
 11
158.2840833463386
 21
1867.839265903346
 31
0.0
  0
LINE
  5
1629D
330
1F
100
AcDbEntity
  8
Object
100
AcDbLine
 10
187.6614658101035
 20
1867.839265903346
 30
0.0
 11
199.9727745782211
 21
1867.839265903346
 31
0.0
  0
LINE
  5
1629E
330
1F
100
AcDbEntity
  8
Object
100
AcDbLine
 10
189.7007485445153
 20
1863.339265903346
 30
0.0
 11
195.4727745782211
 21
1863.339265903346
 31
0.0
  0
LINE
  5
1629F
330
1F
100
AcDbEntity
  8
Object
100
AcDbLine
 10
163.6161984126895
 20
1847.531252305782
 30
0.0
 11
156.2448006119268
 21
1863.339265903346
 31
0.0
  0
LINE
  5
162A0
330
1F
100
AcDbEntity
  8
Object
100
AcDbLine
 10
183.247948166172
 20
1843.449635215544
 30
0.0
 11
183.8252370857562
 21
1843.934038135049
 31
0.0
  0
LINE
  5
162A1
330
1F
100
AcDbEntity
  8
Object
100
AcDbLine
 10
182.3293507437529
 20
1847.531252305782
 30
0.0
 11
189.7007485445154
 21
1863.339265903346
 31
0.0
  0
LINE
  5
162A2
330
1F
100
AcDbEntity
  8
Object
100
AcDbLine
 10
185.7227745782211
 20
1839.339265903346
 30
0.0
 11
195.4727745782211
 21
1839.339265903346
 31
0.0
  0
LINE
  5
162A3
330
1F
100
AcDbEntity
  8
Object
100
AcDbLine
 10
190.2227745782211
 20
1834.839265903346
 30
0.0
 11
195.4727745782211
 21
1834.839265903346
 31
0.0
  0
LINE
  5
162A4
330
1F
100
AcDbEntity
  8
Object
100
AcDbLine
 10
155.7227745782211
 20
1834.839265903346
 30
0.0
 11
150.4727745782211
 21
1834.839265903346
 31
0.0
  0
LINE
  5
162A5
330
1F
100
AcDbEntity
  8
Object
100
AcDbLine
 10
145.9727745782211
 20
1819.839265903346
 30
0.0
 11
199.9727745782211
 21
1819.839265903346
 31
0.0
  0
LINE
  5
162A6
330
1F
100
AcDbEntity
  8
Object
100
AcDbLine
 10
150.4727745782211
 20
1839.339265903346
 30
0.0
 11
150.4727745782211
 21
1863.339265903346
 31
0.0
  0
LINE
  5
162A7
330
1F
100
AcDbEntity
  8
Object
100
AcDbLine
 10
195.4727745782211
 20
1839.339265903346
 30
0.0
 11
195.4727745782211
 21
1863.339265903346
 31
0.0
  0
LINE
  5
162A8
330
1F
100
AcDbEntity
  8
Object
100
AcDbLine
 10
199.9727745782211
 20
1815.339265903346
 30
0.0
 11
212.7227745782211
 21
1815.339265903346
 31
0.0
  0
ARC
  5
162A9
330
1F
100
AcDbEntity
  8
Object
100
AcDbCircle
 10
209.7227745782212
 20
1773.339265903346
 30
0.0
 40
3.0
100
AcDbArc
 50
180.0
 51
0.0
  0
ARC
  5
162AA
330
1F
100
AcDbEntity
  8
Object
100
AcDbCircle
 10
198.4727745782211
 20
1773.339265903346
 30
0.0
 40
3.0
100
AcDbArc
 50
180.0
 51
0.0
  0
ARC
  5
162AB
330
1F
100
AcDbEntity
  8
Object
100
AcDbCircle
 10
147.4727745782211
 20
1773.339265903346
 30
0.0
 40
3.0
100
AcDbArc
 50
180.0
 51
0.0
  0
ARC
  5
162AC
330
1F
100
AcDbEntity
  8
Object
100
AcDbCircle
 10
136.222774578221
 20
1773.339265903346
 30
0.0
 40
3.0
100
AcDbArc
 50
180.0
 51
0.0
  0
ARC
  5
162AD
330
1F
100
AcDbEntity
  8
Object
100
AcDbCircle
 10
174.1306699478011
 20
1833.856151270055
 30
0.0
 40
17.25
100
AcDbArc
 50
127.5558577985826
 51
134.5349762000956
  0
LINE
  5
162AE
330
1F
100
AcDbEntity
  8
Object
100
AcDbLine
 10
187.6614658101035
 20
1867.839265903346
 30
0.0
 11
178.1223771254982
 21
1847.382624203856
 31
0.0
  0
ARC
  5
162AF
330
1F
100
AcDbEntity
  8
Object
100
AcDbCircle
 10
182.8610556712263
 20
1845.083104799728
 30
0.0
 40
1.5
100
AcDbArc
 50
310.0000000000003
 51
45.46502379990396
  0
ARC
  5
162B0
102
{ACAD_REACTORS
330
16293
102
}
330
1F
100
AcDbEntity
  8
Object
100
AcDbCircle
 10
182.2837667516422
 20
1844.598701880222
 30
0.0
 40
1.5
100
AcDbArc
 50
225.7391704772678
 51
310.0000000000001
  0
ARC
  5
162B1
330
1F
100
AcDbEntity
  8
Object
100
AcDbCircle
 10
179.4818388060536
 20
1846.748696811245
 30
0.0
 40
1.5
100
AcDbArc
 50
155.0000000000073
 51
239.2608295227315
  0
ARC
  5
162B2
330
1F
100
AcDbEntity
  8
Object
100
AcDbCircle
 10
166.4637103503887
 20
1846.748696811245
 30
0.0
 40
1.5
100
AcDbArc
 50
300.7391704772663
 51
24.99999999999265
  0
ARC
  5
162B3
330
1F
100
AcDbEntity
  8
Object
100
AcDbCircle
 10
163.084493485216
 20
1845.083104799728
 30
0.0
 40
1.5
100
AcDbArc
 50
134.5349762000958
 51
229.9999999999978
  0
ARC
  5
162B4
102
{ACAD_REACTORS
330
16293
102
}
330
1F
100
AcDbEntity
  8
Object
100
AcDbCircle
 10
163.6617824048
 20
1844.598701880222
 30
0.0
 40
1.5
100
AcDbArc
 50
229.9999999999999
 51
314.2608295227322
  0
LINE
  5
162B5
330
1F
100
AcDbEntity
  8
Object
100
AcDbLine
 10
162.6976009902703
 20
1843.449635215544
 30
0.0
 11
162.1203120706861
 21
1843.934038135049
 31
0.0
  0
ARC
  5
162B6
330
1F
100
AcDbEntity
  8
Object
100
AcDbCircle
 10
185.7227745782211
 20
1838.589265903346
 30
0.0
 40
0.75
100
AcDbArc
 50
90.0
 51
180.0
  0
ARC
  5
162B7
102
{ACAD_REACTORS
330
16293
102
}
330
1F
100
AcDbEntity
  8
Object
100
AcDbCircle
 10
171.8148792086412
 20
1833.856151270055
 30
0.0
 40
13.5
100
AcDbArc
 50
45.73917047726342
 51
59.26082952273144
  0
ARC
  5
162B8
330
1F
100
AcDbEntity
  8
Object
100
AcDbCircle
 10
171.8148792086412
 20
1833.856151270055
 30
0.0
 40
17.25
100
AcDbArc
 50
45.46502379990434
 51
52.4441422014174
  0
LINE
  5
162B9
330
1F
100
AcDbEntity
  8
Object
100
AcDbLine
 10
270.4872425107017
 20
1815.339265903346
 30
0.0
 11
349.9872425107018
 21
1815.339265903346
 31
0.0
  0
LINE
  5
162BA
330
1F
100
AcDbEntity
  8
Object
100
AcDbLine
 10
270.4872425107017
 20
1773.339265903346
 30
0.0
 11
292.2372425107017
 21
1773.339265903346
 31
0.0
  0
LINE
  5
162BB
102
{ACAD_REACTORS
330
162E1
102
}
330
1F
100
AcDbEntity
  8
Object
100
AcDbLine
 10
270.4872425107017
 20
1819.839265903346
 30
0.0
 11
270.4872425107017
 21
1773.339265903346
 31
0.0
  0
ARC
  5
162BC
102
{ACAD_REACTORS
330
162E4
102
}
330
1F
100
AcDbEntity
  8
Object
100
AcDbCircle
 10
273.4872425107017
 20
1773.339265903346
 30
0.0
 40
3.0
100
AcDbArc
 50
180.0
 51
0.0
  0
LINE
  5
162BD
330
1F
100
AcDbEntity
  8
Object
100
AcDbLine
 10
349.9872425107017
 20
1819.839265903346
 30
0.0
 11
349.9872425107017
 21
1773.339265903346
 31
0.0
  0
LINE
  5
162BE
330
1F
100
AcDbEntity
  8
Object
100
AcDbLine
 10
328.2372425107017
 20
1773.339265903346
 30
0.0
 11
349.9872425107017
 21
1773.339265903346
 31
0.0
  0
LINE
  5
162BF
330
1F
100
AcDbEntity
  8
Object
100
AcDbLine
 10
328.2372425107017
 20
1773.339265903346
 30
0.0
 11
328.2372425107017
 21
1781.589265903346
 31
0.0
  0
LINE
  5
162C0
330
1F
100
AcDbEntity
  8
Object
100
AcDbLine
 10
292.2372425107017
 20
1773.339265903346
 30
0.0
 11
292.2372425107017
 21
1781.589265903346
 31
0.0
  0
ARC
  5
162C1
330
1F
100
AcDbEntity
  8
Object
100
AcDbCircle
 10
284.7372425107017
 20
1773.339265903346
 30
0.0
 40
3.0
100
AcDbArc
 50
180.0
 51
0.0
  0
ARC
  5
162C2
330
1F
100
AcDbEntity
  8
Object
100
AcDbCircle
 10
310.2372425107017
 20
1781.589265903346
 30
0.0
 40
17.99999999999997
100
AcDbArc
 50
0.0
 51
180.0
  0
ARC
  5
162C3
330
1F
100
AcDbEntity
  8
Object
100
AcDbCircle
 10
335.7372425107016
 20
1773.339265903346
 30
0.0
 40
3.0
100
AcDbArc
 50
180.0
 51
0.0
  0
ARC
  5
162C4
102
{ACAD_REACTORS
330
162E1
102
}
330
1F
100
AcDbEntity
  8
Object
100
AcDbCircle
 10
346.9872425107017
 20
1773.339265903346
 30
0.0
 40
3.0
100
AcDbArc
 50
180.0
 51
0.0
  0
LINE
  5
162C5
330
1F
100
AcDbEntity
  8
Object
100
AcDbLine
 10
270.4872425107017
 20
1819.839265903346
 30
0.0
 11
281.7372425107016
 21
1819.839265903346
 31
0.0
  0
LINE
  5
162C6
330
1F
100
AcDbEntity
  8
Object
100
AcDbLine
 10
326.7372425107017
 20
1867.839265903346
 30
0.0
 11
338.7372425107018
 21
1867.839265903346
 31
0.0
  0
LINE
  5
162C7
330
1F
100
AcDbEntity
  8
Object
100
AcDbLine
 10
281.7372425107016
 20
1867.839265903346
 30
0.0
 11
293.7372425107017
 21
1867.839265903346
 31
0.0
  0
LINE
  5
162C8
330
1F
100
AcDbEntity
  8
Object
100
AcDbLine
 10
338.7372425107018
 20
1819.839265903346
 30
0.0
 11
349.9872425107017
 21
1819.839265903346
 31
0.0
  0
HATCH
  5
162C9
330
1F
100
AcDbEntity
  8
塗潰し
100
AcDbHatch
 10
0.0
 20
0.0
 30
0.0
210
0.0
220
0.0
230
1.0
  2
ANSI31
 70
     0
 71
     1
 91
        3
 92
        7
 72
     1
 73
     1
 93
        5
 10
240.6242073704604
 20
1846.839265903345
 42
0.3729674085950696
 10
243.2235994452591
 20
1834.839265903346
 42
-0.3729674085950973
 10
245.8229915200573
 20
1822.839265903346
 42
0.0
 10
281.7372425107016
 20
1822.839265903346
 42
0.0
 10
281.7372425107016
 20
1846.839265903346
 42
0.0
 97
        5
330
162D0
330
162E8
330
162E7
330
162CF
330
162CB
 92
        7
 72
     1
 73
     1
 93
        4
 10
293.7372425107017
 20
1846.839265903346
 42
0.0
 10
293.7372425107017
 20
1839.339265903346
 42
1.0
 10
326.7372425107018
 20
1839.339265903346
 42
0.0
 10
326.7372425107017
 20
1846.839265903348
 42
0.0
 97
        4
330
162CC
330
162D1
330
162CD
330
162D2
 92
        7
 72
     1
 73
     1
 93
        5
 10
338.7372425107018
 20
1822.839265903346
 42
0.0
 10
374.6514935013459
 20
1822.839265903346
 42
-0.3729674085950829
 10
377.2508855761436
 20
1834.839265903346
 42
0.3729674085951128
 10
379.8502776509422
 20
1846.839265903346
 42
0.0
 10
338.7372425107018
 20
1846.839265903346
 42
0.0
 97
        5
330
162D7
330
162CA
330
162D6
330
162E5
330
162E6
 75
     0
 76
     1
 52
0.0
 41
0.75
 77
     0
 78
     1
 53
44.99999999999999
 43
360.9557082666829
 44
-868.0443145321687
 45
-1.683798022700464
 46
1.683798022700465
 79
     0
 47
0.1910048809937548
 98
        3
 10
270.5351207689567
 20
1840.479771026435
 10
305.2109554180262
 20
1837.901205444415
 10
346.7646420704472
 20
1835.609147029605
1001
ACAD
1010
0.0
1020
0.0
1030
0.0
  0
LINE
  5
162CA
102
{ACAD_REACTORS
330
162C9
102
}
330
1F
100
AcDbEntity
  8
Object
100
AcDbLine
 10
338.7372425107018
 20
1819.839265903346
 30
0.0
 11
338.7372425107018
 21
1867.839265903346
 31
0.0
  0
LINE
  5
162CB
102
{ACAD_REACTORS
330
162C9
102
}
330
1F
100
AcDbEntity
  8
Object
100
AcDbLine
 10
281.7372425107016
 20
1819.839265903346
 30
0.0
 11
281.7372425107016
 21
1867.839265903346
 31
0.0
  0
LINE
  5
162CC
102
{ACAD_REACTORS
330
162C9
102
}
330
1F
100
AcDbEntity
  8
Object
100
AcDbLine
 10
326.7372425107018
 20
1839.339265903346
 30
0.0
 11
326.7372425107017
 21
1867.839265903346
 31
0.0
  0
LINE
  5
162CD
102
{ACAD_REACTORS
330
162C9
102
}
330
1F
100
AcDbEntity
  8
Object
100
AcDbLine
 10
293.7372425107017
 20
1839.339265903346
 30
0.0
 11
293.7372425107017
 21
1867.839265903346
 31
0.0
  0
LINE
  5
162CE
330
1F
100
AcDbEntity
  8
Object
100
AcDbLine
 10
326.7372425107017
 20
1867.839265903346
 30
0.0
 11
338.7372425107018
 21
1867.839265903346
 31
0.0
  0
LINE
  5
162CF
102
{ACAD_REACTORS
330
162C9
102
}
330
1F
100
AcDbEntity
  8
Object
100
AcDbLine
 10
245.8229915200572
 20
1822.839265903346
 30
0.0
 11
281.7372425107016
 21
1822.839265903346
 31
0.0
  0
LINE
  5
162D0
102
{ACAD_REACTORS
330
162C9
102
}
330
1F
100
AcDbEntity
  8
Object
100
AcDbLine
 10
240.6242073704603
 20
1846.839265903345
 30
0.0
 11
281.7372425107016
 21
1846.839265903346
 31
0.0
  0
LINE
  5
162D1
102
{ACAD_REACTORS
330
162C9
102
}
330
1F
100
AcDbEntity
  8
Object
100
AcDbLine
 10
293.7372425107017
 20
1846.839265903346
 30
0.0
 11
326.7372425107018
 21
1846.839265903348
 31
0.0
  0
ARC
  5
162D2
102
{ACAD_REACTORS
330
162C9
102
}
330
1F
100
AcDbEntity
  8
Object
100
AcDbCircle
 10
310.2372425107017
 20
1839.339265903346
 30
0.0
 40
16.49999999999996
100
AcDbArc
 50
180.0
 51
0.0
  0
DIMENSION
  5
162D3
330
1F
100
AcDbEntity
  8
Object
  6
HIDDEN2
100
AcDbDimension
  2
*D11
 10
212.7227745782211
 20
1752.128742768707
 30
0.0
 11
172.9727745782211
 21
1759.798793530128
 31
0.0
 70
    32
  1
幅53
 71
     5
 42
79.5
  3
JIS
100
AcDbAlignedDimension
 13
133.2227745782211
 23
1773.339265903346
 33
0.0
 14
212.7227745782211
 24
1773.339265903346
 34
0.0
100
AcDbRotatedDimension
1001
ACAD
1000
DSTYLE
1002
{
1070
   140
1040
8.0
1070
    41
1040
8.0
1070
   147
1040
3.0
1002
}
  0
DIMENSION
  5
162D4
330
1F
100
AcDbEntity
  8
Object
  6
HIDDEN2
100
AcDbDimension
  2
*D12
 10
115.375910589147
 20
1770.339265903346
 30
0.0
 11
100.7384484514696
 21
1796.894858789925
 31
0.0
 70
   160
  1
カブリ
 71
     5
 42
52.5
 53
359.999
  3
JIS
100
AcDbAlignedDimension
 13
172.9727745782211
 23
1822.839265903346
 33
0.0
 14
209.7227745782212
 24
1770.339265903346
 34
0.0
 50
90.0
100
AcDbRotatedDimension
1001
ACAD
1000
DSTYLE
1002
{
1070
   147
1040
3.0
1070
   140
1040
8.0
1070
    41
1040
8.0
1070
   279
1070
     2
1002
}
  0
DIMENSION
  5
162D5
330
1F
100
AcDbEntity
  8
Object
  6
HIDDEN2
100
AcDbDimension
  2
*D13
 10
78.14986360385645
 20
1867.839265903346
 30
0.0
 11
59.66351546882947
 21
1818.688861158879
 31
0.0
 70
   160
  1
高さ65
 71
     5
 42
97.5
 53
359.999
  3
JIS
100
AcDbAlignedDimension
 13
136.222774578221
 23
1770.339265903346
 33
0.0
 14
145.9727745782211
 24
1867.839265903346
 34
0.0
 50
90.0
100
AcDbRotatedDimension
1001
ACAD
1000
DSTYLE
1002
{
1070
   147
1040
3.0
1070
   140
1040
8.0
1070
    41
1040
8.0
1070
   279
1070
     2
1002
}
  0
LINE
  5
162D6
102
{ACAD_REACTORS
330
162C9
102
}
330
1F
100
AcDbEntity
  8
Object
100
AcDbLine
 10
374.6514935013462
 20
1822.839265903346
 30
0.0
 11
338.7372425107017
 21
1822.839265903346
 31
0.0
  0
LINE
  5
162D7
102
{ACAD_REACTORS
330
162C9
102
}
330
1F
100
AcDbEntity
  8
Object
100
AcDbLine
 10
379.8502776509428
 20
1846.839265903346
 30
0.0
 11
338.7372425107021
 21
1846.839265903346
 31
0.0
  0
CIRCLE
  5
162D8
102
{ACAD_REACTORS
330
16293
102
}
330
1F
100
AcDbEntity
  8
Object
100
AcDbCircle
 10
172.9727745782211
 20
1834.839265903346
 30
0.0
 40
12.0
  0
ARC
  5
162D9
330
1F
100
AcDbEntity
  8
Object
100
AcDbCircle
 10
172.9727745782211
 20
1834.839265903346
 30
0.0
 40
17.25
100
AcDbArc
 50
180.0000000000043
 51
240.4081542060515
  0
ARC
  5
162DA
330
1F
100
AcDbEntity
  8
Object
100
AcDbCircle
 10
172.9727745782211
 20
1834.839265903346
 30
0.0
 40
17.25
100
AcDbArc
 50
299.5918457939485
 51
0.0
  0
LINE
  5
162DB
330
1F
100
AcDbEntity
  8
Object
100
AcDbLine
 10
184.9727745782211
 20
1834.839265903346
 30
0.0
 11
184.9727745782211
 21
1838.589265903346
 31
0.0
  0
LINE
  5
162DC
330
1F
100
AcDbEntity
  8
Object
100
AcDbLine
 10
160.2227745782211
 20
1839.339265903346
 30
0.0
 11
150.4727745782212
 21
1839.339265903346
 31
0.0
  0
ARC
  5
162DD
330
1F
100
AcDbEntity
  8
Object
100
AcDbCircle
 10
160.2227745782211
 20
1838.589265903346
 30
0.0
 40
0.75
100
AcDbArc
 50
0.0
 51
90.0
  0
LINE
  5
162DE
330
1F
100
AcDbEntity
  8
Object
100
AcDbLine
 10
160.9727745782211
 20
1834.839265903346
 30
0.0
 11
160.9727745782211
 21
1838.589265903346
 31
0.0
  0
DIMENSION
  5
162DF
102
{ACAD_XDICTIONARY
360
162E0
102
}
102
{ACAD_REACTORS
330
162E1
102
}
330
1F
100
AcDbEntity
  8
Object
  6
HIDDEN2
100
AcDbDimension
  2
*D14
 10
349.9872425107017
 20
1752.128742768707
 30
0.0
 11
310.2372425107017
 21
1759.798793530128
 31
0.0
 70
    32
  1
幅53
 71
     5
 42
79.5
  3
JIS
100
AcDbAlignedDimension
 13
270.4872425107017
 23
1773.339265903346
 33
0.0
 14
349.9872425107017
 24
1773.339265903346
 34
0.0
100
AcDbRotatedDimension
1001
ACAD
1000
DSTYLE
1002
{
1070
   140
1040
8.0
1070
    41
1040
8.0
1070
   147
1040
3.0
1002
}
  0
DIMENSION
  5
162E2
102
{ACAD_XDICTIONARY
360
162E3
102
}
102
{ACAD_REACTORS
330
162E4
102
}
330
1F
100
AcDbEntity
  8
Object
  6
HIDDEN2
100
AcDbDimension
  2
*D15
 10
255.2085159116101
 20
1822.839265903347
 30
0.0
 11
239.61707180603
 21
1796.894858789925
 31
0.0
 70
   160
  1
カブリ
 71
     5
 42
52.50000000000046
 53
359.999
  3
JIS
100
AcDbAlignedDimension
 13
273.4872425107017
 23
1770.339265903346
 33
0.0
 14
260.6945440114198
 24
1822.839265903347
 34
0.0
 50
90.0
100
AcDbRotatedDimension
1001
ACAD
1000
DSTYLE
1002
{
1070
   147
1040
3.0
1070
   140
1040
8.0
1070
    41
1040
8.0
1070
   279
1070
     2
1002
}
  0
ARC
  5
162E5
102
{ACAD_REACTORS
330
162C9
102
}
330
1F
100
AcDbEntity
  8
Object
100
AcDbCircle
 10
382.8758855761445
 20
1827.339265903346
 30
0.0
 40
9.375000000000476
100
AcDbArc
 50
126.8698976458488
 51
233.1301023541529
  0
ARC
  5
162E6
102
{ACAD_REACTORS
330
162C9
102
}
330
1F
100
AcDbEntity
  8
Object
100
AcDbCircle
 10
371.6258855761445
 20
1842.339265903346
 30
0.0
 40
9.375000000000067
100
AcDbArc
 50
306.8698976458469
 51
53.13010235415295
  0
ARC
  5
162E7
102
{ACAD_REACTORS
330
162C9
102
}
330
1F
100
AcDbEntity
  8
Object
100
AcDbCircle
 10
237.598599445259
 20
1827.339265903346
 30
0.0
 40
9.375000000000476
100
AcDbArc
 50
306.8698976458469
 51
53.1301023541512
  0
ARC
  5
162E8
102
{ACAD_REACTORS
330
162C9
102
}
330
1F
100
AcDbEntity
  8
Object
100
AcDbCircle
 10
248.848599445259
 20
1842.339265903346
 30
0.0
 40
9.375000000000067
100
AcDbArc
 50
126.8698976458468
 51
233.1301023541531
  0
VIEWPORT
  5
1646B
102
{ACAD_XDICTIONARY
360
164A4
102
}
330
1646A
100
AcDbEntity
 67
     1
  8
0
100
AcDbViewport
 10
144.3867487717525
 20
67.85733421192586
 30
0.0
 40
589.9013278188881
 41
379.5886805095455
 68
     1
 69
     1
 12
144.3867487717525
 22
67.85733421192586
 13
0.0
 23
0.0
 14
10.0
 24
10.0
 15
10.0
 25
10.0
 16
0.0
 26
0.0
 36
1.0
 17
0.0
 27
0.0
 37
0.0
 42
50.0
 43
0.0
 44
0.0
 45
379.5886805095455
 50
0.0
 51
0.0
 72
  1000
 90
   557152
  1

281
     0
 71
     1
 74
     0
110
0.0
120
0.0
130
0.0
111
1.0
121
0.0
131
0.0
112
0.0
122
1.0
132
0.0
 79
     0
146
0.0
  0
LWPOLYLINE
  5
1646C
102
{ACAD_REACTORS
330
1646D
102
}
330
1646A
100
AcDbEntity
 67
     1
  8
Viewport
100
AcDbPolyline
 90
        8
 70
     1
 43
0.0
 10
12.5
 20
202.0
 10
284.5
 20
202.0
 10
284.4978723404242
 20
34.0
 10
167.4978723404242
 20
34.0
 10
167.4978723404242
 20
7.0
 10
129.5
 20
7.0
 10
12.5
 20
7.0
 10
12.5
 20
31.0
  0
VIEWPORT
  5
1646D
102
{ACAD_XDICTIONARY
360
164A6
102
}
330
1646A
100
AcDbEntity
 67
     1
  8
Viewport
100
AcDbViewport
 10
148.5
 20
104.5
 30
0.0
 40
272.0000000000001
 41
195.0
 68
     2
 69
     2
 12
224.1076662795634
 22
1809.024672721961
 13
0.0
 23
0.0
 14
10.0
 24
10.0
 15
10.0
 25
10.0
 16
0.0
 26
0.0
 36
1.0
 17
0.0
 27
0.0
 37
0.0
 42
50.0
 43
0.0
 44
0.0
 45
389.9999970821829
 50
0.0
 51
0.0
 72
   100
 90
    98368
340
1646C
  1

281
     0
 71
     1
 74
     0
110
0.0
120
0.0
130
0.0
111
1.0
121
0.0
131
0.0
112
0.0
122
1.0
132
0.0
 79
     0
146
0.0
  0
MTEXT
  5
1646E
330
1646A
100
AcDbEntity
 67
     1
  8
Object
370
    -3
100
AcDbMText
 10
210.3658983955936
 20
23.21575311321772
 30
0.0
 40
5.0
 41
77.0
 71
     4
 72
     5
  1
Ｍスラブ
 73
     1
 44
1.0
1001
AcDbBlockRepETag
1070
     1
1071
       68
1005
1646E
1001
ACAD
1000
MTEXTBEGIN
1070
    73
1070
     1
1070
    44
1040
1.0
1070
    74
1070
     0
1000
MTEXTEND
  0
LINE
  5
1646F
330
1646A
100
AcDbEntity
 67
     1
  8
0
100
AcDbLine
 10
12.5
 20
7.0
 30
0.0
 11
12.5
 21
202.0
 31
0.0
1001
AcDbBlockRepETag
1070
     1
1071
        2
1005
1646F
  0
LINE
  5
16470
330
1646A
100
AcDbEntity
 67
     1
  8
0
100
AcDbLine
 10
25.0
 20
0.0
 30
0.0
 11
0.0
 21
0.0
 31
0.0
1001
AcDbBlockRepETag
1070
     1
1071
        3
1005
16470
  0
LINE
  5
16471
330
1646A
100
AcDbEntity
 67
     1
  8
0
100
AcDbLine
 10
0.0
 20
0.0
 30
0.0
 11
0.0
 21
10.0
 31
0.0
1001
AcDbBlockRepETag
1070
     1
1071
        4
1005
16471
  0
LINE
  5
16472
330
1646A
100
AcDbEntity
 67
     1
  8
0
100
AcDbLine
 10
148.5
 20
6.0
 30
0.0
 11
148.5
 21
5.0
 31
0.0
1001
AcDbBlockRepETag
1070
     1
1071
       20
1005
16472
  0
LINE
  5
16473
330
1646A
100
AcDbEntity
 67
     1
  8
0
100
AcDbLine
 10
0.0
 20
210.0
 30
0.0
 11
25.0
 21
210.0
 31
0.0
1001
AcDbBlockRepETag
1070
     1
1071
       23
1005
16473
  0
LINE
  5
16474
330
1646A
100
AcDbEntity
 67
     1
  8
0
100
AcDbLine
 10
0.0
 20
200.0
 30
0.0
 11
0.0
 21
210.0
 31
0.0
1001
AcDbBlockRepETag
1070
     1
1071
       24
1005
16474
  0
LINE
  5
16475
330
1646A
100
AcDbEntity
 67
     1
  8
0
100
AcDbLine
 10
284.5
 20
202.0
 30
0.0
 11
284.5
 21
7.0
 31
0.0
1001
AcDbBlockRepETag
1070
     1
1071
       36
1005
16475
  0
LINE
  5
16476
330
1646A
100
AcDbEntity
 67
     1
  8
0
100
AcDbLine
 10
297.0
 20
10.0
 30
0.0
 11
297.0
 21
0.0
 31
0.0
1001
AcDbBlockRepETag
1070
     1
1071
       40
1005
16476
  0
LINE
  5
16477
330
1646A
100
AcDbEntity
 67
     1
  8
0
100
AcDbLine
 10
297.0
 20
210.0
 30
0.0
 11
297.0
 21
200.0
 31
0.0
1001
AcDbBlockRepETag
1070
     1
1071
       54
1005
16477
  0
LINE
  5
16478
330
1646A
100
AcDbEntity
 67
     1
  8
0
100
AcDbLine
 10
272.0
 20
210.0
 30
0.0
 11
297.0
 21
210.0
 31
0.0
1001
AcDbBlockRepETag
1070
     1
1071
       55
1005
16478
  0
LINE
  5
16479
330
1646A
100
AcDbEntity
 67
     1
  8
0
100
AcDbLine
 10
272.0
 20
0.0
 30
0.0
 11
297.0
 21
0.0
 31
0.0
1001
AcDbBlockRepETag
1070
     1
1071
       56
1005
16479
  0
LINE
  5
1647A
330
1646A
100
AcDbEntity
 67
     1
  8
0
100
AcDbLine
 10
284.5
 20
7.0
 30
0.0
 11
12.5
 21
7.0
 31
0.0
1001
AcDbBlockRepETag
1070
     1
1071
       57
1005
0
  0
LINE
  5
1647B
330
1646A
100
AcDbEntity
 67
     1
  8
0
100
AcDbLine
 10
12.5
 20
202.0
 30
0.0
 11
284.5
 21
202.0
 31
0.0
1001
AcDbBlockRepETag
1070
     1
1071
       58
1005
0
  0
LINE
  5
1647C
330
1646A
100
AcDbEntity
 67
     1
  8
0
 62
     0
380
     1
100
AcDbLine
 10
284.5
 20
7.0
 30
0.0
 11
284.5
 21
43.0
 31
0.0
1001
AcDbBlockRepETag
1070
     1
1071
       49
1005
1647C
  0
LINE
  5
1647D
330
1646A
100
AcDbEntity
 67
     1
  8
0
100
AcDbLine
 10
284.4978723404242
 20
16.0
 30
0.0
 11
167.4978723404242
 21
16.0
 31
0.0
1001
AcDbBlockRepETag
1070
     1
1071
      166
1005
1647D
  0
LINE
  5
1647E
330
1646A
100
AcDbEntity
 67
     1
  8
0
100
AcDbLine
 10
218.4978723404242
 20
7.0
 30
0.0
 11
218.4978723404242
 21
16.0
 31
0.0
1001
AcDbBlockRepETag
1070
     1
1071
      167
1005
1647E
  0
LINE
  5
1647F
330
1646A
100
AcDbEntity
 67
     1
  8
0
100
AcDbLine
 10
284.4978723404242
 20
34.0
 30
0.0
 11
167.4978723404242
 21
34.0
 31
0.0
1001
AcDbBlockRepETag
1070
     1
1071
      169
1005
1647F
  0
MTEXT
  5
16480
330
1646A
100
AcDbEntity
 67
     1
  8
0
100
AcDbMText
 10
192.9978723404242
 20
11.5
 30
0.0
 40
4.0
 41
51.0
 71
     5
 72
     5
  1
富国石油株式会社
 73
     1
 44
1.0
1001
AcDbBlockRepETag
1070
     1
1071
      171
1005
16480
1001
ACAD
1000
MTEXTBEGIN
1070
    73
1070
     1
1070
    44
1040
1.0
1070
    74
1070
     0
1000
MTEXTEND
  0
LINE
  5
16481
330
1646A
100
AcDbEntity
 67
     1
  8
0
  6
HIDDEN2
 48
0.5
100
AcDbLine
 10
284.4978723404242
 20
29.5
 30
0.0
 11
167.4978723404242
 21
29.5
 31
0.0
1001
AcDbBlockRepETag
1070
     1
1071
      180
1005
16481
  0
ENDSEC
  0
SECTION
  2
OBJECTS
  0
DICTIONARY
  5
C
330
0
100
AcDbDictionary
281
     1
  3
ACAD_COLOR
350
14D
  3
ACAD_GROUP
350
D
  3
ACAD_LAYOUT
350
1A
  3
ACAD_MATERIAL
350
14C
  3
ACAD_MLINESTYLE
350
17
  3
ACAD_PLOTSETTINGS
350
19
  3
ACAD_PLOTSTYLENAME
350
E
  3
ACAD_TABLESTYLE
350
17B
  3
ACAD_VISUALSTYLE
350
1D3
  3
AcadDim
350
2C28
  3
AcDbVariableDictionary
350
148
  3
DWGPROPS
350
1648A
  0
DICTIONARY
  5
18A
330
2
100
AcDbDictionary
280
     1
281
     1
  3
ACAD_LAYERFILTERS
360
463
  3
ACAD_LAYERSTATES
360
18B
  3
ACLYDICTIONARY
360
462
  0
DICTIONARY
  5
B2B8
330
B2B7
100
AcDbDictionary
280
     1
281
     1
  3
ADSK_XREC_LAYER_RECONCILED
360
B2B9
  0
DICTIONARY
  5
B52
330
1F
100
AcDbDictionary
280
     1
281
     1
  3
ACAD_SORTENTS
360
B53
  0
DICTIONARY
  5
28E
330
AB
100
AcDbDictionary
280
     1
281
     1
  0
DICTIONARY
  5
4E8
330
4E7
100
AcDbDictionary
280
     1
281
     1
  3
ACAD_SORTENTS
360
6DE
  0
DICTIONARY
  5
930
330
6ED
100
AcDbDictionary
280
     1
281
     1
  3
ACAD_SORTENTS
360
931
  0
DICTIONARY
  5
16493
330
316
100
AcDbDictionary
280
     1
281
     1
  3
ACAD_MTEXT_RT
360
16494
  0
DICTIONARY
  5
16497
330
539
100
AcDbDictionary
280
     1
281
     1
  3
ACAD_MTEXT_RT
360
16498
  0
DICTIONARY
  5
1649F
330
9C6
100
AcDbDictionary
280
     1
281
     1
  3
ACAD_MTEXT_RT
360
164A0
  0
DICTIONARY
  5
162E0
330
162DF
100
AcDbDictionary
280
     1
281
     1
  3
ACAD_DIMASSOC
360
162E1
  0
DICTIONARY
  5
162E3
330
162E2
100
AcDbDictionary
280
     1
281
     1
  3
ACAD_DIMASSOC
360
162E4
  0
DICTIONARY
  5
164A4
330
1646B
100
AcDbDictionary
280
     1
281
     1
  3
ACAD_XREC_ROUNDTRIP
360
164A5
  0
DICTIONARY
  5
164A6
330
1646D
100
AcDbDictionary
280
     1
281
     1
  3
ACAD_XREC_ROUNDTRIP
360
164A7
  0
DICTIONARY
  5
14D
102
{ACAD_REACTORS
330
C
102
}
330
C
100
AcDbDictionary
281
     1
  0
DICTIONARY
  5
D
102
{ACAD_REACTORS
330
C
102
}
330
C
100
AcDbDictionary
281
     1
  0
DICTIONARY
  5
1A
102
{ACAD_REACTORS
330
C
102
}
330
C
100
AcDbDictionary
281
     1
  3
A4横
350
16467
  3
Model
350
22
  0
DICTIONARY
  5
14C
102
{ACAD_REACTORS
330
C
102
}
330
C
100
AcDbDictionary
281
     1
  3
ByBlock
350
1D1
  3
ByLayer
350
1D0
  3
Global
350
1D2
  0
DICTIONARY
  5
17
102
{ACAD_REACTORS
330
C
102
}
330
C
100
AcDbDictionary
281
     1
  3
Standard
350
18
  0
DICTIONARY
  5
19
102
{ACAD_REACTORS
330
C
102
}
330
C
100
AcDbDictionary
281
     1
  3
JIS A4 title block (portrait) - no output device
350
11F
  0
ACDBDICTIONARYWDFLT
  5
E
102
{ACAD_REACTORS
330
C
102
}
330
C
100
AcDbDictionary
281
     1
  3
Normal
350
F
100
AcDbDictionaryWithDefault
340
F
  0
DICTIONARY
  5
17B
102
{ACAD_REACTORS
330
C
102
}
330
C
100
AcDbDictionary
281
     1
  3
Standard
350
17C
  0
DICTIONARY
  5
1D3
102
{ACAD_REACTORS
330
C
102
}
330
C
100
AcDbDictionary
281
     1
  3
2dWireframe
350
1D9
  3
3D Hidden
350
1DB
  3
3dWireframe
350
1DA
  3
Basic
350
1D8
  3
Brighten
350
1DF
  3
ColorChange
350
1E3
  3
Conceptual
350
1DC
  3
Dim
350
1DE
  3
Facepattern
350
1E2
  3
Flat
350
1D4
  3
FlatWithEdges
350
1D5
  3
Gouraud
350
1D6
  3
GouraudWithEdges
350
1D7
  3
Linepattern
350
1E1
  3
Realistic
350
1DD
  3
Thicken
350
1E0
  0
XRECORD
  5
2C28
102
{ACAD_REACTORS
330
C
102
}
330
C
100
AcDbXrecord
280
     1
 90
   990106
  3

 60
     0
 61
     0
 62
     1
 63
     3
 64
     0
 65
     0
 66
     0
 67
     3
 68
     1
 69
     0
 70
     0
 71
     0
 72
     0
 40
0.0
170
     0
  0
DICTIONARY
  5
148
102
{ACAD_REACTORS
330
C
102
}
330
C
100
AcDbDictionary
281
     1
  3
CTABLESTYLE
350
190
  3
DIMASSOC
350
14A
  3
HIDETEXT
350
149
  3
INDEXCTL
350
1642E
  3
PSOLHEIGHT
350
16489
  3
PSOLWIDTH
350
16488
  3
SORTENTS
350
1642D
  0
XRECORD
  5
1648A
102
{ACAD_REACTORS
330
C
102
}
330
C
100
AcDbXrecord
280
     1
  1
DWGPROPS COOKIE
  2

  3

  4

  6

  7

  8
k-uehara
  9

300
=
301
=
302
=
303
=
304
=
305
=
306
=
307
=
308
=
309
=
 40
1.328777604166666
 41
2454379.577641921
 42
2454936.663870857
  1

 90
        0
  0
DICTIONARY
  5
463
102
{ACAD_REACTORS
330
18A
102
}
330
18A
100
AcDbDictionary
281
     1
  0
DICTIONARY
  5
18B
102
{ACAD_REACTORS
330
18A
102
}
330
18A
100
AcDbDictionary
281
     1
  3
ACAD_VIEWS_元図１
350
6AC
  0
DICTIONARY
  5
462
102
{ACAD_REACTORS
330
18A
102
}
330
18A
100
AcDbDictionary
281
     1
1001
ACAD
1000
<All
  0
XRECORD
  5
B2B9
102
{ACAD_REACTORS
330
B2B8
102
}
330
B2B8
100
AcDbXrecord
280
     1
290
     1
  0
SORTENTSTABLE
  5
B53
102
{ACAD_REACTORS
330
B52
102
}
330
B52
100
AcDbSortentsTable
330
1F
  0
SORTENTSTABLE
  5
6DE
102
{ACAD_REACTORS
330
4E8
102
}
330
4E8
100
AcDbSortentsTable
330
4E7
  0
SORTENTSTABLE
  5
931
102
{ACAD_REACTORS
330
930
102
}
330
930
100
AcDbSortentsTable
330
6ED
  0
XRECORD
  5
16494
102
{ACAD_REACTORS
330
16493
102
}
330
16493
100
AcDbXrecord
280
     1
 40
476.0
  1
検^J図
  0
XRECORD
  5
16498
102
{ACAD_REACTORS
330
16497
102
}
330
16497
100
AcDbXrecord
280
     1
 40
476.0
  1
検^J図
  0
XRECORD
  5
164A0
102
{ACAD_REACTORS
330
1649F
102
}
330
1649F
100
AcDbXrecord
280
     1
 40
476.0
  1
検^J図
  0
DIMASSOC
  5
162E1
102
{ACAD_REACTORS
330
162E0
102
}
330
162E0
100
AcDbDimAssoc
330
162DF
 90
        3
 70
     0
 71
     0
  1
AcDbOsnapPointRef
 72
     1
331
162BB
 73
     2
 91
        0
 40
1.0
 10
0.0
 20
0.0
 30
2.000000000000000E+50
 75
     0
  1
AcDbOsnapPointRef
 72
     1
331
162C4
 73
     2
 91
        0
 40
6.283185307179585
 10
0.0
 20
0.0
 30
2.000000000000000E+50
 75
     0
  0
DIMASSOC
  5
162E4
102
{ACAD_REACTORS
330
162E3
102
}
330
162E3
100
AcDbDimAssoc
330
162E2
 90
        1
 70
     0
 71
     0
  1
AcDbOsnapPointRef
 72
     5
331
162BC
 73
     2
 91
        0
 40
4.712388980384688
 10
0.0
 20
0.0
 30
0.0
 75
     0
  0
XRECORD
  5
164A5
102
{ACAD_REACTORS
330
164A4
102
}
330
164A4
100
AcDbXrecord
280
     1
102
SHADEPLOT
 70
     0
  0
XRECORD
  5
164A7
102
{ACAD_REACTORS
330
164A6
102
}
330
164A6
100
AcDbXrecord
280
     1
102
SHADEPLOT
 70
     0
  0
LAYOUT
  5
16467
102
{ACAD_XDICTIONARY
360
16468
102
}
102
{ACAD_REACTORS
330
1A
102
}
330
1A
100
AcDbPlotSettings
  1

  2
Canon iR C3200 LIPS
  4
A4
  6

 40
5.873749732971191
 41
5.873747825622558
 42
5.873748779296875
 43
5.873748779296875
 44
209.9733276367187
 45
296.9259948730469
 46
-5.893494129188383
 47
-5.919814586649977
 48
0.0
 49
0.0
140
0.0
141
0.0
142
1.0
143
1.0
 70
   692
 72
     1
 73
     1
 74
     1
  7
monochrome.ctb
 75
    16
147
1.0
148
0.0090630292066862
149
0.0064082024693448
100
AcDbLayout
  1
A4横
 70
     1
 71
     1
 10
0.037002778146416
 20
0.0133361937478469
 11
296.9629976511933
 21
209.9866638304666
 12
0.0
 22
0.0
 32
0.0
 14
0.0
 24
0.0
 34
0.0
 15
297.0
 25
210.0
 35
0.0
146
0.0
 13
0.0
 23
0.0
 33
0.0
 16
1.0
 26
0.0
 36
0.0
 17
0.0
 27
1.0
 37
0.0
 76
     0
330
1646A
331
1646B
1001
ACAD_PSEXT
1000
Canon iR C3200 LIPS
1000
Canon iR C3200 LIPS
1000
IP_128.1.1.200
1000

1070
     0
  0
LAYOUT
  5
22
102
{ACAD_XDICTIONARY
360
1648B
102
}
102
{ACAD_REACTORS
330
1A
102
}
330
1A
100
AcDbPlotSettings
  1

  2
none_device
  4
ISO_A4_(210.00_x_297.00_MM)
  6

 40
7.5
 41
20.0
 42
7.5
 43
20.0
 44
210.0
 45
297.0
 46
0.0
 47
73.36421725239617
 48
0.0
 49
0.0
140
0.0
141
0.0
142
1.0
143
2.869813509774057
 70
 11956
 72
     1
 73
     0
 74
     0
  7

 75
     0
147
0.3484546980471668
148
1.967705816488885
149
9.729414201041008
100
AcDbLayout
  1
Model
 70
     1
 71
     0
 10
0.0
 20
0.0
 11
12.0
 21
9.0
 12
0.0
 22
0.0
 32
0.0
 14
0.0
 24
0.0
 34
0.0
 15
0.0
 25
0.0
 35
0.0
146
0.0
 13
0.0
 23
0.0
 33
0.0
 16
1.0
 26
0.0
 36
0.0
 17
0.0
 27
1.0
 37
0.0
 76
     0
330
1F
331
1B5
1001
ACAD_PSEXT
1000
None
1000
None
1000
Not applicable
1000
The layout will not be plotted unless a new plotter configuration name is selected.
1070
     0
  0
MATERIAL
  5
1D1
102
{ACAD_XDICTIONARY
360
1643D
102
}
102
{ACAD_REACTORS
330
14C
102
}
330
14C
100
AcDbMaterial
  1
ByBlock
  0
MATERIAL
  5
1D0
102
{ACAD_XDICTIONARY
360
1643B
102
}
102
{ACAD_REACTORS
330
14C
102
}
330
14C
100
AcDbMaterial
  1
ByLayer
  0
MATERIAL
  5
1D2
102
{ACAD_XDICTIONARY
360
1643F
102
}
102
{ACAD_REACTORS
330
14C
102
}
330
14C
100
AcDbMaterial
  1
Global
  0
MLINESTYLE
  5
18
102
{ACAD_REACTORS
330
17
102
}
330
17
100
AcDbMlineStyle
  2
STANDARD
 70
     0
  3

 62
   256
 51
90.0
 52
90.0
 71
     2
 49
0.5
 62
   256
  6
BYLAYER
 49
-0.5
 62
   256
  6
BYLAYER
  0
PLOTSETTINGS
  5
11F
102
{ACAD_XDICTIONARY
360
1648F
102
}
102
{ACAD_REACTORS
330
19
102
}
330
19
100
AcDbPlotSettings
  1
JIS A4 title block (portrait) - no output device
  2
None
  4
ISO_A4_(210.00_x_297.00_MM)
  6

 40
7.549999999999998
 41
20.05
 42
7.549999999999998
 43
20.05
 44
210.0
 45
297.0
 46
-7.559999999999997
 47
-20.06
 48
0.0
 49
0.0
140
0.0
141
0.0
142
1.0
143
1.0
 70
   692
 72
     1
 73
     0
 74
     1
  7

 75
    16
147
1.0
148
0.0128164049386896
149
0.0090630292066862
  0
ACDBPLACEHOLDER
  5
F
102
{ACAD_REACTORS
330
E
102
}
330
E
  0
TABLESTYLE
  5
17C
102
{ACAD_XDICTIONARY
360
16491
102
}
102
{ACAD_REACTORS
330
17B
102
}
330
17B
100
AcDbTableStyle
  3
Standard
 70
     0
 71
     0
 40
1.5
 41
1.5
280
     0
281
     0
  7
Standard
140
4.5
170
     2
 62
     0
 63
     7
283
     0
274
    -2
284
     1
 64
     0
275
    -2
285
     1
 65
     0
276
    -2
286
     1
 66
     0
277
    -2
287
     1
 67
     0
278
    -2
288
     1
 68
     0
279
    -2
289
     1
 69
     0
  7
Standard
140
6.0
170
     5
 62
     0
 63
     7
283
     0
274
    -2
284
     1
 64
     0
275
    -2
285
     1
 65
     0
276
    -2
286
     1
 66
     0
277
    -2
287
     1
 67
     0
278
    -2
288
     1
 68
     0
279
    -2
289
     1
 69
     0
  7
Standard
140
4.5
170
     5
 62
     0
 63
     7
283
     0
274
    -2
284
     1
 64
     0
275
    -2
285
     1
 65
     0
276
    -2
286
     1
 66
     0
277
    -2
287
     1
 67
     0
278
    -2
288
     1
 68
     0
279
    -2
289
     1
 69
     0
  0
VISUALSTYLE
  5
1D9
102
{ACAD_REACTORS
330
1D3
102
}
330
1D3
100
AcDbVisualStyle
  2
2dWireframe
 70
     4
 71
     0
 72
     2
 73
     1
 90
        0
 40
-0.6
 41
-30.0
 62
     5
 63
     7
 74
     1
 91
        4
 64
     7
 65
   257
 75
     1
175
     1
 42
1.0
 92
        0
 66
   257
 43
1.0
 76
     1
 77
     6
 78
     2
 67
     7
 79
     5
170
     0
171
     0
290
     0
174
     0
 93
        1
 44
0.0
173
     0
291
     0
 45
0.0
1001
ACAD
1000
AcDbSavedByObjectVersion
1070
     0
1000
AcDbSavedByObjectVersion
1070
     0
  0
VISUALSTYLE
  5
1DB
102
{ACAD_REACTORS
330
1D3
102
}
330
1D3
100
AcDbVisualStyle
  2
3D Hidden
 70
     6
 71
     1
 72
     2
 73
     2
 90
        0
 40
-0.6
 41
-30.0
 62
     5
 63
     7
 74
     2
 91
        2
 64
     7
 65
   257
 75
     2
175
     1
 42
40.0
 92
        0
 66
   257
 43
1.0
 76
     1
 77
     6
 78
     2
 67
     7
 79
     3
170
     0
171
     0
290
     0
174
     0
 93
        1
 44
0.0
173
     0
291
     0
 45
0.0
1001
ACAD
1000
AcDbSavedByObjectVersion
1070
     0
1000
AcDbSavedByObjectVersion
1070
     0
  0
VISUALSTYLE
  5
1DA
102
{ACAD_REACTORS
330
1D3
102
}
330
1D3
100
AcDbVisualStyle
  2
3dWireframe
 70
     5
 71
     0
 72
     2
 73
     1
 90
        0
 40
-0.6
 41
-30.0
 62
     5
 63
     7
 74
     1
 91
        4
 64
     7
 65
   257
 75
     1
175
     1
 42
1.0
 92
        0
 66
   257
 43
1.0
 76
     1
 77
     6
 78
     2
 67
     7
 79
     5
170
     0
171
     0
290
     0
174
     0
 93
        1
 44
0.0
173
     0
291
     0
 45
0.0
1001
ACAD
1000
AcDbSavedByObjectVersion
1070
     0
1000
AcDbSavedByObjectVersion
1070
     0
  0
VISUALSTYLE
  5
1D8
102
{ACAD_REACTORS
330
1D3
102
}
330
1D3
100
AcDbVisualStyle
  2
Basic
 70
     7
 71
     1
 72
     0
 73
     1
 90
        0
 40
-0.6
 41
-30.0
 62
     5
 63
     7
 74
     0
 91
        4
 64
     7
 65
   257
 75
     1
175
     1
 42
1.0
 92
        8
 66
     7
 43
1.0
 76
     1
 77
     6
 78
     2
 67
     7
 79
     5
170
     0
171
     0
290
     0
174
     0
 93
        1
 44
0.0
173
     0
291
     1
 45
0.0
1001
ACAD
1000
AcDbSavedByObjectVersion
1070
     0
1000
AcDbSavedByObjectVersion
1070
     0
  0
VISUALSTYLE
  5
1DF
102
{ACAD_REACTORS
330
1D3
102
}
330
1D3
100
AcDbVisualStyle
  2
Brighten
 70
    12
 71
     2
 72
     2
 73
     1
 90
        0
 40
-0.6
 41
-30.0
 62
     5
 63
     7
 74
     1
 91
        4
 64
     7
 65
   257
 75
     1
175
     1
 42
1.0
 92
        8
 66
     7
 43
1.0
 76
     1
 77
     6
 78
     2
 67
     7
 79
     5
170
     0
171
     0
290
     0
174
     0
 93
        1
 44
50.0
173
     0
291
     1
 45
0.0
1001
ACAD
1000
AcDbSavedByObjectVersion
1070
     0
1000
AcDbSavedByObjectVersion
1070
     0
  0
VISUALSTYLE
  5
1E3
102
{ACAD_REACTORS
330
1D3
102
}
330
1D3
100
AcDbVisualStyle
  2
ColorChange
 70
    16
 71
     2
 72
     2
 73
     3
 90
        0
 40
-0.6
 41
-30.0
 62
     5
 63
     8
 74
     1
 91
        4
 64
     7
 65
   257
 75
     1
175
     1
 42
1.0
 92
        8
 66
     8
 43
1.0
 76
     1
 77
     6
 78
     2
 67
     7
 79
     5
170
     0
171
     0
290
     0
174
     0
 93
        1
 44
0.0
173
     0
291
     1
 45
0.0
1001
ACAD
1000
AcDbSavedByObjectVersion
1070
     0
1000
AcDbSavedByObjectVersion
1070
     0
  0
VISUALSTYLE
  5
1DC
102
{ACAD_REACTORS
330
1D3
102
}
330
1D3
100
AcDbVisualStyle
  2
Conceptual
 70
     9
 71
     3
 72
     2
 73
     1
 90
        0
 40
-0.6
 41
-30.0
 62
     5
 63
     7
 74
     2
 91
        2
 64
     7
 65
   257
 75
     1
175
     1
 42
40.0
 92
        8
 66
     7
 43
1.0
 76
     1
 77
     6
 78
     2
 67
     7
 79
     3
170
     0
171
     0
290
     0
174
     0
 93
        1
 44
0.0
173
     0
291
     0
 45
0.0
1001
ACAD
1000
AcDbSavedByObjectVersion
1070
     0
1000
AcDbSavedByObjectVersion
1070
     0
  0
VISUALSTYLE
  5
1DE
102
{ACAD_REACTORS
330
1D3
102
}
330
1D3
100
AcDbVisualStyle
  2
Dim
 70
    11
 71
     2
 72
     2
 73
     1
 90
        0
 40
-0.6
 41
-30.0
 62
     5
 63
     7
 74
     1
 91
        4
 64
     7
 65
   257
 75
     1
175
     1
 42
1.0
 92
        8
 66
     7
 43
1.0
 76
     1
 77
     6
 78
     2
 67
     7
 79
     5
170
     0
171
     0
290
     0
174
     0
 93
        1
 44
-50.0
173
     0
291
     1
 45
0.0
1001
ACAD
1000
AcDbSavedByObjectVersion
1070
     0
1000
AcDbSavedByObjectVersion
1070
     0
  0
VISUALSTYLE
  5
1E2
102
{ACAD_REACTORS
330
1D3
102
}
330
1D3
100
AcDbVisualStyle
  2
Facepattern
 70
    15
 71
     2
 72
     2
 73
     1
 90
        0
 40
-0.6
 41
-30.0
 62
     5
 63
     7
 74
     1
 91
        4
 64
     7
 65
   257
 75
     1
175
     1
 42
1.0
 92
        8
 66
     7
 43
1.0
 76
     1
 77
     6
 78
     2
 67
     7
 79
     5
170
     0
171
     0
290
     0
174
     0
 93
        1
 44
0.0
173
     0
291
     1
 45
0.0
1001
ACAD
1000
AcDbSavedByObjectVersion
1070
     0
1000
AcDbSavedByObjectVersion
1070
     0
  0
VISUALSTYLE
  5
1D4
102
{ACAD_REACTORS
330
1D3
102
}
330
1D3
100
AcDbVisualStyle
  2
Flat
 70
     0
 71
     2
 72
     1
 73
     1
 90
        2
 40
-0.6
 41
30.0
 62
     5
 63
     7
 74
     0
 91
        4
 64
     7
 65
   257
 75
     1
175
     1
 42
1.0
 92
        8
 66
     7
 43
1.0
 76
     1
 77
     6
 78
     2
 67
     7
 79
     5
170
     0
171
     0
290
     0
174
     0
 93
       13
 44
0.0
173
     0
291
     1
 45
0.0
1001
ACAD
1000
AcDbSavedByObjectVersion
1070
     0
1000
AcDbSavedByObjectVersion
1070
     0
  0
VISUALSTYLE
  5
1D5
102
{ACAD_REACTORS
330
1D3
102
}
330
1D3
100
AcDbVisualStyle
  2
FlatWithEdges
 70
     1
 71
     2
 72
     1
 73
     1
 90
        2
 40
-0.6
 41
30.0
 62
     5
 63
     7
 74
     1
 91
        4
 64
     7
 65
   257
 75
     1
175
     1
 42
1.0
 92
        0
 66
   257
 43
1.0
 76
     1
 77
     6
 78
     2
 67
     7
 79
     5
170
     0
171
     0
290
     0
174
     0
 93
       13
 44
0.0
173
     0
291
     1
 45
0.0
1001
ACAD
1000
AcDbSavedByObjectVersion
1070
     0
1000
AcDbSavedByObjectVersion
1070
     0
  0
VISUALSTYLE
  5
1D6
102
{ACAD_REACTORS
330
1D3
102
}
330
1D3
100
AcDbVisualStyle
  2
Gouraud
 70
     2
 71
     2
 72
     2
 73
     1
 90
        2
 40
-0.6
 41
30.0
 62
     5
 63
     7
 74
     0
 91
        4
 64
     7
 65
   257
 75
     1
175
     1
 42
1.0
 92
        0
 66
     7
 43
1.0
 76
     1
 77
     6
 78
     2
 67
     7
 79
     5
170
     0
171
     0
290
     0
174
     0
 93
       13
 44
0.0
173
     0
291
     1
 45
0.0
1001
ACAD
1000
AcDbSavedByObjectVersion
1070
     0
1000
AcDbSavedByObjectVersion
1070
     0
  0
VISUALSTYLE
  5
1D7
102
{ACAD_REACTORS
330
1D3
102
}
330
1D3
100
AcDbVisualStyle
  2
GouraudWithEdges
 70
     3
 71
     2
 72
     2
 73
     1
 90
        2
 40
-0.6
 41
30.0
 62
     5
 63
     7
 74
     1
 91
        4
 64
     7
 65
   257
 75
     1
175
     1
 42
1.0
 92
        0
 66
   257
 43
1.0
 76
     1
 77
     6
 78
     2
 67
     7
 79
     5
170
     0
171
     0
290
     0
174
     0
 93
       13
 44
0.0
173
     0
291
     1
 45
0.0
1001
ACAD
1000
AcDbSavedByObjectVersion
1070
     0
1000
AcDbSavedByObjectVersion
1070
     0
  0
VISUALSTYLE
  5
1E1
102
{ACAD_REACTORS
330
1D3
102
}
330
1D3
100
AcDbVisualStyle
  2
Linepattern
 70
    14
 71
     2
 72
     2
 73
     1
 90
        0
 40
-0.6
 41
-30.0
 62
     5
 63
     7
 74
     1
 91
        4
 64
     7
 65
   257
 75
     7
175
     7
 42
1.0
 92
        8
 66
     7
 43
1.0
 76
     1
 77
     6
 78
     2
 67
     7
 79
     5
170
     0
171
     0
290
     0
174
     0
 93
        1
 44
0.0
173
     0
291
     1
 45
0.0
1001
ACAD
1000
AcDbSavedByObjectVersion
1070
     0
1000
AcDbSavedByObjectVersion
1070
     0
  0
VISUALSTYLE
  5
1DD
102
{ACAD_REACTORS
330
1D3
102
}
330
1D3
100
AcDbVisualStyle
  2
Realistic
 70
     8
 71
     2
 72
     2
 73
     1
 90
        0
 40
-0.6
 41
-30.0
 62
     5
 63
     7
 74
     1
 91
        0
 64
     7
 65
   257
 75
     1
175
     1
 42
1.0
 92
        8
 66
     8
 43
1.0
 76
     1
 77
     6
 78
     2
 67
     7
 79
     5
170
     0
171
     0
290
     0
174
     0
 93
       13
 44
0.0
173
     0
291
     0
 45
0.0
1001
ACAD
1000
AcDbSavedByObjectVersion
1070
     0
1000
AcDbSavedByObjectVersion
1070
     0
  0
VISUALSTYLE
  5
1E0
102
{ACAD_REACTORS
330
1D3
102
}
330
1D3
100
AcDbVisualStyle
  2
Thicken
 70
    13
 71
     2
 72
     2
 73
     1
 90
        0
 40
-0.6
 41
-30.0
 62
     5
 63
     7
 74
     1
 91
        4
 64
     7
 65
   257
 75
     1
175
     1
 42
1.0
 92
       12
 66
     7
 43
1.0
 76
     1
 77
     6
 78
     2
 67
     7
 79
     5
170
     0
171
     0
290
     0
174
     0
 93
        1
 44
0.0
173
     0
291
     1
 45
0.0
1001
ACAD
1000
AcDbSavedByObjectVersion
1070
     0
1000
AcDbSavedByObjectVersion
1070
     0
  0
DICTIONARYVAR
  5
190
102
{ACAD_REACTORS
330
148
102
}
330
148
100
DictionaryVariables
280
     0
  1
STANDARD
  0
DICTIONARYVAR
  5
14A
102
{ACAD_REACTORS
330
148
102
}
330
148
100
DictionaryVariables
280
     0
  1
2
  0
DICTIONARYVAR
  5
149
102
{ACAD_REACTORS
330
148
102
}
330
148
100
DictionaryVariables
280
     0
  1
1
  0
DICTIONARYVAR
  5
1642E
102
{ACAD_REACTORS
330
148
102
}
330
148
100
DictionaryVariables
280
     0
  1
0
  0
DICTIONARYVAR
  5
16489
102
{ACAD_REACTORS
330
148
102
}
330
148
100
DictionaryVariables
280
     0
  1
80.000000
  0
DICTIONARYVAR
  5
16488
102
{ACAD_REACTORS
330
148
102
}
330
148
100
DictionaryVariables
280
     0
  1
5.000000
  0
DICTIONARYVAR
  5
1642D
102
{ACAD_REACTORS
330
148
102
}
330
148
100
DictionaryVariables
280
     0
  1
127
  0
XRECORD
  5
6AC
102
{ACAD_REACTORS
330
18B
102
}
330
18B
100
AcDbXrecord
280
     1
 91
    33280
301

290
     0
302
Viewport
330
4CB
 90
        8
 62
     8
370
    25
331
16
  1
色_8
330
0
 90
        8
 62
     8
370
    18
331
16
  1
色_8
330
4CA
 90
        8
 62
     2
370
    18
331
16
  1
色_2
330
0
 90
        8
 62
     3
370
    -3
331
16
  1
色_3
330
0
 90
        8
 62
     3
370
    -3
331
16
  1
色_3
330
4C9
 90
        8
 62
     5
370
    18
331
4C4
  1
色_5
330
4C8
 90
        8
 62
     8
370
    50
331
16
  1
色_8
330
4C7
 90
        8
 62
     1
370
    18
331
4C3
  1
色_1
330
4C6
 90
        8
 62
     5
370
    18
331
291
  1
色_5
330
3DC
 90
        8
 62
     4
370
    -3
331
16
  1
色_4
330
345
 90
        0
 62
     6
370
    18
331
16
  1
色_6
330
4C5
 90
        8
 62
     3
370
    18
331
16
  1
色_3
330
3DB
 90
        0
 62
     7
370
    -3
331
16
  1
色_7
330
0
 90
        8
 62
     4
370
    -3
331
16
  1
色_4
330
0
 90
        8
 62
     5
370
    40
331
16
  1
色_5
330
12D
 90
        8
 62
     7
370
    -3
331
16
  1
色_7
330
12C
 90
        8
 62
     7
370
    -3
331
16
  1
色_7
330
E4
 90
        8
 62
     7
370
    25
331
16
  1
色_7
330
10
 90
        8
 62
     7
370
    -3
331
16
  1
色_7
  0
DICTIONARY
  5
16468
330
16467
100
AcDbDictionary
280
     1
281
     1
  3
ACAD_XREC_ROUNDTRIP
360
164A3
  3
ADSK_XREC_LAYOUTTHUMBNAIL
360
16469
  0
DICTIONARY
  5
1648B
330
22
100
AcDbDictionary
280
     1
281
     1
  3
ACAD_XREC_ROUNDTRIP
360
1648C
  0
DICTIONARY
  5
1643D
330
1D1
100
AcDbDictionary
280
     1
281
     1
  3
ACAD_XREC_ROUNDTRIP
360
1643E
  0
DICTIONARY
  5
1643B
330
1D0
100
AcDbDictionary
280
     1
281
     1
  3
ACAD_XREC_ROUNDTRIP
360
1643C
  0
DICTIONARY
  5
1643F
330
1D2
100
AcDbDictionary
280
     1
281
     1
  3
ACAD_XREC_ROUNDTRIP
360
16440
  0
DICTIONARY
  5
1648F
330
11F
100
AcDbDictionary
280
     1
281
     1
  3
ACAD_XREC_ROUNDTRIP
360
16490
  0
DICTIONARY
  5
16491
330
17C
100
AcDbDictionary
280
     1
281
     1
  3
ACAD_XREC_ROUNDTRIP
360
16492
  0
XRECORD
  5
164A3
102
{ACAD_REACTORS
330
16468
102
}
330
16468
100
AcDbXrecord
280
     1
102
SHADEPLOT
 70
     0
102
SHADEPLOTRESLEVEL
 70
     2
102
SHADEPLOTCUSTOMDPI
 70
   300
  0
XRECORD
  5
16469
102
{ACAD_REACTORS
330
16468
102
}
330
16468
100
AcDbXrecord
280
     1
310
28000000B40000007F00000001000800000000004C59000000000000000000000001000000000000FFFFFF0000000000FFFFFF000000000000000000000000000000000000000000000000000000000000000000330000006600000099000000CC000000FF00000000330000333300006633000099330000CC330000FF3300
310
0000660000336600006666000099660000CC660000FF66000000990000339900006699000099990000CC990000FF99000000CC000033CC000066CC000099CC0000CCCC0000FFCC000000FF000033FF000066FF000099FF0000CCFF0000FFFF000000003300330033006600330099003300CC003300FF003300003333003333
310
33006633330099333300CC333300FF33330000663300336633006666330099663300CC663300FF66330000993300339933006699330099993300CC993300FF99330000CC330033CC330066CC330099CC3300CCCC3300FFCC330000FF330033FF330066FF330099FF3300CCFF3300FFFF330000006600330066006600660099
310
006600CC006600FF00660000336600333366006633660099336600CC336600FF33660000666600336666006666660099666600CC666600FF66660000996600339966006699660099996600CC996600FF99660000CC660033CC660066CC660099CC6600CCCC6600FFCC660000FF660033FF660066FF660099FF6600CCFF6600
310
FFFF660000009900330099006600990099009900CC009900FF00990000339900333399006633990099339900CC339900FF33990000669900336699006666990099669900CC669900FF66990000999900339999006699990099999900CC999900FF99990000CC990033CC990066CC990099CC9900CCCC9900FFCC990000FF99
310
0033FF990066FF990099FF9900CCFF9900FFFF99000000CC003300CC006600CC009900CC00CC00CC00FF00CC000033CC003333CC006633CC009933CC00CC33CC00FF33CC000066CC003366CC006666CC009966CC00CC66CC00FF66CC000099CC003399CC006699CC009999CC00CC99CC00FF99CC0000CCCC0033CCCC0066CC
310
CC0099CCCC00CCCCCC00FFCCCC0000FFCC0033FFCC0066FFCC0099FFCC00CCFFCC00FFFFCC000000FF003300FF006600FF009900FF00CC00FF00FF00FF000033FF003333FF006633FF009933FF00CC33FF00FF33FF000066FF003366FF006666FF009966FF00CC66FF00FF66FF000099FF003399FF006699FF009999FF00CC
310
99FF00FF99FF0000CCFF0033CCFF0066CCFF0099CCFF00CCCCFF00FFCCFF0000FFFF0033FFFF0066FFFF0099FFFF00CCFFFF00FFFFFF00000000000D0D0D001A1A1A00282828003535350043434300505050005D5D5D006B6B6B00787878008686860093939300A1A1A100AEAEAE00BBBBBB00C9C9C900D6D6D600E4E4E400
310
F1F1F100FFFFFF0000000000000000000000000000000000000000000000000000000000000000000000000000000000EFE2E2E2E2E2E2E2E2E2E2E2E2E2E2E2E2E2E2E2E2E2E2E2E2E2E2E2E2E2E2E2E2E2E2E2E2E2E2E2E2E2E2E2E2E2E2E2E2E2E2E2E2E2E2E2E2E2E2E2E2E2E2E2E2E2E2E2E2E2E2E2E2E2E2E2E2E2E2
310
E2E2E2E2E2E2E2E2E2E2E2E2E2E2E2E2E2E2E2E2E2E2E2E2E2E2E2E2E2E2E2E2E2E2E2E2E2E2E2E2E2E2E2E2E2E2E2E2E2E2E2E2E2E2E2E2E2E2E2E2E2E2E2E2E2E2E2E2E2E2E2E2E2E2E2E2E2E2E2E2E2E2E2E2E2E2E2E2E2E2E2E2E2E2E2E2E2E2E2E2E2EFE2F5F5F5F5F5F5F5F5F5F5F5F5F5F5F5F5F5F5F5F5F5F5F5F5
310
F5F5F5F5F5F5F5F5F5F5F5F5F5F5F5F5F5F5F5F5F5F5F5F5F5F5F5F5F5F5F5F5F5F5F5F5F5F5F5F5F5F5F5F5F5F5F5F5F5F5F5F5F5F5F5F5F5F5F5F5F5F5F5F5F5F5F5F5F5F5F5F5F5F5F5F5F5F5F5F5F5F5F5F5F5F5F5F5F5F5F5F5F5F5F5F5F5F5F5F5F5F5F5F5F5F5F5F5F5F5F5F5F5F5F5F5F5F5F5F5F5F5F5F5F5F5F5
310
F5F5F5F5F5F5F5F5F5F5F5F5F5F5F5F5F5F5F5F5F5F5F5F5F5E2E2EFE2F5F5F5F5F5F5F5F5F5F5F5F5F5F5F5F5F5F5F5F5F5F5F5F5F5F5F5F5F5F5F5F5F5F5F5F5F5F5F5F5F5F5F5F5F5F5F5F5F5F5F5F5F5F5F5F5F5F5F5F5F5F5F5F5F5F5F5F5F5F5F5F5F5F5F5F5F5F5F5F5F5F5F5F5F5F5F5F5F5F5F5F5F5F5F5F5F5F5
310
F5F5F5F5F5F5F5F5F5F5F5F5F5F5F5F5F5F5F5F5F5F5F5F5F5F5F5F5F5F5F5F5F5F5F5F5F5F5F5F5F5F5F5F5F5F5F5F5F5F5F5F5F5F5F5F5F5F5F5F5F5F5F5F5F5F5F5F5F5F5F5F5F5F5F5F5F5F5E2E2EFE2F5F5F5F5F5F5F5F5F5F5F5F5F5F5F5F5F5F5F5F5F5F5F5F5F5F5F5F5F5F5F5F5F5F5F5F5F5F5F5F5F5F5F5F5F5
310
F5F5F5F5F5F5F5F5F5F5F5F5F5F5F5F5F5F5F5F5F5F5F5F5F5F5F5F5F5F5F5F5F5F5F5F5F5F5F5F5F5F5E2F5F5F5F5F5F5F5F5F5F5F5F5F5F5F5F5F5F5F5F5F5F5F5F5F5F5F5F5F5F5F5F5F5F5F5F5F5F5F5F5F5F5F5F5F5F5F5F5F5F5F5F5F5F5F5F5F5F5F5F5F5F5F5F5F5F5F5F5F5F5F5F5F5F5F5F5F5F5F5F5F5F5F5F5
310
F5F5F5F5E2E2EFE2F5F5E2E2E2E2E2E2E2E2E2E2E2E2E2E2E2E2E2E2E2E2E2E2E2E2E2E2E2E2E2E2E2E2E2E2E2E2E2E2E2E2E2E2E2E2E2E2E2E2E2E2E2E2E2E2E2E2E2E2E2E2E2E2E2E2E2E2E2E2E2E2E2E2E2E2E2E2E2E2E2E2E2E2E2E2E2E2E2E2E2E2E2E2E2E2E2E2E2E2E2E2E2E2E2E2E2E2E2E2E2E2E2E2E2E2E2E2E2
310
E2E2E2E2E2E2E2E2E2E2E2E2E2E2E2E2E2E2E2E2E2E2E2E2E2E2E2E2E2E2E2E2E2E2E2E2E2E2E2E2E2E2E2E2E2E2E2E2E2E2E2E2E2E2E2F5F5E2E2EFE2F5F5E2F5F5F5E2F5F5F5F5F5F5F5F5F5F5F5F5F5F5F5F5F5F5F5F5F5F5F5F5F5F5F5F5F5F5F5F5F5F5F5F5F5F5F5F5F5F5F5F5F5F5F5F5F5F5F5F5F5F5F5F5F5F5F5
310
F5F5F5F5F5F5F5F5F5F5F5F5F5F5F5F5F5F5F5F5F5F5F5F5F5F5F5F5F5F5F5F5F5E2F5F5E2E2E2E2E2E2E2E2E2E2E2E2E2E2E2E2E2E2E2E2E2E2E2E2E2F5F5E2F5F5F5F5F5F5F5F5F5F5F5F5F5F5F5F5F5F5F5F5F5F5F5F5F5F5F5F5F5F5F5F5F5F5F5F5F5F5F5E2F5F5F5E2F5F5E2E2EFE2F5F5E2F5F5F5E2F5F5F5F5F5F5
310
F5F5F5F5F5F5F5F5F5F5F5F5F5F5F5F5F5F5F5F5F5F5F5F5F5F5F5F5F5F5F5F5F5F5F5F5F5F5F5F5F5F5F5F5F5F5F5F5F5F5F5F5F5F5F5F5F5F5F5F5F5F5F5F5F5F5F5F5F5F5F5F5F5F5F5F5F5F5F5F5F5F5F5F5F5F5E2F5F5E2E2E2E2E2E2E2E2E2E2E2E2E2E2E2E2E2E2E2E2E2E2E2E2E2F5F5E2F5F5F5F5F5F5F5F5F5F5
310
F5F5F5F5F5F5F5F5F5F5F5F5F5F5F5F5F5F5F5F5F5F5F5F5F5F5F5F5F5E2F5F5F5E2F5F5E2E2EFE2F5F5E2F5F5F5E2F5F5F5F5F5F5F5F5F5F5F5F5F5F5F5F5F5F5F5F5F5F5F5F5F5F5F5F5F5F5F5F5F5F5F5F5F5F5F5F5F5F5F5F5F5F5F5F5F5F5F5F5F5F5F5F5F5F5F5F5F5F5F5F5F5F5F5F5F5F5F5F5F5F5F5F5F5F5F5F5
310
F5F5F5F5F5F5F5F5F5F5F5F5E2F5F5E2E2E2E2E2E2E2E2E2E2E2E2E2E2E2E2E2E2E2E2E2E2E2E2E2F5F5E2F5F5F5F5F5F5F5F5F5F5F5F5F5F5F5F5F5F5F5F5F5F5F5F5F5F5F5F5F5F5F5F5F5F5F5F5F5F5F5E2F5F5F5E2F5F5E2E2EFE2F5F5E2F5F5F5E2F5F5F5F5F5F5F5F5F5F5F5F5F5F5F5F5F5F5F5F5F5F5F5F5F5F5F5
310
F5F5F5F5F5F5F5F5F5F5F5F5F5F5F5F5F5F5F5F5F5F5F5F5F5F5F5F5F5F5F5F5F5F5F5F5F5F5F5F5F5F5F5F5F5F5F5F5F5F5F5F5F5F5F5F5F5F5F5F5F5F5F5F5F5E2F5F5E2E2E2E2E2E2E2E2E2E2E2E2E2E2E2E2E2E2E2E2E2E2E2E2E2F5F5E2F5F5F5F5F5F5F5F5F5F5F5F5F5F5F5F5F5F5F5F5F5F5F5F5F5F5F5F5F5F5F5
310
F5F5F5F5F5F5F5F5E2F5F5F5E2F5F5E2E2EFE2F5F5E2F5F5F5E2F5F5F5F5F5F5F5F5F5F5F5F5F5F5F5F5F5F5F5F5F5F5F5F5F5F5F5F5F5F5F5F5F5F5F5F5F5F5F5F5F5F5F5F5F5F5F5F5F5F5F5F5F5F5F5F5F5F5F5F5F5F5F5F5F5F5F5F5F5F5F5F5F5F5F5F5F5F5F5F5F5F5F5F5F5F5F5F5F5F5F5F5E2F5F5F5F5F5F5F5F5
310
F5F5F5F5F5F5F5F5F5F5F5F5F5F5F5F5F5F5F5F5F5E2F5F5F5F5F5F5F5F5F5F5F5F5F5F5F5F5F5F5F5F5F5F5F5F5F5F5F5F5F5F5F5F5F5F5F5F5F5F5F5E2F5F5F5E2F5F5E2E2EFE2F5F5E2F5F5F5E2F5F5F5F5F5F5F5F5F5F5F5F5F5F5F5F5F5F5F5F5F5F5F5F5F5F5F5F5F5F5F5F5F5F5F5F5F5F5F5F5F5F5F5F5F5F5F5F5
310
F5F5F5F5F5F5F5F5F5F5F5F5F5F5F5F5F5F5F5F5F5F5F5F5F5F5F5F5F5F5F5F5F5F5F5F5F5F5F5F5F5F5F5F5E2E2E2E2E2E2E2E2E2E2E2E2E2E2E2E2E2E2E2E2E2E2E2E2E2E2E2E2E2E2E2E2E2E2E2E2E2E2E2E2E2E2E2E2E2E2E2E2E2E2E2E2E2E2E2E2E2E2E2E2E2E2E2E2E2E2E2E2E2E2E2F5F5F5E2F5F5E2E2EFE2F5F5
310
E2F5F5F5E2F5F5F5F5F5F5F5F5F5F5F5F5F5F5F5F5F5F5F5F5F5F5F5F5F5F5F5F5F5F5F5F5F5F5F5F5F5F5F5F5F5F5F5F5F5F5F5F5F5F5F5F5F5F5F5F5F5F5F5F5F5F5F5F5F5F5F5F5F5F5F5F5F5F5F5F5F5F5F5F5F5F5F5F5F5F5F5F5F5F5F5F5E2F5F5F5F5F5F5F5F5F5F5F5F5F5F5F5F5F5F5F5F5F5F5F5F5F5F5F5F5F5
310
F5F5F5F5F5F5F5F5F5F5F5F5F5F5F5F5F5F5F5F5F5F5F5F5F5F5F5F5F5F5F5F5F5F5F5F5F5F5F5F5E2F5F5F5E2F5F5E2E2EFE2F5F5F5F5F5F5E2F5F5F5F5F5F5F5F5F5F5F5F5F5F5F5F5F5F5F5F5F5F5F5F5F5F5F5F5F5F5F5F5F5F5F5F5F5F5F5F5F5F5F5F5F5F5F5F5F5F5F5F5F5F5F5F5F5F5F5F5F5F5F5F5F5F5F5F5F5
310
F5F5F5F5F5F5F5F5F5F5F5F5F5F5F5F5F5F5F5F5F5F5F5E2E2E2E2E2E2E2E2E2E2F5F5F5F5F5F5F5F5F5F5F5F5F5F5F5F5F5F5F5F5F5F5F5F5F5F5F5F5F5F5F5F5F5F5F5F5F5F5F5F5F5F5F5F5F5F5F5F5F5F5F5F5F5F5F5F5F5F5F5F5E2F5F5F5F5F5F5E2E2EFE2F5F5F5F5F5F5E2F5F5F5F5F5F5F5F5F5F5F5F5F5F5F5F5
310
F5F5F5F5F5F5F5F5F5F5F5F5F5F5F5F5F5F5F5F5F5F5F5F5F5F5F5F5F5F5F5F5F5F5F5F5F5F5F5F5F5F5F5F5F5F5F5F5F5F5F5F5F5F5F5F5F5F5F5F5F5F5F5F5F5F5F5F5F5F5F5F5F5F5F5F5E2E2E2E2E2E2E2E2E2E2F5F5F5F5F5F5F5F5F5F5F5F5F5F5F5F5F5F5F5F5F5F5F5F5F5F5F5F5F5F5F5F5F5F5F5F5F5F5F5F5F5
310
F5F5F5F5F5F5F5F5F5F5F5F5F5F5F5F5F5F5F5E2F5F5F5F5F5F5E2E2EFE2F5F5F5F5F5F5E2F5F5F5F5F5F5F5F5F5F5F5F5F5F5F5F5F5F5F5F5F5F5F5F5F5F5F5F5F5F5F5F5F5F5F5F5F5F5F5F5F5F5F5F5F5F5F5F5F5F5F5F5F5F5F5F5F5F5F5F5F5F5F5F5F5F5F5F5F5F5F5F5F5F5F5F5F5F5F5F5F5F5F5F5F5F5F5F5F5F5
310
F5F5E2E2E2E2E2E2E2E2E2E2F5F5F5F5F5F5F5F5F5F5F5F5F5F5F5F5F5F5F5F5F5F5F5F5F5F5F5F5F5F5F5F5F5F5F5F5F5F5F5F5F5F5F5F5F5F5F5F5F5F5F5F5F5F5F5F5F5F5F5F5E2F5F5F5F5F5F5E2E2EFE2F5F5F5F5F5F5E2F5F5F5F5F5F5F5F5F5F5F5F5F5F5F5F5F5F5F5F5F5F5F5F5F5F5F5F5F5F5F5F5F5F5F5F5F5
310
F5F5F5F5F5F5F5F5F5F5F5F5F5F5F5F5F5F5F5F5F5F5F5F5F5F5F5F5F5F5F5F5F5F5F5F5F5F5F5F5F5F5F5F5F5F5F5F5F5F5F5F5F5F5F5E2E2E2E2E2E2E2E2E2E2F5F5F5F5F5F5F5F5F5F5F5F5F5F5F5F5F5F5F5F5F5F5F5F5F5F5F5F5F5F5F5F5F5F5F5F5F5F5F5F5F5F5F5F5F5F5F5F5F5F5F5F5F5F5F5F5F5F5F5F5E2F5
310
F5F5F5F5F5E2E2EFE2F5F5F5F5F5F5E2F5F5F5F5F5F5F5F5F5F5F5F5F5F5F5F5F5F5F5F5F5F5F5F5F5F5F5F5F5F5F5F5F5F5F5F5F5F5F5F5F5F5F5F5F5F5F5F5F5F5F5F5F5F5F5F5F5F5F5F5F5F5F5F5F5F5F5F5F5F5F5F5F5F5F5F5F5F5F5F5F5F5F5F5F5F5F5F5F5F5F5F5E2F5F5F5F5F5F5F5F5F5F5F5F5F5F5F5F5F5F5
310
F5F5F5F5F5F5F5F5F5F5F5F5F5F5F5F5F5F5F5F5F5F5F5F5F5F5F5F5F5F5F5F5F5F5F5F5F5F5F5F5F5F5F5F5F5F5F5F5F5F5F5E2F5F5F5F5F5F5E2E2EFE2F5F5F5F5F5F5E2F5F5F5F5F5F5F5F5F5F5F5F5F5F5F5F5F5F5F5F5F5F5F5F5F5F5F5F5F5F5F5F5F5F5F5F5F5F5F5F5F5F5F5F5F5F5F5F5F5F5F5F5F5F5F5F5F5F5
310
F5F5F5F5F5F5F5F5F5F5F5F5F5F5F5F5F5F5F5F5F5F5F5F5F5F5F5F5F5F5F5F5F5F5E2F5F5F5F5F5F5F5F5F5F5F5F5F5F5F5F5F5F5F5F5F5F5F5F5F5F5F5F5F5F5F5F5F5F5F5F5F5F5F5F5F5F5F5F5F5F5F5F5F5F5F5F5F5F5F5F5F5F5F5F5F5F5F5F5F5F5F5F5F5E2F5F5F5F5F5F5E2E2EFE2F5F5F5F5F5F5E2F5F5F5F5F5
310
F5F5F5F5F5F5F5F5F5F5F5F5F5F5F5F5F5F5F5F5F5F5F5F5F5F5F5F5F5F5F5F5F5F5F5F5F5F5F5F5F5F5F5F5F5F5F5F5F5F5F5F5F5F5F5F5F5F5F5F5F5F5F5F5F5F5F5F5F5F5F5F5F5F5F5F5F5F5F5F5F5F5F5F5F5F5F5E2E2E2E2E2E2E2E2E2E2E2E2E2E2E2E2E2E2E2E2E2E2E2E2E2E2E2E2E2E2E2E2E2E2E2E2E2E2E2E2
310
E2E2E2E2E2E2E2E2E2E2E2E2E2E2E2E2E2E2E2E2E2E2E2E2E2E2E2E2E2E2E2F5F5F5F5F5F5E2E2EFE2F5F5F5F5F5F5E2F5F5F5F5F5F5F5F5F5F5F5F5F5F5F5F5F5F5F5F5F5F5F5F5F5F5F5F5F5F5F5F5F5F5F5F5F5F5F5F5F5F5F5F5F5F5F5F5F5F5F5F5F5F5F5F5F5F5F5F5F5F5F5F5F5F5F5F5F5F5F5F5F5F5F5F5F5F5F5
310
F5F5F5F5F5F5F5F5F5F5F5F5F5E2F5F5F5F5F5F5F5F5F5F5F5F5F5F5F5F5F5F5F5F5F5F5F5F5F5F5F5F5F5F5F5F5F5F5F5F5F5F5F5F5F5F5F5F5F5F5F5F5F5F5F5F5F5F5F5F5F5F5F5F5F5F5F5F5F5F5F5F5F5E2F5F5F5F5F5F5E2E2EFE2F5F5F5F5F5F5E2F5F5F5F5F5F5F5F5F5F5F5F5F5F5F5F5F5F5F5F5F5F5F5F5F5F5
310
F5F5F5F5F5F5F5F5F5F5F5F5F5F5F5F5F5F5F5F5F5F5F5F5F5F5F5F5F5F5F5F5F5F5F5F5F5F5F5F5F5F5F5F5F5F5F5F5F5F5F5F5F5F5F5F5F5F5F5F5F5F5F5F5F5F5E2E2E2E2E2E2E2E2E2E2E2E2E2E2E2E2E2E2E2E2E2E2E2E2E2E2E2E2E2E2E2E2E2E2E2E2E2E2E2E2E2E2E2E2E2E2E2E2E2E2E2E2E2E2E2E2E2E2E2E2E2
310
E2E2E2E2E2E2E2E2E2E2F5F5F5F5F5F5E2E2EFE2F5F5E2F5F5F5E2F5F5F5F5F5F5F5F5F5F5F5F5F5F5F5F5F5F5F5F5F5F5F5F5F5F5F5F5F5F5F5F5F5F5F5F5F5F5F5F5F5F5F5F5F5F5F5F5F5F5F5F5F5F5F5F5F5F5F5F5F5F5F5F5F5F5F5F5F5F5F5F5F5F5F5F5F5F5F5F5F5F5F5F5F5F5F5F5F5F5F5F5F5F5F5F5F5F5F5F5
310
F5F5F5F5F5F5F5F5F5F5F5F5F5F5F5F5F5F5F5F5F5F5F5F5F5F5F5F5F5F5F5F5F5F5F5F5F5F5F5F5F5F5F5F5F5F5F5F5F5F5F5F5F5F5F5F5F5F5F5F5F5F5E2F5F5F5E2F5F5E2E2EFE2F5F5E2F5F5F5E2F5F5F5F5F5F5F5F5F5F5F5F5F5F5F5F5F5F5F5F5F5F5F5F5F5F5F5F5F5F5F5F5F5F5F5F5F5F5F5F5F5F5F5F5F5F5F5
310
F5F5F5F5F5F5F5F5F5F5F5F5F5F5F5F5F5F5F5F5F5F5F5F5F5F5F5F5F5F5F5F5F5F5F5F5F5F5F5F5F5F5F5F5F5F5F5F5F5F5F5F5F5F5F5F5F5F5F5F5F5F5F5F5F5F5F5F5F5F5F5F5F5F5F5F5F5F5F5F5F5F5F5F5F5F5F5F5F5F5F5F5F5F5F5F5F5F5F5F5F5F5F5F5F5F5F5F5F5F5F5F5F5F5F5E2F5F5F5E2F5F5E2E2EFE2F5
310
F5E2F5F5F5E2F5F5F5F5F5F5F5F5F5F5F5F5F5F5F5F5F5F5F5F5F5F5F5F5F5F5F5F5F5F5F5F5F5F5F5F5F5F5F5F5F5F5F5F5F5F5F5F5F5F5F5F5F5F5F5F5F5F5F5F5F5F5F5F5F5F5F5F5F5F5F5F5F5F5F5F5F5F5F5F5F5F5F5F5F5F5F5F5F5F5F5F5F5F5F5F5F5F5F5F5F5F5F5F5F5F5F5F5F5F5F5F5F5F5F5F5F5F5F5F5F5
310
F5F5F5F5F5F5F5F5F5F5F5F5F5F5F5F5F5F5F5F5F5F5F5F5F5F5F5F5F5F5F5F5F5F5F5F5F5F5F5F5F5E2F5F5F5E2F5F5E2E2EFE2F5F5E2F5F5F5E2F5F5F5F5F5F5F5F5F5F5F5F5F5F5F5F5F5F5F5F5F5F5F5F5F5F5F5F5F5F5F5F5F5F5F5F5F5F5F5F5F5F5F5F5F5F5F5F5F5F5F5F5F5F5F5F5F5F5F5F5F5F5F5F5F5F5F5F5
310
F5F5F5F5F5F5F5F5F5F5F5F5F5F5F5F5F5F5F5F5F5F5F5F5F5F5F5F5F5F5F5F5F5F5F5F5F5F5F5F5F5F5F5F5F5F5F5F5F5F5F5F5F5F5F5F5F5F5F5F5F5F5F5F5F5F5F5F5F5F5F5F5F5F5F5F5F5F5F5F5F5F5F5F5F5F5F5F5F5F5F5F5F5F5E2F5F5F5E2F5F5E2E2EFE2F5F5E2F5F5F5E2F5F5F5F5F5F5F5F5F5F5F5F5F5F5F5
310
F5F5F5F5F5F5F5F5F5F5F5F5F5F5F5F5F5F5F5F5F5F5F5F5F5F5F5F5F5F5F5F5F5F5F5F5F5F5F5F5F5F5F5F5F5F5F5F5F5F5F5F5F5F5F5F5F5F5F5F5F5F5F5F5F5F5F5F5F5F5F5F5F5F5F5F5F5F5F5F5F5F5F5F5F5F5F5F5F5F5F5F5F5F5F5F5F5F5F5F5F5F5F5F5F5F5F5F5F5F5F5F5F5F5F5F5F5F5F5F5F5F5F5F5F5F5F5
310
F5F5F5F5F5F5F5F5F5F5F5F5F5F5F5F5F5F5F5F5E2F5F5F5E2F5F5E2E2EFE2F5F5E2F5F5F5E2F5F5F5F5F5F5F5F5F5F5F5F5F5F5F5F5F5F5F5F5F5F5F5F5F5F5F5F5F5F5F5F5F5F5F5F5F5F5F5F5F5F5F5F5F5F5F5F5F5F5F5F5F5F5F5F5F5F5F5F5F5F5F5F5F5F5F5F5F5F5F5F5F5F5F5F5F5F5F5F5F5F5F5F5F5F5F5F5F5
310
F5F5F5F5F5F5F5F5F5F5F5F5F5F5F5F5F5F5F5F5F5F5F5F5F5F5F5F5F5F5F5F5F5F5F5F5F5F5F5F5F5F5F5F5F5F5F5F5F5F5F5F5F5F5F5F5F5F5F5F5F5F5F5F5F5F5F5F5F5F5F5F5F5E2F5F5F5E2F5F5E2E2EFE2F5F5E2F5F5F5E2F5F5F5F5F5F5F5F5F5F5F5F5F5F5F5F5F5F5F5F5F5F5F5F5F5F5F5F5F5F5F5F5F5F5F5F5
310
F5F5F5F5F5F5F5F5F5F5F5F5F5F5F5F5F5F5F5F5F5F5F5F5F5F5F5F5F5F5F5F5F5F5F5F5F5F5F5F5F5F5F5F5F5F5F5F5F5F5F5F5F5F5F5F5F5F5F5F5F5F5F5F5F5F5F5F5F5F5F5F5F5F5F5F5F5F5F5F5F5F5F5F5F5F5F5F5F5F5F5F5F5F5F5F5F5F5F5F5F5F5F5F5F5F5F5F5F5F5F5F5F5F5F5F5F5F5F5F5F5F5F5F5F5F5E2
310
F5F5F5E2F5F5E2E2EFE2F5F5E2F5F5F5E2F5F5F5F5F5F5F5F5F5F5F5F5F5F5F5F5F5F5F5F5F5F5F5F5F5F5F5F5F5F5F5F5F5F5F5F5F5F5F5F5F5F5F5F5F5F5F5F5F5F5F5F5F5F5F5F5F5F5F5F5F5F5F5F5F5F5F5F5F5F5F5F5F5F5F5F5F5F5F5F5F5F5F5F5F5F5F5F5F5F5F5F5F5F5F5F5F5F5F5F5F5F5F5F5F5F5F5F5F5F5
310
F5F5F5F5F5F5F5F5F5F5F5F5F5F5F5F5F5F5F5F5F5F5F5F5F5F5F5F5F5F5F5F5F5F5F5F5F5F5F5F5F5F5F5F5F5F5F5F5F5F5F5F5E2F5F5F5E2F5F5E2E2EFE2F5F5E2F5F5F5E2F5F5F5F5F5F5F5F5F5F5F5F5F5F5F5F5F5F5F5F5F5F5F5F5F5F5F5F5F5F5F5F5F5F5F5F5F5F5F5F5F5F5F5F5F5F5F5F5F5F5F5F5F5F5F5F5F5
310
F5F5F5F5F5F5F5F5F5F5F5F5F5F5F5F5F5F5F5F5F5F5F5F5F5F5F5F5F5F5F5F5F5F5F5F5F5F5F5F5F5F5F5F5F5F5F5F5F5F5F5F5F5F5F5F5F5F5F5F5F5F5F5F5F5F5F5F5F5F5F5F5F5F5F5F5F5F5F5F5F5F5F5F5F5F5F5F5F5F5F5F5F5F5F5F5F5F5F5F5F5F5F5F5F5E2F5F5F5E2F5F5E2E2EFE2F5F5E2F5F5F5E2F5F5F5F5
310
F5F5F5F5F5F5F5F5F5F5F5F5F5F5F5F5F5F5F5F5F5F5F5F5F5F5F5F5F5F5F5F5F5F5F5F5F5F5F5F5F5F5F5F5F5F5F5F5F5F5F5F5F5F5F5F5F5F5F5F5F5F5F5F5F5F5F5F5F5F5F5F5F5F5F5F5F5F5F5F5F5F5F5F5F5F5F5F5F5F5F5F5F5F5F5F5F5F5F5F5F5F5F5F5F5F5F5F5F5F5F5F5F5F5F5F5F5F5F5F5F5F5F5F5F5F5F5
310
F5F5F5F5F5F5F5F5F5F5F5F5F5F5F5F5F5F5F5F5F5F5F5F5F5F5F5F5F5F5F5E2F5F5F5E2F5F5E2E2EFE2F5F5E2F5F5F5E2F5F5F5F5F5F5F5F5F5F5F5F5F5F5F5F5F5F5F5F5F5F5F5F5F5F5F5F5F5F5F5F5F5F5F5F5F5F5F5F5F5F5F5F5F5F5F5F5F5F5F5F5F5F5F5F5F5F5F5F5F5F5F5F5F5F5F5F5F5F5F5F5F5F5F5F5F5F5
310
F5F5F5F5F5F5F5F5F5F5F5F5F5F5F5F5F5F5F5F5F5F5F5F5F5F5F5F5F5F5F5F5F5F5F5F5F5F5F5F5F5F5F5F5F5F5F5F5F5F5F5F5F5F5F5F5F5F5F5F5F5F5F5F5F5F5F5F5F5F5F5F5F5F5F5F5F5F5F5F5F5F5F5F5E2F5F5F5E2F5F5E2E2EFE2F5F5E2F5F5F5E2F5F5F5F5F5F5F5F5F5F5F5F5F5F5F5F5F5F5F5F5F5F5F5F5F5
310
F5F5F5F5F5F5F5F5F5F5F5F5F5F5F5F5F5F5F5F5F5F5F5F5F5F5F5F5F5F5F5F5F5F5F5F5F5F5F5F5F5F5F5F5F5F5F5F5F5F5F5F5F5F5F5F5F5F5F5F5F5F5F5F5F5F5F5F5F5F5F5F5F5F5F5F5F5F5F5F5F5F5F5F5F5F5F5F5F5F5F5F5F5F5F5F5F5F5F5F5F5F5F5F5F5F5F5F5F5F5F5F5F5F5F5F5F5F5F5F5F5F5F5F5F5F5F5
310
F5F5F5F5F5F5F5F5F5F5E2F5F5F5E2F5F5E2E2EFE2F5F5E2F5F5F5E2F5F5F5F5F5F5F5F5F5F5F5F5F5F5F5F5F5F5F5F5F5F5F5F5F5F5F5F5F5F5F5F5F5F5F5F5F5F5F5F5F5F5F5F5F5F5F5F5F5F5F5F5F5F5F5F5F5F5F5F5F5F5F5F5F5F5F5F5F5F5F5F5F5F5F5F5F5F5F5F5F5F5F5F5F5F5F5F5F5F5F5F5F5F5F5F5F5F5F5
310
F5F5F5F5F5F5F5F5F5F5F5F5F5F5F5F5F5F5F5F5F5F5F5F5F5F5F5F5F5F5F5F5F5F5F5F5F5F5F5F5F5F5F5F5F5F5F5F5F5F5F5F5F5F5F5F5F5F5F5F5F5F5F5E2F5F5F5E2F5F5E2E2EFE2F5F5E2F5F5F5E2F5F5F5F5F5F5F5F5F5F5F5F5F5F5F5F5F5F5F5F5F5F5F5F5F5F5F5F5F5F5F5F5F5F5F5F5F5F5F5F5F5F5F5F5F5F5
310
F5F5F5F5F5F5F5F5F5F5F5F5F5F5F5F5F5F5F5F5F5F5F5F5F5F5F5F5F5F5F5F5F5F5F5F5F5F5F5F5F5F5F5F5F5F5F5F5F5F5F5F5F5F5F5F5F5F5F5F5F5F5F5F5F5F5F5F5F5F5F5F5F5F5F5F5F5F5F5F5F5F5F5F5F5F5F5F5F5F5F5F5F5F5F5F5F5F5F5F5F5F5F5F5F5F5F5F5F5F5F5F5F5F5F5F5E2F5F5F5E2F5F5E2E2EFE2
310
F5F5E2F5F5F5E2F5F5F5F5F5F5F5F5F5F5F5F5F5F5F5F5F5F5F5F5F5F5F5F5F5F5F5F5F5F5F5F5F5F5F5F5F5F5F5F5F5F5F5F5F5F5F5F5F5F5F5F5F5F5F5F5F5F5F5F5F5F5F5F5F5F5F5F5F5F5F5F5F5F5F5F5F5F5F5F5F5F5F5F5F5F5F5F5F5F5F5F5F5F5F5F5F5F5F5F5F5F5F5F5F5F5F5F5F5F5F5F5F5F5F5F5F5F5F5F5
310
F5F5F5F5F5F5F5F5F5F5F5F5F5F5F5F5F5F5F5F5F5F5F5F5F5F5F5F5F5F5F5F5F5F5F5F5F5F5F5F5F5F5E2F5F5F5E2F5F5E2E2EFE2F5F5F5F5F5F5E2F5F5F5F5F5F5F5F5F5F5F5F5F5F5F5F5F5F5F5F5F5F5F5F5F5F5F5F5F5F5F5F5F5F5F5F5F5F5F5F5F5F5F5F5F5F5F5F5F5F5F5F5F5F5F5F5F5F5F5F5F5F5F5F5F5F5F5
310
F5F5F5F5F5F5F5F5F5F5F5F5F5F5F5F5F5F5F5F5F5F5F5F5F5F5F5F5F5F5F5F5F5F5F5F5F5F5F5F5F5F5F5F5F5F5F5F5F5F5F5F5F5F5F5F5F5F5F5F5F5F5F5F5F5F5F5F5F5F5F5F5F5F5F5F5F5F5F5F5F5F5F5F5F5F5F5F5F5F5F5F5F5F5F5E2F5F5F5F5F5F5E2E2EFE2F5F5F5F5F5F5E2F5F5F5F5F5F5F5F5F5F5F5F5F5F5
310
F5F5F5F5F5F5F5F5F5F5F5F5F5F5F5F5F5F5F5F5F5F5F5F5F5F5F5F5F5F5F5F5F5F5F5F5F5F5F5F5F5F5F5F5F5F5F5F5F5F5F5F5F5F5F5F5F5F5F5F5F5F5F5F5F5F5F5F5F5F5F5F5F5F5F5F5F5F5F5F5F5F5F5F5F5F5F5F5F5F5F5F5F5F5F5F5F5F5F5F5F5F5F5F5F5F5F5F5F5F5F5F5F5F5F5F5F5F5F5F5F5F5F5F5F5F5F5
310
F5F5F5F5F5F5F5F5F5F5F5F5F5F5F5F5F5F5F5F5F5E2F5F5F5F5F5F5E2E2EFE2F5F5F5F5F5F5E2F5F5F5F5F5F5F5F5F5F5F5F5F5F5F5F5F5F5F5F5F5F5F5F5F5F5F5F5F5F5F5F5F5F5F5F5F5F5F5F5F5F5F5F5F5F5F5F5F5F5F5F5F5F5F5F5F5F5F5F5F5F5F5F5F5F5F5F5F5F5F5F5F5F5F5F5F5F5F5F5F5F5F5F5F5F5F5F5
310
F5F5F5F5F5F5F5F5F5F5F5F5F5F5F5F5F5F5F5F5F5F5F5F5F5F5F5F5F5F5F5F5F5F5F5F5F5F5F5F5F5F5F5F5F5F5F5F5F5F5F5F5F5F5F5F5F5F5F5F5F5F5F5F5F5F5F5F5F5F5F5F5F5F5E2F5F5F5F5F5F5E2E2EFE2F5F5F5F5F5F5E2F5F5F5F5F5F5F5F5F5F5F5F5F5F5F5F5F5F5F5F5F5F5F5F5F5F5F5F5F5F5F5F5F5F5F5
310
F5F5F5F5F5F5F5F5F5F5F5F5F5F5F5F5F5F5F5F5F5F5F5F5F5F5F5F5F5F5F5F5F5F5F5F5F5F5F5F5F5F5F5F5F5F5F5F5F5F5F5F5F5F5F5F5F5F5F5F5F5F5F5F5F5F5F5F5F5F5F5F5F5F5F5F5F5F5F5F5F5F5F5F5F5F5F5F5F5F5F5F5F5F5F5F5F5F5F5F5F5F5F5F5F5F5F5F5F5F5F5F5F5F5F5F5F5F5F5F5F5F5F5F5F5F5F5
310
E2F5F5F5F5F5F5E2E2EFE2F5F5F5F5F5F5E2F5F5F5F5F5F5F5F5F5F5F5F5F5F5F5F5F5F5F5F5F5F5F5F5F5F5F5F5F5F5F5F5F5F5F5F5F5F5F5F5F5F5F5F5F5F5F5F5F5F5F5F5F5F5F5F5F5F5F5F5F5F5F5F5F5F5F5F5F5F5F5F5F5F5F5F5F5F5F5F5F5F5F5F5F5F5F5F5F5F5F5F5F5F5F5F5F5F5F5F5F5F5F5F5F5F5F5F5F5
310
F5F5F5F5F5F5F5F5F5F5F5F5F5F5F5F5F5F5F5F5F5F5F5F5F5F5F5F5F5F5F5F5F5F5F5F5F5F5F5F5F5F5F5F5F5F5F5F5F5F5F5F5F5E2F5F5F5F5F5F5E2E2EFE2F5F5F5F5F5F5E2F5F5F5F5F5F5F5F5F5F5F5F5F5F5F5F5F5F5F5F5F5F5F5F5F5F5F5F5F5F5F5F5F5F5F5F5F5F5F5F5F5F5F5F5F5F5F5F5F5F5F5F5F5F5F5F5
310
F5F5F5F5F5F5F5F5F5F5F5F5F5F5F5F5F5F5F5F5F5F5F5F5F5F5F5F5F5F5F5F5F5F5F5F5F5F5F5F5F5F5F5F5F5F5F5F5F5F5F5F5F5F5F5F5F5F5F5F5F5F5F5F5F5F5F5F5F5F5F5F5F5F5F5F5F5F5F5F5F5F5F5F5F5F5F5F5F5F5F5F5F5F5F5F5F5F5F5F5F5F5F5F5F5F5E2F5F5F5F5F5F5E2E2EFE2F5F5F5F5F5F5E2F5F5F5
310
F5F5F5F5F5F5F5F5F5F5F5F5F5F5F5F5F5F5F5F5F5F5F5F5F5F5F5F5F5F5F5F5F5F5F5F5F5F5F5F5F5F5F5F5F5F5F5F5F5F5F5F5F5F5F5F5F5F5F5F5F5F5F5F5F5F5F5F5F5F5F5F5F5F5F5F5F5F5F5F5F5F5F5F5F5F5F5F5F5F5F5F5F5F5F5F5F5F5F5F5F5F5F5F5F5F5F5F5F5F5F5F5F5F5F5F5F5F5F5F5F5F5F5F5F5F5F5
310
F5F5F5F5F5F5F5F5F5F5F5F5F5F5F5F5F5F5F5F5F5F5F5F5F5F5F5F5F5F5F5F5E2F5F5F5F5F5F5E2E2EFE2F5F5F5F5F5F5E2F5F5F5F5F5F5F5F5F5F5F5F5F5F5F5F5F5F5F5F5F5F5F5F5F5F5F5F5F5F5F5F5F5F5F5F5F5F5F5F5F5F5F5F5F5F5F5F5F5F5F5F5F5F5F5F5F5F5F5F5F5F5F5F5F5F5F5F5F5F5F5F5F5F5F5F5F5
310
F5F5F5F5F5F5F5F5F5F5F5F5F5F5F5F5F5F5F5F5F5F5F5F5F5F5F5F5F5F5F5F5F5F5F5F5F5F5F5F5F5F5F5F5F5F5F5F5F5F5F5F5F5F5F5F5F5F5F5F5F5F5F5F5F5F5F5F5F5F5F5F5F5F5F5F5F5F5F5F5F5F5F5F5F5E2F5F5F5F5F5F5E2E2EFE2F5F5E2F5F5F5E2F5F5F5F5F5F5F5F5F5F5F5F5F5F5F5F5F5F5F5F5F5F5F5F5
310
F5F5F5F5F5F5F5F5F5F5F5F5F5F5F5F5F5F5F5F5F5F5F5F5F5F5F5F5F5F5F5F5F5F5F5F5F5F5F5F5F5F5F5F5F5F5F5F5F5F5F5F5F5F5F5F5F5F5F5F5F5F5F5F5F5F5F5F5F5F5F5F5F5F5F5F5F5F5F5F5F5F5F5F5F5F5F5F5F5F5F5F5F5F5F5F5F5F5F5F5F5F5F5F5F5F5F5F5F5F5F5F5F5F5F5F5F5F5F5F5F5F5F5F5F5F5F5
310
F5F5F5F5F5F5F5F5F5F5F5E2F5F5F5E2F5F5E2E2EFE2F5F5E2F5F5F5E2F5F5F5F5F5F5F5F5F5F5F5F5F5F5F5F5F5F5F5F5F5F5F5F5F5F5F5F5F5F5F5F5F5F5F5F5F5F5F5F5F5F5F5F5F5F5F5F5F5F5F5F5F5F5F5F5F5F5F5F5F5F5F5F5F5F5F5F5F5F5F5F5F5F5F5F5F5F5F5F5F5F5F5F5F5F5F5F5F5F5F5F5F5F5F5F5F5F5
310
F5F5F5F5F5F5F5F5F5F5F5F5F5F5F5F5F5F5F5F5F5F5F5F5F5F5F5F5F5F5F5F5F5F5F5F5F5F5F5F5F5F5F5F5F5F5F5F5F5F5F5F5F5F5F5F5F5F5F5F5F5F5F5F5E2F5F5F5E2F5F5E2E2EFE2F5F5E2F5F5F5E2F5F5F5F5F5F5F5F5F5F5F5F5F5F5F5F5F5F5F5F5F5F5F5F5F5F5F5F5F5F5F5F5F5F5F5F5F5F5F5F5F5F5F5F5F5
310
F5F5F5F5F5F5F5F5F5F5F5F5F5F5F5F5F5F5F5F5F5F5F5F5F5F5F5F5F5F5F5F5F5F5F5F5F5F5F5F5F5F5F5F5F5F5F5F5F5F5F5F5F5F5F5F5F5F5F5F5F5F5F5F5F5F5F5F5F5F5F5F5F5F5F5F5F5F5F5F5F5F5F5F5F5F5F5F5F5F5F5F5F5F5F5F5F5F5F5F5F5F5F5F5F5F5F5F5F5F5F5F5F5F5F5F5F5E2F5F5F5E2F5F5E2E2EF
310
E2F5F5E2F5F5F5E2F5F5F5F5F5F5F5F5F5F5F5F5F5F5F5F5F5F5F5F5F5F5F5F5F5F5F5F5F5F5F5F5F5F5F5F5F5F5F5F5F5F5F5F5F5F5F5F5F5F5F5F5F5F5F5F5F5F5F5F5F5F5F5F5F5F5F5F5F5F5F5F5F5F5F5F5F5F5F5F5F5F5F5F5F5F5F5F5F5F5F5F5F5F5F5F5F5F5F5F5F5F5F5F5F5F5F5F5F5F5F5F5F5F5F5F5F5F5F5
310
F5F5F5F5F5F5F5F5F5F5F5F5F5F5F5F5F5F5F5F5F5F5F5F5F5F5F5F5F5F5F5F5F5F5F5F5F5F5F5F5F5F5F5E2F5F5F5E2F5F5E2E2EFE2F5F5E2F5F5F5E2F5F5F5F5F5F5F5F5F5F5F5F5F5F5F5F5F5F5F5F5F5F5F5F5F5F5F5F5F5F5F5F5F5F5F5F5F5F5F5F5F5F5F5F5F5F5F5F5F5F5F5F5F5F5F5F5F5F5F5F5F5F5F5F5F5F5
310
F5F5F5F5F5F5F5F5F5F5F5F5F5F5F5F5F5F5F5F5F5F5F5F5F5F5F5F5F5F5F5F5F5F5F5F5F5F5F5F5F5F5F5F5F5F5F5F5F5F5F5F5F5F5F5F5F5F5F5F5F5F5F5F5F5F5F5F5F5F5F5F5F5F5F5F5F5F5F5F5F5F5F5F5F5F5F5F5F5F5F5F5F5F5F5F5E2F5F5F5E2F5F5E2E2EFE2F5F5E2F5F5F5E2F5F5F5F5F5F5F5F5F5F5F5F5F5
310
F5F5F5F5F5F5F5F5F5F5F5F5F5F5F5F5F5F5F5F5F5F5F5F5F5F5F5F5F5F5F5F5F5F5F5F5F5F5F5F5F5F5F5F5F5F5F5F5F5F5F5F5F5F5F5F5F5F5F5F5F5F5F5F5F5F5F5F5F5F5F5F5F5F5F5F5F5F5F5F5F5F5F5F5F5F5F5F5F5F5F5F5F5F5F5F5F5F5F5F5F5F5F5F5F5F5F5F5F5F5F5F5F5F5F5F5F5F5F5F5F5F5F5F5F5F5F5
310
F5F5F5F5F5F5F5F5F5F5F5F5F5F5F5F5F5F5F5F5F5F5E2F5F5F5E2F5F5E2E2EFE2F5F5E2F5F5F5E2F5F5F5F5F5F5F5F5F5F5F5F5F5F5F5F5F5F5F5F5F5F5F5F5F5F5F5F5F5F5F5F5F5F5F5F5F5F5F5F5F5F5F5F5F5F5F5F5F5F5F5F5F5F5F5F5F5F5F5F5F5F5F5F5F5F5F5F5F5F5F5F5F5F5F5F5F5F5F5F5F5F5F5F5F5F5F5
310
F5F5F5F5F5F5F5F5F5F5F5F5F5F5F5F5F5F5F5F5F5F5F5F5F5F5F5F5F5F5F5F5F5F5F5F5F5F5F5F5F5F5F5F5F5F5F5F5F5F5F5F5F5F5F5F5F5F5F5F5F5F5F5F5F5F5F5F5F5F5F5F5F5F5F5E2F5F5F5E2F5F5E2E2EFE2F5F5E2F5F5F5E2F5F5F5F5F5F5F5F5F5F5F5F5F5F5F5F5F5F5F5F5F5F5F5F5F5F5F5F5F5F5F5F5F5F5
310
F5F5F5F5F5F5F5F5F5F5F5F5F5F5F5F5F5F5F5F5F5F5F5F5F5F5F5F5F5F5F5F5F5F5F5F5F5F5F5F5F5F5F5F5F5F5F5F5F5F5F5F5F5F5F5F5F5F5F5F5F5F5F5F5F5F5F5F5F5F5F5F5F5F5F5F5F5F5F5F5F5F5F5F5F5F5F5F5F5F5F5F5F5F5F5F5F5F5F5F5F5F5F5F5F5F5F5F5F5F5F5F5F5F5F5F5F5F5F5F5F5F5F5F5F5F5F5
310
F5E2F5F5F5E2F5F5E2E2EFE2F5F5E2F5F5F5E2F5F5F5F5F5F5F5F5F5F5F5F5F5F5F5F5F5F5F5F5F5F5F5F5F5F5F5F5F5F5F5F5F5F5F5F5F5F5F5F5F5F5F5F5F5F5F5F5F5F5F5F5F5F5F5F5F5F5F5F5F5F5F5F5F5F5F5F5F5F5F5F5F5F5F5F5F5F5F5F5F5F5F5F5F5F5F5F5F5F5F5F5F5F5F5F5F5F5F5F5F5F5F5F5F5F5F5F5
310
F5F5F5F5F5F5F5F5F5F5F5F5F5F5F5F5F5F5F5F5F5F5F5F5F5F5F5F5F5F5F5F5F5F5F5F5F5F5F5F5F5F5F5F5F5F5F5F5F5F5F5F5F5F5E2F5F5F5E2F5F5E2E2EFE2F5F5E2F5F5F5E2F5F5F5F5F5F5F5F5F5F5F5F5F5F5F5F5F5F5F5F5F5F5F5F5F5F5F5F5F5F5F5F5F5F5F5F5F5F5F5F5F5F5F5F5F5F5F5F5F5F5F5F5F5F5F5
310
F5F5F5F5F5F5F5F5F5F5F5F5F5F5F5F5F5F5F5F5F5F5F5F5F5F5F5F5F5F5F5F5F5F5F5F5F5F5F5F5F5F5F5F5F5F5F5F5F5F5F5F5F5F5F5F5F5F5F5F5F5F5F5F5F5F5F5F5F5F5F5F5F5F5F5F5F5F5F5F5F5F5F5F5F5F5F5F5F5F5F5F5F5F5F5F5F5F5F5F5F5F5F5F5F5F5F5E2F5F5F5E2F5F5E2E2EFE2F5F5E2F5F5F5E2F5F5
310
F5F5F5F5F5F5F5F5F5F5F5F5F5F5F5F5F5F5F5F5F5F5F5F5F5F5F5F5F5F5F5F5F5F5F5F5F5F5F5F5F5F5F5F5F5F5F5F5F5F5F5F5F5F5F5F5F5F5F5F5F5F5F5F5F5F5F5F5F5F5F5F5F5F5F5F5F5F5F5F5F5F5F5F5F5F5F5F5F5F5F5F5F5F5F5F5F5F5F5F5F5F5F5F5F5F5F5F5F5F5F5F5F5F5F5F5F5F5F5F5F5F5F5F5F5F5F5
310
F5F5F5F5F5F5F5F5F5F5F5F5F5F5F5F5F5F5F5F5F5F5F5F5F5F5F5F5F5F5F5F5F5E2F5F5F5E2F5F5E2E2EFE2F5F5E2F5F5F5E2F5F5F5F5F5F5F5F5F5F5F5F5F5F5F5F5F5F5F5F5F5F5F5F5F5F5F5F5F5F5F5F5F5F5F5F5F5F5F5F5F5F5F5F5F5F5F5F5F5F5F5F5F5F5F5F5F5F5F5F5F5F5F5F5F5F5F5F5F5F5F5F5F5F5F5F5
310
F5F5F5F5F5F5F5F5F5F5F5F5F5F5F5F5F5F5F5F5F5F5F5F5F5F5F5F5F5F5F5F5F5F5F5F5F5F5F5F5F5F5F5F5F5F5F5F5F5F5F5F5F5F5F5F5F5F5F5F5F5F5F5F5F5F5F5F5F5F5F5F5F5F5F5F5F5F5F5F5F5F5F5F5F5F5E2F5F5F5E2F5F5E2E2EFE2F5F5E2F5F5F5E2F5F5F5F5F5F5F5F5F5F5F5F5F5F5F5F5F5F5F5F5F5F5F5
310
F5F5F5F5F5F5F5F5F5F5F5F5F5F5F5F5F5F5F5F5F5F5F5F5F5F5F5F5F5F5F5F5F5F5F5F5F5F5F5F5F5F5F5F5F5F5F5F5F5F5F5F5F5F5F5F5F5F5F5F5F5F5F5F5F5F5F5F5F5F5F5F5F5F5F5F5F5F5F5F5F5F5F5F5F5F5F5F5F5F5F5F5F5F5F5F5F5F5F5F5F5F5F5F5F5F5F5F5F5F5F5F5F5F5F5F5F5F5F5F5F5F5F5F5F5F5F5
310
F5F5F5F5F5F5F5F5F5F5F5F5E2F5F5F5E2F5F5E2E2EFE2F5F5E2F5F5F5E2F5F5F5F5F5F5F5F5F5F5F5F5F5F5F5F5F5F5F5F5F5F5F5F5F5F5F5F5F5F5F5F5F5F5F5F5F5F5F5F5F5F5F5F5F5F5F5F5F5F5F5F5F5F5F5F5F5F5F5F5F5F5F5F5F5F5F5F5F5F5F5F5F5F5F5F5F5F5F5F5F5F5F5F5F5F5F5F5F5F5F5F5F5F5F5F5F5
310
F5F5F5F5F5F5F5F5F5F5F5F5F5F5F5F5F5F5F5F5F5F5F5F5F5F5F5F5F5F5F5F5F5F5F5F5F5F5F5F5F5F5F5F5F5F5F5F5F5F5F5F5F5F5F5F5F5F5F5F5F5F5F5F5F5E2F5F5F5E2F5F5E2E2EFE2F5F5E2F5F5F5E2F5F5F5F5F5F5F5F5F5F5F5F5F5F5F5F5F5F5F5F5F5F5F5F5F5F5F5F5F5F5F5F5F5F5F5F5F5F5F5F5F5F5F5F5
310
F5F5F5F5F5F5F5F5F5F5F5F5F5F5F5F5F5F5F5F5F5F5F5F5F5F5F5F5F5F5F5F5F5F5F5F5F5F5F5F5F5F5F5F5F5F5F5F5F5F5F5F5F5F5F5F5F5F5F5F5F5F5F5F5F5F5F5F5F5F5F5F5F5F5F5F5F5F5F5F5F5F5F5F5F5F5F5F5F5F5F5F5F5F5F5F5F5F5F5F5F5F5F5F5F5F5F5F5F5F5F5F5F5F5F5F5F5F5E2F5F5F5E2F5F5E2E2
310
EFE2F5F5F5F5F5F5E2F5F5F5F5F5F5F5F5F5F5F5F5F5F5F5F5F5F5F5F5F5F5F5F5F5F5F5F5F5F5F5F5F5F5F5F5F5F5F5F5F5F5F5F5F5F5F5F5F5F5F5F5F5F5F5F5F5F5F5F5F5F5F5F5F5F5F5F5F5F5F5F5F5F5F5F5F5F5F5F5F5F5F5F5F5F5F5F5F5F5F5F5F5F5F5F5F5F5F5F5F5F5F5F5F5F5F5F5F5F5F5F5F5F5F5F5F5F5
310
F5F5F5F5F5F5F5F5F5F5F5F5F5F5F5F5F5F5F5F5F5F5F5F5F5F5F5F5F5F5F5F5F5F5F5F5F5F5F5F5F5F5F5F5E2F5F5F5F5F5F5E2E2EFE2F5F5F5F5F5F5E2F5F5F5F5F5F5F5F5F5F5F5F5F5F5F5F5F5F5F5F5F5F5F5F5F5F5F5F5F5F5F5F5F5F5F5F5F5F5F5F5F5F5F5F5F5F5F5F5F5F5F5F5F5F5F5F5F5F5F5F5F5F5F5F5F5
310
F5F5F5F5F5F5F5F5F5F5F5F5F5F5F5F5F5F5F5F5F5F5F5F5F5F5F5F5F5F5F5F5F5F5F5F5F5F5F5F5F5F5F5F5F5F5F5F5F5F5F5F5F5F5F5F5F5F5F5F5F5F5F5F5F5F5F5F5F5F5F5F5F5F5F5F5F5F5F5F5F5F5F5F5F5F5F5F5F5F5F5F5F5F5F5F5F5E2F5F5F5F5F5F5E2E2EFE2F5F5F5F5F5F5E2F5F5F5F5F5F5F5F5F5F5F5F5
310
F5F5F5F5F5F5F5F5F5F5F5F5F5F5F5F5F5F5F5F5F5F5F5F5F5F5F5F5F5F5F5F5F5F5F5F5F5F5F5F5F5F5F5F5F5F5F5F5F5F5F5F5F5F5F5F5F5F5F5F5F5F5F5F5F5F5F5F5F5F5F5F5F5F5F5F5F5F5F5F5F5F5F5F5F5F5F5F5F5F5F5F5F5F5F5F5F5F5F5F5F5F5F5F5F5F5F5F5F5F5F5F5F5F5F5F5F5F5F5F5F5F5F5F5F5F5F5
310
F5F5F5F5F5F5F5F5F5F5F5F5F5F5F5F5F5F5F5F5F5F5F5E2F5F5F5F5F5F5E2E2EFE2F5F5F5F5F5F5E2F5F5F5F5F5F5F5F5F5F5F5F5F5F5F5F5F5F5F5F5F5F5F5F5F5F5F5F5F5F5F5F5F5F5F5F5F5F5F5F5F5F5F5F5F5F5F5F5F5F5F5F5F5F5F5F5F5F5F5F5F5F5F5F5F5F5F5F5F5F5F5F5F5F5F5F5F5F5F5F5F5F5F5F5F5F5
310
F5F5F5F5F5F5F5F5F5F5F5F5F5F5F5F5F5F5F5F5F5F5F5F5F5F5F5F5F5F5F5F5F5F5F5F5F5F5F5F5F5F5F5F5F5F5F5F5F5F5F5F5F5F5F5F5F5F5F5F5F5F5F5F5F5F5F5F5F5F5F5F5F5F5F5F5E2F5F5F5F5F5F5E2E2EFE2F5F5F5F5F5F5E2F5F5F5F5F5F5F5F5F5F5F5F5F5F5F5F5F5F5F5F5F5F5F5F5F5F5F5F5F5F5F5F5F5
310
F5F5F5F5F5F5F5F5F5F5F5F5F5F5F5F5F5F5F5F5F5F5F5F5F5F5F5F5F5F5F5F5F5F5F5F5F5F5F5F5F5F5F5F5F5F5F5F5F5F5F5F5F5F5F5F5F5F5F5F5F5F5F5F5F5F5F5F5F5F5F5F5F5F5F5F5F5F5F5F5F5F5F5F5F5F5F5F5F5F5F5F5F5F5F5F5F5F5F5F5F5F5F5F5F5F5F5F5F5F5F5F5F5F5F5F5F5F5F5F5F5F5F5F5F5F5F5
310
F5F5E2F5F5F5F5F5F5E2E2EFE2F5F5F5F5F5F5E2F5F5F5F5F5F5F5F5F5F5F5F5F5F5F5F5F5F5F5F5F5F5F5F5F5F5F5F5F5F5F5F5F5F5F5F5F5F5F5F5F5F5F5F5F5F5F5F5F5F5F5F5F5F5F5F5F5F5F5F5F5F5F5F5F5F5F5F5F5F5F5F5F5F5F5F5F5F5F5F5F5F5F5F5F5F5F5F5F5F5F5F5F5F5F5F5F5F5F5F5F5F5F5F5F5F5F5
310
F5F5F5F5F5F5F5F5F5F5F5F5F5F5F5F5F5F5F5F5F5F5F5F5F5F5F5F5F5F5F5F5F5F5F5F5F5F5F5F5F5F5F5F5F5F5F5F5F5F5F5F5F5F5F5E2F5F5F5F5F5F5E2E2EFE2F5F5F5F5F5F5E2F5F5F5F5F5F5F5F5F5F5F5F5F5F5F5F5F5F5F5F5F5F5F5F5F5F5F5F5F5F5F5F5F5F5F5F5F5F5F5F5F5F5F5F5F5F5F5F5F5F5F5F5F5F5
310
F5F5F5F5F5F5F5F5F5F5F5F5F5F5F5F5F5F5F5F5F5F5F5F5F5F5F5F5F5F5F5F5F5F5F5F5F5F5F5F5F5F5F5F5F5F5F5F5F5F5F5F5F5F5F5F5F5F5F5F5F5F5F5F5F5F5F5F5F5F5F5F5F5F5F5F5F5F5F5F5F5F5F5F5F5F5F5F5F5F5F5F5F5F5F5F5F5F5F5F5F5F5F5F5F5F5F5F5E2F5F5F5F5F5F5E2E2EFE2F5F5F5F5F5F5E2F5
310
F5F5F5F5F5F5F5F5F5F5F5F5F5F5F5F5F5F5F5F5F5F5F5F5F5F5F5F5F5F5F5F5F5F5F5F5F5F5F5F5F5F5F5F5F5F5F5F5F5F5F5F5F5F5F5F5F5F5F5F5F5F5F5F5F5F5F5F5F5F5F5F5F5F5F5F5F5F5F5F5F5F5F5F5F5F5F5F5F5F5F5F5F5F5F5F5F5F5F5F5F5F5F5F5F5F5F5F5F5F5F5F5F5F5F5F5F5F5F5F5F5F5F5F5F5F5F5
310
F5F5F5F5F5F5F5F5F5F5F5F5F5F5F5F5F5F5F5F5F5F5F5F5F5F5F5F5F5F5F5F5F5F5E2F5F5F5F5F5F5E2E2EFE2F5F5F5F5F5F5E2F5F5F5F5F5F5F5F5F5F5F5F5F5F5F5F5F5F5F5F5F5F5F5F5F5F5F5F5F5F5F5F5F5F5F5F5F5F5F5F5F5F5F5F5F5F5F5F5F5F5F5F5F5F5F5F5F5F5F5F5F5F5F5F5F5F5F5F5F5F5F5F5F5F5F5
310
F5F5F5F5F5F5F5F5F5F5F5F5F5F5F5F5F5F5F5F5F5F5F5F5F5F5F5F5F5F5F5F5F5F5F5F5F5F5F5F5F5F5F5F5F5F5F5F5F5F5F5F5F5F5F5F5F5F5F5F5F5F5F5F5F5F5F5F5F5F5F5F5F5F5F5F5F5F5F5F5F5F5F5F5F5F5F5E2F5F5F5F5F5F5E2E2EFE2F5F5E2F5F5F5E2F5F5F5F5F5F5F5F5F5F5F5F5F5F5F5F5F5F5F5F5F5F5
310
F5F5F5F5F5F5F5F5F5F5F5F5F5F5F5F5F5F5F5F5F5F5F5F5F5F5F5F5F5F5F5F5F5F5F5F5F5F5F5F5F5F5F5F5F5F5F5F5F5F5F5F5F5F5F5F5F5F5F5F5F5F5F5F5F5F5F5F5F5F5F5F5F5F5F5F5F5F5F5F5F5F5F5F5F5F5F5F5F5F5F5F5F5F5F5F5F5F5F5F5F5F5F5F5F5F5F5F5F5F5F5F5F5F5F5F5F5F5F5F5F5F5F5F5F5F5F5
310
F5F5F5F5F5F5F5F5F5F5F5F5F5E2F5F5F5E2F5F5E2E2EFE2F5F5E2F5F5F5E2F5F5F5F5F5F5F5F5F5F5F5F5F5F5F5F5F5F5F5F5F5F5F5F5F5F5F5F5F5F5F5F5F5F5F5F5F5F5F5F5F5F5F5F5F5F5F5F5F5F5F5F5F5F5F5F5F5F5F5F5F5F5F5F5F5F5F5F5F5F5F5F5F5F5F5F5F5F5F5F5F5F5F5F5F5F5F5F5F5F5F5F5F5F5F5F5
310
F5F5F5F5F5F5F5F5F5F5F5F5F5F5F5F5F5F5F5F5F5F5F5F5F5F5F5F5F5F5F5F5F5F5F5F5F5F5F5F5F5F5F5F5F5F5F5F5F5F5F5F5F5F5F5F5F5F5F5F5F5F5F5F5F5F5E2F5F5F5E2F5F5E2E2EFE2F5F5E2F5F5F5E2F5F5F5F5F5F5F5F5F5F5F5F5F5F5F5F5F5F5F5F5F5F5F5F5F5F5F5F5F5F5F5F5F5F5F5F5F5F5F5F5F5F5F5
310
F5F5F5F5F5F5F5F5F5F5F5F5F5F5F5F5F5F5F5F5F5F5F5F5F5F5F5F5F5F5F5F5F5F5F5F5F5F5F5F5F5F5F5F5F5F5F5F5F5F5F5F5F5F5F5F5F5F5F5F5F5F5F5F5F5F5F5F5F5F5F5F5F5F5F5F5F5F5F5F5F5F5F5F5F5F5F5F5F5F5F5F5F5F5F5F5F5F5F5F5F5F5F5F5F5F5F5F5F5F5F5F5F5F5F5F5F5F5F5E2F5F5F5E2F5F5E2
310
E2EFE2F5F5E2F5F5F5E2F5F5F5F5F5F5F5F5F5F5F5F5F5F5F5F5F5F5F5F5F5F5F5F5F5F5F5F5F5F5F5F5F5F5F5F5F5F5F5F5F5F5F5F5F5F5F5F5F5F5F5F5F5F5F5F5F5F5F5F5F5F5F5F5F5F5F5F5F5F5F5F5F5F5F5F5F5F5F5F5F5F5F5F5F5F5F5F5F5F5F5F5F5F5F5F5F5F5F5F5F5F5F5F5F5F5F5F5F5F5F5F5F5F5F5F5F5
310
F5F5F5F5F5F5F5F5F5F5F5F5F5F5F5F5F5F5F5F5F5F5F5F5F5F5F5F5F5F5F5F5F5F5F5F5F5F5F5F5F5F5F5F5F5E2F5F5F5E2F5F5E2E2EFE2F5F5E2F5F5F5E2F5F5F5F5F5F5F5F5F5F5F5F5F5F5F5F5F5F5F5F5F5F5F5F5F5F5F5F5F5F5F5F5F5F5F5F5F5F5F5F5F5F5F5F5F5F5F5F5F5F5F5F5F5F5F5F5F5F5F5F5F5F5F5F5
310
F5F5F5F5F5F5F5F5F5F5F5F5F5F5F5F5F5F5F5F5F5F5F5F5F5F5F5F5F5F5F5F5F5F5F5F5F5F5F5F5F5F5F5F5F5F5F5F5F5F5F5F5F5F5F5F5F5F5F5F5F5F5F5F5F5F5F5F5F5F5F5F5F5F5F5F5F5F5F5F5F5F5F5F5F5F5F5F5F5F5F5F5F5F5F5F5F5F5E2F5F5F5E2F5F5E2E2EFE2F5F5E2F5F5F5E2F5F5F5F5F5F5F5F5F5F5F5
310
F5F5F5F5F5F5F5F5F5F5F5F5F5F5F5F5F5F5F5F5F5F5F5F5F5F5F5F5F5F5F5F5F5F5F5F5F5F5F5F5F5F5F5F5F5F5F5F5F5F5F5F5F5F5F5F5F5F5F5F5F5F5F5F5F5F5F5F5F5F5F5F5F5F5F5F5F5F5F5F5F5F5F5F5F5F5F5F5F5F5F5F5F5F5F5F5F5F5F5F5F5F5F5F5F5F5F5F5F5F5F5F5F5F5F5F5F5F5F5F5F5F5F5F5F5F5F5
310
F5F5F5F5F5F5F5F5F5F5F5F5F5F5F5F5F5F5F5F5F5F5F5F5E2F5F5F5E2F5F5E2E2EFE2F5F5E2F5F5F5E2F5F5F5F5F5F5F5F5F5F5F5F5F5F5F5F5F5F5F5F5F5F5F5F5F5F5F5F5F5F5F5F5F5F5F5F5F5F5F5F5F5F5F5F5F5F5F5F5F5F5F5F5F5F5F5F5F5F5F5F5F5F5F5F5F5F5F5F5F5F5F5F5F5F5F5F5F5F5F5F5F5F5F5F5F5
310
F5F5F5F5F5F5F5F5F5F5F5F5F5F5F5F5F5F5F5F5F5F5F5F5F5F5F5F5F5F5F5F5F5F5F5F5F5F5F5F5F5F5F5F5F5F5F5F5F5F5F5F5F5F5F5F5F5F5F5F5F5F5F5F5F5F5F5F5F5F5F5F5F5F5F5F5F5E2F5F5F5E2F5F5E2E2EFE2F5F5E2F5F5F5E2F5F5F5F5F5F5F5F5F5F5F5F5F5F5F5F5F5F5F5F5F5F5F5F5F5F5F5F5F5F5F5F5
310
F5F5F5F5F5F5F5F5F5F5F5F5F5F5F5F5F5F5F5F5F5F5F5F5F5F5F5F5F5F5F5F5F5F5F5F5F5F5F5F5F5F5F5F5F5F5F5F5F5F5F5F5F5F5F5F5F5F5F5F5F5F5F5F5F5F5F5F5F5F5F5F5F5F5F5F5F5F5F5F5F5F5F5F5F5F5F5F5F5F5F5F5F5F5F5F5F5F5F5F5F5F5F5F5F5F5F5F5F5F5F5F5F5F5F5F5F5F5F5F5F5F5F5F5F5F5F5
310
F5F5F5E2F5F5F5E2F5F5E2E2EFE2F5F5E2F5F5F5E2F5F5F5F5F5F5F5F5F5F5F5F5F5F5F5F5F5F5F5F5F5F5F5F5F5F5F5F5F5F5F5F5F5F5F5F5F5F5F5F5F5F5F5F5F5F5F5F5F5F5F5F5F5F5F5F5F5F5F5F5F5F5F5F5F5F5F5F5F5F5F5F5F5F5F5F5F5F5F5F5F5F5F5F5F5F5F5F5F5F5F5F5F5F5F5F5F5F5F5F5F5F5F5F5F5F5
310
F5F5F5F5F5F5F5F5F5F5F5F5F5F5F5F5F5F5F5F5F5F5F5F5F5F5F5F5F5F5F5F5F5F5F5F5F5F5F5F5F5F5F5F5F5F5F5F5F5F5F5F5F5F5F5F5E2F5F5F5E2F5F5E2E2EFE2F5F5E2F5F5F5E2F5F5F5F5F5F5F5F5F5F5F5F5F5F5F5F5F5F5F5F5F5F5F5F5F5F5F5F5F5F5F5F5F5F5F5F5F5F5F5F5F5F5F5F5F5F5F5F5F5F5F5F5F5
310
F5F5F5F5F5F5F5F5F5F5F5F5F5F5F5F5F5F5F5F5F5F5F5F5F5F5F5F5F5F5F5F5F5F5F5F5F5F5F5F5F5F5F5F5F5F5F5F5F5F5F5F5F5F5F5F5F5F5F5F5F5F5F5F5F5F5F5F5F5F5F5F5F5F5F5F5F5F5F5F5F5F5F5F5F5F5F5F5F5F5F5F5F5F5F5F5F5F5F5F5F5F5F5F5F5F5F5F5F5E2F5F5F5E2F5F5E2E2EFE2F5F5E2F5F5F5E2
310
F5F5F5F5F5F5F5F5F5F5F5F5F5F5F5F5F5F5F5F5F5F5F5F5F5F5F5F5F5F5F5F5F5F5F5F5F5F5F5F5F5F5F5F5F5F5F5F5F5F5F5F5F5F5F5F5F5F5F5F5F5F5F5F5F5F5F5F5F5F5F5F5F5F5F5F5F5F5F5F5F5F5F5F5F5F5F5F5F5F5F5F5F5F5F5F5F5F5F5F5F5F5F5F5F5F5F5F5F5F5F5F5F5F5F5F5F5F5F5F5F5F5F5F5F5F5F5
310
F5F5F5F5F5F5F5F5F5F5F5F5F5F5F5F5F5F5F5F5F5F5F5F5F5F5F5F5F5F5F5F5F5F5F5E2F5F5F5E2F5F5E2E2EFE2F5F5E2F5F5F5E2F5F5F5F5F5F5F5F5F5F5F5F5F5F5F5F5F5F5F5F5F5F5F5F5F5F5F5F5F5F5F5F5F5F5F5F5F5F5F5F5F5F5F5F5F5F5F5F5F5F5F5F5F5F5F5F5F5F5F5F5F5F5F5F5F5F5F5F5F5F5F5F5F5F5
310
F5F5F5F5F5F5F5F5F5F5F5F5F5F5F5F5F5F5F5F5F5F5F5F5F5F5F5F5F5F5F5F5F5F5F5F5F5F5F5F5F5F5F5F5F5F5F5F5F5F5F5F5F5F5F5F5F5F5F5F5F5F5F5F5F5F5F5F5F5F5F5F5F5F5F5F5F5F5F5F5F5F5F5F5F5F5F5F5E2F5F5F5E2F5F5E2E2EFE2F5F5E2F5F5F5E2F5F5F5F5F5F5F5F5F5F5F5F5F5F5F5F5F5F5F5F5F5
310
F5F5F5F5F5F5F5F5F5F5F5F5F5F5F5F5F5F5F5F5F5F5F5F5F5F5F5F5F5F5F5F5F5F5F5F5F5F5F5F5F5F5F5F5F5F5F5F5F5F5F5F5F5F5F5F5F5F5F5F5F5F5F5F5F5F5F5F5F5F5F5F5F5F5F5F5F5F5F5F5F5F5F5F5F5F5F5F5F5F5F5F5F5F5F5F5F5F5F5F5F5F5F5F5F5F5F5F5F5F5F5F5F5F5F5F5F5F5F5F5F5F5F5F5F5F5F5
310
F5F5F5F5F5F5F5F5F5F5F5F5F5F5E2F5F5F5E2F5F5E2E2EFE2F5F5E2F5F5F5E2F5F5F5F5F5F5F5F5F5F5F5F5F5F5F5F5F5F5F5F5F5F5F5F5F5F5F5F5F5F5F5F5F5F5F5F5F5F5F5F5F5F5F5F5F5F5F5F5F5F5F5F5F5F5F5F5F5F5F5F5F5F5F5F5F5F5F5F5F5F5F5F5F5F5F5F5F5F5F5F5F5F5F5F5F5F5F5F5F5F5F5F5F5F5F5
310
F5F5F5F5F5F5F5F5F5F5F5F5F5F5F5F5F5F5F5F5F5F5F5F5F5F5F5F5F5F5F5F5F5F5F5F5F5F5F5F5F5F5F5F5F5F5F5F5F5F5F5F5F5F5F5F5F5F5F5F5F5F5F5F5F5F5F5E2F5F5F5E2F5F5E2E2EFE2F5F5E2F5F5F5E2F5F5F5F5F5F5F5F5F5F5F5F5F5F5F5F5F5F5F5F5F5F5F5F5F5F5F5F5F5F5F5F5F5F5F5F5F5F5F5F5F5F5
310
F5F5F5F5F5F5F5F5F5F5F5F5F5F5F5F5F5F5F5F5F5F5F5F5F5F5F5F5F5F5F5F5F5F5F5F5F5F5F5F5F5F5F5F5F5F5F5F5F5F5F5F5F5F5F5F5F5F5F5F5F5F5F5F5F5F5F5F5F5F5F5F5F5F5F5F5F5F5F5F5F5F5F5F5F5F5F5F5F5F5F5F5F5F5F5F5F5F5F5F5F5F5F5F5F5F5F5F5F5F5F5F5F5F5F5F5F5F5F5F5E2F5F5F5E2F5F5
310
E2E2EFE2F5F5F5F5F5F5E2F5F5F5F5F5F5F5F5F5F5F5F5F5F5F5F5F5F5F5F5F5F5F5F5F5F5F5F5F5F5F5F5F5F5F5F5F5F5F5F5F5F5F5F5F5F5F5F5F5F5F5F5F5F5F5F5F5F5F5F5F5F5F5F5F5F5F5F5F5F5F5F5F5F5F5F5F5F5F5F5F5F5F5F5F5F5F5F5F5F5F5F5F5F5F5F5F5F5F5F5F5F5F5F5F5F5F5F5F5F5F5F5F5F5F5F5
310
F5F5F5F5F5F5F5F5F5F5F5F5F5F5F5F5F5F5F5F5F5F5F5F5F5F5F5F5F5F5F5F5F5F5F5F5F5F5F5F5F5F5F5F5F5F5E2F5F5F5F5F5F5E2E2EFE2F5F5F5F5F5F5E2F5F5F5F5F5F5F5F5F5F5F5F5F5F5F5F5F5F5F5F5F5F5F5F5F5F5F5F5F5F5F5F5F5F5F5F5F5F5F5F5F5F5F5F5F5F5F5F5F5F5F5F5F5F5F5F5F5F5F5F5F5F5F5
310
F5F5F5F5F5F5F5F5F5F5F5F5F5F5F5F5F5F5F5F5F5F5F5F5F5F5F5F5F5F5F5F5F5F5F5F5F5F5F5F5F5F5F5F5F5F5F5F5F5F5F5F5F5F5F5F5F5F5F5F5F5F5F5F5F5F5F5F5F5F5F5F5F5F5F5F5F5F5F5F5F5F5F5F5F5F5F5F5F5F5F5F5F5F5F5F5F5F5F5E2F5F5F5F5F5F5E2E2EFE2F5F5F5F5F5F5E2F5F5F5F5F5F5F5F5F5F5
310
F5F5F5F5F5F5F5F5F5F5F5F5F5F5F5F5F5F5F5F5F5F5F5F5F5F5F5F5F5F5F5F5F5F5F5F5F5F5F5F5F5F5F5F5F5F5F5F5F5F5F5F5F5F5F5F5F5F5F5F5F5F5F5F5F5F5F5F5F5F5F5F5F5F5F5F5F5F5F5F5F5F5F5F5F5F5F5F5F5F5F5F5F5F5F5F5F5F5F5F5F5F5F5F5F5F5F5F5F5F5F5F5F5F5F5F5F5F5F5F5F5F5F5F5F5F5F5
310
F5F5F5F5F5F5F5F5F5F5F5F5F5F5F5F5F5F5F5F5F5F5F5F5F5E2F5F5F5F5F5F5E2E2EFE2F5F5F5F5F5F5E2F5F5F5F5F5F5F5F5F5F5F5F5F5F5F5F5F5F5F5F5F5F5F5F5F5F5F5F5F5F5F5F5F5F5F5F5F5F5F5F5F5F5F5F5F5F5F5F5F5F5F5F5F5F5F5F5F5F5F5F5F5F5F5F5F5F5F5F5F5F5F5F5F5F5F5F5F5F5F5F5F5F5F5F5
310
F5F5F5F5F5F5F5F5F5F5F5F5F5F5F5F5F5F5F5F5F5F5F5F5F5F5F5F5F5F5F5F5F5F5F5F5F5F5F5F5F5F5F5F5F5F5F5F5F5F5F5F5F5F5F5F5F5F5F5F5F5F5F5F5F5F5F5F5F5F5F5F5F5F5F5F5F5F5E2F5F5F5F5F5F5E2E2EFE2F5F5F5F5F5F5E2F5F5F5F5F5F5F5F5F5F5F5F5F5F5F5F5F5F5F5F5F5F5F5F5F5F5F5F5F5F5F5
310
F5F5F5F5F5F5F5F5F5F5F5F5F5F5F5F5F5F5F5F5F5F5F5F5F5F5F5F5F5F5F5F5F5F5F5F5F5F5F5F5F5F5F5F5F5F5F5F5F5F5F5F5F5F5F5F5F5F5F5F5F5F5F5F5F5F5F5F5F5F5F5F5F5F5F5F5F5F5F5F5F5F5F5F5F5F5F5F5F5F5F5F5F5F5F5F5F5F5F5F5F5F5F5F5F5F5F5F5F5F5F5F5F5F5F5F5F5F5F5F5F5F5F5F5F5F5F5
310
F5F5F5F5E2F5F5F5F5F5F5E2E2EFE2F5F5F5F5F5F5E2F5F5F5F5F5F5F5F5F5F5F5F5F5F5F5F5F5F5F5F5F5F5F5F5F5F5F5F5F5F5F5F5F5F5F5F5F5F5F5F5F5F5F5F5F5F5F5F5F5F5F5F5F5F5F5F5F5F5F5F5F5F5F5F5F5F5F5F5F5F5F5F5F5F5F5F5F5F5F5F5F5F5F5F5F5F5F5F5F5F5F5F5F5F5F5F5F5F5F5F5F5F5F5F5F5
310
F5F5F5F5F5F5F5F5F5F5F5F5F5F5F5F5F5F5F5F5F5F5F5F5F5F5F5F5F5F5F5F5F5F5F5F5F5F5F5F5F5F5F5F5F5F5F5F5F5F5F5F5F5F5F5F5F5E2F5F5F5F5F5F5E2E2EFE2F5F5F5F5F5F5E2F5F5F5F5F5F5F5F5F5F5F5F5F5F5F5F5F5F5F5F5F5F5F5F5F5F5F5F5F5F5F5F5F5F5F5F5F5F5F5F5F5F5F5F5F5F5F5F5F5F5F5F5
310
F5F5F5F5F5F5F5F5F5F5F5F5F5F5F5F5F5F5F5F5F5F5F5F5F5F5F5F5F5F5F5F5F5F5F5F5F5F5F5F5F5F5F5F5F5F5F5F5F5F5F5F5F5F5F5F5F5F5F5F5F5F5F5F5F5F5F5F5F5F5F5F5F5F5F5F5F5F5F5F5F5F5F5F5F5F5F5F5F5F5F5F5F5F5F5F5F5F5F5F5F5F5F5F5F5F5F5F5F5F5E2F5F5F5F5F5F5E2E2EFE2F5F5F5F5F5F5
310
E2F5F5F5F5F5F5F5F5F5F5F5F5F5F5F5F5F5F5F5F5F5F5F5F5F5F5F5F5F5F5F5F5F5F5F5F5F5F5F5F5F5F5F5F5F5F5F5F5F5F5F5F5F5F5F5F5F5F5F5F5F5F5F5F5F5F5F5F5F5F5F5F5F5F5F5F5F5F5F5F5F5F5F5F5F5F5F5F5F5F5F5F5F5F5F5F5F5F5F5F5F5F5F5F5F5F5F5F5F5F5F5F5F5F5F5F5F5F5F5F5F5F5F5F5F5F5
310
F5F5F5F5F5F5F5F5F5F5F5F5F5F5F5F5F5F5F5F5F5F5F5F5F5F5F5F5F5F5F5F5F5F5F5F5E2F5F5F5F5F5F5E2E2EFE2F5F5E2F5F5F5E2F5F5F5F5F5F5F5F5F5F5F5F5F5F5F5F5F5F5F5F5F5F5F5F5F5F5F5F5F5F5F5F5F5F5F5F5F5F5F5F5F5F5F5F5F5F5F5F5F5F5F5F5F5F5F5F5F5F5F5F5F5F5F5F5F5F5F5F5F5F5F5F5F5
310
F5F5F5F5F5F5F5F5F5F5F5F5F5F5F5F5F5F5F5F5F5F5F5F5F5F5F5F5F5F5F5F5F5F5F5F5F5F5F5F5F5F5F5F5F5F5F5F5F5F5F5F5F5F5F5F5F5F5F5F5F5F5F5F5F5F5F5F5F5F5F5F5F5F5F5F5F5F5F5F5F5F5F5F5F5F5F5F5F5E2F5F5F5E2F5F5E2E2EFE2F5F5E2F5F5F5E2F5F5F5F5F5F5F5F5F5F5F5F5F5F5F5F5F5F5F5F5
310
F5F5F5F5F5F5F5F5F5F5F5F5F5F5F5F5F5F5F5F5F5F5F5F5F5F5F5F5F5F5F5F5F5F5F5F5F5F5F5F5F5F5F5F5F5F5F5F5F5F5F5F5F5F5F5F5F5F5F5F5F5F5F5F5F5F5F5F5F5F5F5F5F5F5F5F5F5F5F5F5F5F5F5F5F5F5F5F5F5F5F5F5F5F5F5F5F5F5F5F5F5F5F5F5F5F5F5F5F5F5F5F5F5F5F5F5F5F5F5F5F5F5F5F5F5F5F5
310
F5F5F5F5F5F5F5F5F5F5F5F5F5F5F5E2F5F5F5E2F5F5E2E2EFE2F5F5E2F5F5F5E2F5F5F5F5F5F5F5F5F5F5F5F5F5F5F5F5F5F5F5F5F5F5F5F5F5F5F5F5F5F5F5F5F5F5F5F5F5F5F5F5F5F5F5F5F5F5F5F5F5F5F5F5F5F5F5F5F5F5F5F5F5F5F5F5F5F5F5F5F5F5F5F5F5F5F5F5F5F5F5F5F5F5F5F5F5F5F5F5F5F5F5F5F5F5
310
F5F5F5F5F5F5F5F5F5F5F5F5F5F5F5F5F5F5F5F5F5F5F5F5F5F5F5F5F5F5F5F5F5F5F5F5F5F5F5F5F5F5F5F5F5F5F5F5F5F5F5F5F5F5F5F5F5F5F5F5F5F5F5F5F5F5F5F5E2F5F5F5E2F5F5E2E2EFE2F5F5E2F5F5F5E2F5F5F5F5F5F5F5F5F5F5F5F5F5F5F5F5F5F5F5F5F5F5F5F5F5F5F5F5F5F5F5F5F5F5F5F5F5F5F5F5F5
310
F5F5F5F5F5F5F5F5F5F5F5F5F5F5F5F5F5F5F5F5F5F5F5F5F5F5F5F5F5F5F5F5F5F5F5F5F5F5F5F5F5F5F5F5F5F5F5F5F5F5F5F5F5F5F5F5F5F5F5F5F5F5F5F5F5F5F5F5F5F5F5F5F5F5F5F5F5F5F5F5F5F5F5F5F5F5F5F5F5F5F5F5F5F5F5F5F5F5F5F5F5F5F5F5F5F5F5F5F5F5F5F5F5F5F5F5F5F5F5F5F5E2F5F5F5E2F5
310
F5E2E2EFE2F5F5E2F5F5F5E2F5F5F5F5F5F5F5F5F5F5F5F5F5F5F5F5F5F5F5F5F5F5F5F5F5F5F5F5F5F5F5F5F5F5F5F5F5F5F5F5F5F5F5F5F5F5F5F5F5F5F5F5F5F5F5F5F5F5F5F5F5F5F5F5F5F5F5F5F5F5F5F5F5F5F5F5F5F5F5F5F5F5F5F5F5F5F5F5F5F5F5F5F5F5F5F5F5F5F5F5F5F5F5F5F5F5F5F5F5F5F5F5F5F5F5
310
F5F5F5F5F5F5F5F5F5F5F5F5F5F5F5F5F5F5F5F5F5F5F5F5F5F5F5F5F5F5F5F5F5F5F5F5F5F5F5F5F5F5F5F5F5F5F5E2F5F5F5E2F5F5E2E2EFE2F5F5E2F5F5F5E2F5F5F5F5F5F5F5F5F5F5F5F5F5F5F5F5F5F5F5F5F5F5F5F5F5F5F5F5F5F5F5F5F5F5F5F5F5F5F5F5F5F5F5F5F5F5F5F5F5F5F5F5F5F5F5F5F5F5F5F5F5F5
310
F5F5F5F5F5F5F5F5F5F5F5F5F5F5F5F5F5F5F5F5F5F5F5F5F5F5F5F5F5F5F5F5F5F5F5F5F5F5F5F5F5F5F5F5F5F5F5F5F5F5F5F5F5F5F5F5F5F5F5F5F5F5F5F5F5F5F5F5F5F5F5F5F5F5F5F5F5F5F5F5F5F5F5F5F5F5F5F5F5F5F5F5F5F5F5F5F5F5F5F5E2F5F5F5E2F5F5E2E2EFE2F5F5E2F5F5F5E2F5F5F5F5F5F5F5F5F5
310
F5F5F5F5F5F5F5F5F5F5F5F5F5F5F5F5F5F5F5F5F5F5F5F5F5F5F5F5F5F5F5F5F5F5F5F5F5F5F5F5F5F5F5F5F5F5F5F5F5F5F5F5F5F5F5F5F5F5F5F5F5F5F5F5F5F5F5F5F5F5F5F5F5F5F5F5F5F5F5F5F5F5F5F5F5F5F5F5F5F5F5F5F5F5F5F5F5F5F5F5F5F5F5F5F5F5F5F5F5F5F5F5F5F5F5F5F5F5F5F5F5F5F5F5F5F5F5
310
F5F5F5F5F5F5F5F5F5F5F5F5F5F5F5F5F5F5F5F5F5F5F5F5F5F5E2F5F5F5E2F5F5E2E2EFE2F5F5E2F5F5F5E2F5F5F5F5F5F5F5F5F5F5F5F5F5F5F5F5F5F5F5F5F5F5F5F5F5F5F5F5F5F5F5F5F5F5F5F5F5F5F5F5F5F5F5F5F5F5F5F5F5F5F5F5F5F5F5F5F5F5F5F5F5F5F5F5F5F5F5F5F5F5F5F5F5F5F5F5F5F5F5F5F5F5F5
310
F5F5F5F5F5F5F5F5F5F5F5F5F5F5F5F5F5F5F5F5F5F5F5F5F5F5F5F5F5F5F5F5F5F5F5F5F5F5F5F5F5F5F5F5F5F5F5F5F5F5F5F5F5F5F5F5F5F5F5F5F5F5F5F5F5F5F5F5F5F5F5F5F5F5F5F5F5F5F5E2F5F5F5E2F5F5E2E2EFE2F5F5E2F5F5F5E2F5F5F5F5F5F5F5F5F5F5F5F5F5F5F5F5F5F5F5F5F5F5F5F5F5F5F5F5F5F5
310
F5F5F5F5F5F5F5F5F5F5F5F5F5F5F5F5F5F5F5F5F5F5F5F5F5F5F5F5F5F5F5F5F5F5F5F5F5F5F5F5F5F5F5F5F5F5F5F5F5F5F5F5F5F5F5F5F5F5F5F5F5F5F5F5F5F5F5F5F5F5F5F5F5F5F5F5F5F5F5F5F5F5F5F5F5F5F5F5F5F5F5F5F5F5F5F5F5F5F5F5F5F5F5F5F5F5F5F5F5F5F5F5F5F5F5F5F5F5F5F5F5F5F5F5F5F5F5
310
F5F5F5F5F5E2F5F5F5E2F5F5E2E2EFE2F5F5E2F5F5F5E2F5F5F5F5F5F5F5F5F5F5F5F5F5F5F5F5F5F5F5F5F5F5F5F5F5F5F5F5F5F5F5F5F5F5F5F5F5F5F5F5F5F5F5F5F5F5F5F5F5F5F5F5F5F5F5F5F5F5F5F5F5F5F5F5F5F5F5F5F5F5F5F5F5F5F5F5F5F5F5F5F5F5F5F5F5F5F5F5F5F5F5F5F5F5F5F5F5F5F5F5F5F5F5F5
310
F5F5F5F5F5F5F5F5F5F5F5F5F5F5F5F5F5F5F5F5F5F5F5F5F5F5F5F5F5F5F5F5F5F5F5F5F5F5F5F5F5F5F5F5F5F5F5F5F5F5F5F5F5F5F5F5F5F5E2F5F5F5E2F5F5E2E2EFE2F5F5E2F5F5F5E2F5F5F5F5F5F5F5F5F5F5F5F5F5F5F5F5F5F5F5F5F5F5F5F5F5F5F5F5F5F5F5F5F5F5F5F5F5F5F5F5F5F5F5F5F5F5F5F5F5F5F5
310
F5F5F5F5F5F5F5F5F5F5F5F5F5F5F5F5F5F5F5F5F5F5F5F5F5F5F5F5F5F5F5F5F5F5F5F5F5F5F5F5F5F5F5F5F5F5F5F5F5F5F5F5F5F5F5F5F5F5F5F5F5F5F5F5F5F5F5F5F5F5F5F5F5F5F5F5F5F5F5F5F5F5F5F5F5F5F5F5F5F5F5F5F5F5F5F5F5F5F5F5F5F5F5F5F5F5F5F5F5F5F5E2F5F5F5E2F5F5E2E2EFE2F5F5E2F5F5
310
F5E2F5F5F5F5F5F5F5F5F5F5F5F5F5F5F5F5F5F5F5F5F5F5F5F5F5F5F5F5F5F5F5F5F5F5F5F5F5F5F5F5F5F5F5F5F5F5F5F5F5F5F5F5F5F5F5F5F5F5F5F5F5F5F5F5F5F5F5F5F5F5F5F5F5F5F5F5F5F5F5F5F5F5F5F5F5F5F5F5F5F5F5F5F5F5F5F5F5F5F5F5F5F5F5F5F5F5F5F5F5F5F5F5F5F5F5F5F5F5F5F5F5F5F5F5F5
310
F5F5F5F5F5F5F5F5F5F5F5F5F5F5F5F5F5F5F5F5F5F5F5F5F5F5F5F5F5F5F5F5F5F5F5F5F5E2F5F5F5E2F5F5E2E2EFE2F5F5E2F5F5F5E2F5F5F5F5F5F5F5F5F5F5F5F5F5F5F5F5F5F5F5F5F5F5F5F5F5F5F5F5F5F5F5F5F5F5F5F5F5F5F5F5F5F5F5F5F5F5F5F5F5F5F5F5F5F5F5F5F5F5F5F5F5F5F5F5F5F5F5F5F5F5F5F5
310
F5F5F5F5F5F5F5F5F5F5F5F5F5F5F5F5F5F5F5F5F5F5F5F5F5F5F5F5F5F5F5F5F5F5F5F5F5F5F5F5F5F5F5F5F5F5F5F5F5F5F5F5F5F5F5F5F5F5F5F5F5F5F5F5F5F5F5F5F5F5F5F5F5F5F5F5F5F5F5F5F5F5F5F5F5F5F5F5F5F5E2F5F5F5E2F5F5E2E2EFE2F5F5E2F5F5F5E2F5F5F5F5F5F5F5F5F5F5F5F5F5F5F5F5F5F5F5
310
F5F5F5F5F5F5F5F5F5F5F5F5F5F5F5F5F5F5F5F5F5F5F5F5F5F5F5F5F5F5F5F5F5F5F5F5F5F5F5F5F5F5F5F5F5F5F5F5F5F5F5F5F5F5F5F5F5F5F5F5F5F5F5F5F5F5F5F5F5F5F5F5F5F5F5F5F5F5F5F5F5F5F5F5F5F5F5F5F5F5F5F5F5F5F5F5F5F5F5F5F5F5F5F5F5F5F5F5F5F5F5F5F5F5F5F5F5F5F5F5F5F5F5F5F5F5F5
310
F5F5F5F5F5F5F5F5F5F5F5F5F5F5F5F5E2F5F5F5E2F5F5E2E2EFE2F5F5E2F5F5F5E2F5F5F5F5F5F5F5F5F5F5F5F5F5F5F5F5F5F5F5F5F5F5F5F5F5F5F5F5F5F5F5F5F5F5F5F5F5F5F5F5F5F5F5F5F5F5F5F5F5F5F5F5F5F5F5F5F5F5F5F5F5F5F5F5F5F5F5F5F5F5F5F5F5F5F5F5F5F5F5F5F5F5F5F5F5F5F5F5F5F5F5F5F5
310
F5F5F5F5F5F5F5F5F5F5F5F5F5F5F5F5F5F5F5F5F5F5F5F5F5F5F5F5F5F5F5F5F5F5F5F5F5F5F5F5F5F5F5F5F5F5F5F5F5F5F5F5F5F5F5F5F5F5F5F5F5F5F5F5F5F5F5F5F5E2F5F5F5E2F5F5E2E2EFE2F5F5F5F5F5F5E2F5F5F5F5F5F5F5F5F5F5F5F5F5F5F5F5F5F5F5F5F5F5F5F5F5F5F5F5F5F5F5F5F5F5F5F5F5F5F5F5
310
F5F5F5F5F5F5F5F5F5F5F5F5F5F5F5F5F5F5F5F5F5F5F5F5F5F5F5F5F5F5F5F5F5F5F5F5F5F5F5F5F5F5F5F5F5F5F5F5F5F5F5F5F5F5F5F5F5F5F5F5F5F5F5F5F5F5F5F5F5F5F5F5F5F5F5F5F5F5F5F5F5F5F5F5F5F5F5F5F5F5F5F5F5F5F5F5F5F5F5F5F5F5F5F5F5F5F5F5F5F5F5F5F5F5F5F5F5F5F5F5F5F5E2F5F5F5F5
310
F5F5E2E2EFE2F5F5F5F5F5F5E2F5F5F5F5F5F5F5F5F5F5F5F5F5F5F5F5F5F5F5F5F5F5F5F5F5F5F5F5F5F5F5F5F5F5F5F5F5F5F5F5F5F5F5F5F5F5F5F5F5F5F5F5F5F5F5F5F5F5F5F5F5F5F5F5F5F5F5F5F5F5F5F5F5F5F5F5F5F5F5F5F5F5F5F5F5F5F5F5F5F5F5F5F5F5F5F5F5F5F5F5F5F5F5F5F5F5F5F5F5F5F5F5F5F5
310
F5F5F5F5F5F5F5F5F5F5F5F5F5F5F5F5F5F5F5F5F5F5F5F5F5F5F5F5F5F5F5F5F5F5F5F5F5F5F5F5F5F5F5F5F5F5F5F5E2F5F5F5F5F5F5E2E2EFE2F5F5F5F5F5F5E2F5F5F5F5F5F5F5F5F5F5F5F5F5F5F5F5F5F5F5F5F5F5F5F5F5F5F5F5F5F5F5F5F5F5F5F5F5F5F5F5F5F5F5F5F5F5F5F5F5F5F5F5F5F5F5F5F5F5F5F5F5
310
F5F5F5F5F5F5F5F5F5F5F5F5F5F5F5F5F5F5F5F5F5F5F5F5F5F5F5F5F5F5F5F5F5F5F5F5F5F5F5F5F5F5F5F5F5F5F5F5F5F5F5F5F5F5F5F5F5F5F5F5F5F5F5F5F5F5F5F5F5F5F5F5F5F5F5F5F5F5F5F5F5F5F5F5F5F5F5F5F5F5F5F5F5F5F5F5F5F5F5F5F5E2F5F5F5F5F5F5E2E2EFE2F5F5F5F5F5F5E2F5F5F5F5F5F5F5F5
310
F5F5F5F5F5F5F5F5F5F5F5F5F5F5F5F5F5F5F5F5F5F5F5F5F5F5F5F5F5F5F5F5F5F5F5F5F5F5F5F5F5F5F5F5F5F5F5F5F5F5F5F5F5F5F5F5F5F5F5F5F5F5F5F5F5F5F5F5F5F5F5F5F5F5F5F5F5F5F5F5F5F5F5F5F5F5F5F5F5F5F5F5F5F5F5F5F5F5F5F5F5F5F5F5F5F5F5F5F5F5F5F5F5F5F5F5F5F5F5F5F5F5F5F5F5F5F5
310
F5F5F5F5F5F5F5F5F5F5F5F5F5F5F5F5F5F5F5F5F5F5F5F5F5F5F5E2F5F5F5F5F5F5E2E2EFE2F5F5F5F5F5F5E2F5F5F5F5F5F5F5F5F5F5F5F5F5F5F5F5F5F5F5F5F5F5F5F5F5F5F5F5F5F5F5F5F5F5F5F5F5F5F5F5F5F5F5F5F5F5F5F5F5F5F5F5F5F5F5F5F5F5F5F5F5F5F5F5F5F5F5F5F5F5F5F5F5F5F5F5F5F5F5F5F5F5
310
F5F5F5F5F5F5F5F5F5F5F5F5F5F5F5F5F5F5F5F5F5F5F5F5F5F5F5F5F5F5F5F5F5F5F5F5F5F5F5F5F5F5F5F5F5F5F5F5F5F5F5F5F5F5F5F5F5F5F5F5F5F5F5F5F5F5F5F5F5F5F5F5F5F5F5F5F5F5F5F5E2F5F5F5F5F5F5E2E2EFE2F5F5F5F5F5F5E2F5F5F5F5F5F5F5F5F5F5F5F5F5F5F5F5F5F5F5F5F5F5F5F5F5F5F5F5F5
310
F5F5F5F5F5F5F5F5F5F5F5F5F5F5F5F5F5F5F5F5F5F5F5F5F5F5F5F5F5F5F5F5F5F5F5F5F5F5F5F5F5F5F5F5F5F5F5F5F5F5F5F5F5F5F5F5F5F5F5F5F5F5F5F5F5F5F5F5F5F5F5F5F5F5F5F5F5F5F5F5F5F5F5F5F5F5F5F5F5F5F5F5F5F5F5F5F5F5F5F5F5F5F5F5F5F5F5F5F5F5F5F5F5F5F5F5F5F5F5F5F5F5F5F5F5F5F5
310
F5F5F5F5F5F5E2F5F5F5F5F5F5E2E2EFE2F5F5F5F5F5F5E2F5F5F5F5F5F5F5F5F5F5F5F5F5F5F5F5F5F5F5F5F5F5F5F5F5F5F5F5F5F5F5F5F5F5F5F5F5F5F5F5F5F5F5F5F5F5F5F5F5F5F5F5F5F5F5F5F5F5F5F5F5F5F5F5F5F5F5F5F5F5F5F5F5F5F5F5F5F5F5F5F5F5F5F5F5F5F5F5F5F5F5F5F5F5F5F5F5F5F5F5F5F5F5
310
F5F5F5F5F5F5F5F5F5F5F5F5F5F5F5F5F5F5F5F5F5F5F5F5F5F5F5F5F5F5F5F5F5F5F5F5F5F5F5F5F5F5F5F5F5F5F5F5F5F5F5F5F5F5F5F5F5F5F5E2F5F5F5F5F5F5E2E2EFE2F5F5F5F5F5F5E2F5F5F5F5F5F5F5F5F5F5F5F5F5F5F5F5F5F5F5F5F5F5F5F5F5F5F5F5F5F5F5F5F5F5F5F5F5F5F5F5F5F5F5F5F5F5F5F5F5F5
310
F5F5F5F5F5F5F5F5F5F5F5F5F5F5F5F5F5F5F5F5F5F5F5F5F5F5F5F5F5F5F5F5F5F5F5F5F5F5F5F5F5F5F5F5F5F5F5F5F5F5F5F5F5F5F5F5F5F5F5F5F5F5F5F5F5F5F5F5F5F5F5F5F5F5F5F5F5F5F5F5F5F5F5F5F5F5F5F5F5F5F5F5F5F5F5F5F5F5F5F5F5F5F5F5F5F5F5F5F5F5F5F5E2F5F5F5F5F5F5E2E2EFE2F5F5F5F5
310
F5F5E2F5F5F5F5F5F5F5F5F5F5F5F5F5F5F5F5F5F5F5F5F5F5F5F5F5F5F5F5F5F5F5F5F5F5F5F5F5F5F5F5F5F5F5F5F5F5F5F5F5F5F5F5F5F5F5F5F5F5F5F5F5F5F5F5F5F5F5F5F5F5F5F5F5F5F5F5F5F5F5F5F5F5F5F5F5F5F5F5F5F5F5F5F5F5F5F5F5F5F5F5F5F5F5F5F5F5F5F5F5F5F5F5F5F5F5F5F5F5F5F5F5F5F5F5
310
F5F5F5F5F5F5F5F5F5F5F5F5F5F5F5F5F5F5F5F5F5F5F5F5F5F5F5F5F5F5F5F5F5F5F5F5F5F5E2F5F5F5F5F5F5E2E2EFE2F5F5E2F5F5F5E2F5F5F5F5F5F5F5F5F5F5F5F5F5F5F5F5F5F5F5F5F5F5F5F5F5F5F5F5F5F5F5F5F5F5F5F5F5F5F5F5F5F5F5F5F5F5F5F5F5F5F5F5F5F5F5F5F5F5F5F5F5F5F5F5F5F5F5F5F5F5F5
310
F5F5F5F5F5F5F5F5F5F5F5F5F5F5F5F5F5F5F5F5F5F5F5F5F5F5F5F5F5F5F5F5F5F5F5F5F5F5F5F5F5F5F5F5F5F5F5F5F5F5F5F5F5F5F5F5F5F5F5F5F5F5F5F5F5F5F5F5F5F5F5F5F5F5F5F5F5F5F5F5F5F5F5F5F5F5F5F5F5F5F5E2F5F5F5E2F5F5E2E2EFE2F5F5E2F5F5F5E2F5F5F5F5F5F5F5F5F5F5F5F5F5F5F5F5F5F5
310
F5F5F5F5F5F5F5F5F5F5F5F5F5F5F5F5F5F5F5F5F5F5F5F5F5F5F5F5F5F5F5F5F5F5F5F5F5F5F5F5F5F5F5F5F5F5F5F5F5F5F5F5F5F5F5F5F5F5F5F5F5F5F5F5F5F5F5F5F5F5F5F5F5F5F5F5F5F5F5F5F5F5F5F5F5F5F5F5F5F5F5F5F5F5F5F5F5F5F5F5F5F5F5F5F5F5F5F5F5F5F5F5F5F5F5F5F5F5F5F5F5F5F5F5F5F5F5
310
F5F5F5F5F5F5F5F5F5F5F5F5F5F5F5F5F5E2F5F5F5E2F5F5E2E2EFE2F5F5E2F5F5F5E2F5F5F5F5F5F5F5F5F5F5F5F5F5F5F5F5F5F5F5F5F5F5F5F5F5F5F5F5F5F5F5F5F5F5F5F5F5F5F5F5F5F5F5F5F5F5F5F5F5F5F5F5F5F5F5F5F5F5F5F5F5F5F5F5F5F5F5F5F5F5F5F5F5F5F5F5F5F5F5F5F5F5F5F5F5F5F5F5F5F5F5F5
310
F5F5F5F5F5F5F5F5F5F5F5F5F5F5F5F5F5F5F5F5F5F5F5F5F5F5F5F5F5F5F5F5F5F5F5F5F5F5F5F5F5F5F5F5F5F5F5F5F5F5F5F5F5F5F5F5F5F5F5F5F5F5F5F5F5F5F5F5F5F5E2F5F5F5E2F5F5E2E2EFE2F5F5E2F5F5F5E2F5F5F5F5F5F5F5F5F5F5F5F5F5F5F5F5F5F5F5F5F5F5F5F5F5F5F5F5F5F5F5F5F5F5F5F5F5F5F5
310
F5F5F5F5F5F5F5F5F5F5F5F5F5F5F5F5F5F5F5F5F5F5F5F5F5F5F5F5F5F5F5F5F5F5F5F5F5F5F5F5F5F5F5F5F5F5F5F5F5F5F5F5F5F5F5F5F5F5F5F5F5F5F5F5F5F5F5F5F5F5F5F5F5F5F5F5F5F5F5F5F5F5F5F5F5F5F5F5F5F5F5F5F5F5F5F5F5F5F5F5F5F5F5F5F5F5F5F5F5F5F5F5F5F5F5F5F5F5F5F5F5F5F5E2F5F5F5
310
E2F5F5E2E2EFE2F5F5E2F5F5F5E2F5F5F5F5F5F5F5F5F5F5F5F5F5F5F5F5F5F5F5F5F5F5F5F5F5F5F5F5F5F5F5F5F5F5F5F5F5F5F5F5F5F5F5F5F5F5F5F5F5F5F5F5F5F5F5F5F5F5F5F5F5F5F5F5F5F5F5F5F5F5F5F5F5F5F5F5F5F5F5F5F5F5F5F5F5F5F5F5F5F5F5F5F5F5F5F5F5F5F5F5F5F5F5F5F5F5F5F5F5F5F5F5F5
310
F5F5F5F5F5F5F5F5F5F5F5F5F5F5F5F5F5F5F5F5F5F5F5F5F5F5F5F5F5F5F5F5F5F5F5F5F5F5F5F5F5F5F5F5F5F5F5F5F5E2F5F5F5E2F5F5E2E2EFE2F5F5E2F5F5F5E2F5F5F5F5F5F5F5F5F5F5F5F5F5F5F5F5F5F5F5F5F5F5F5F5F5F5F5F5F5F5F5F5F5F5F5F5F5F5F5F5F5F5F5F5F5F5F5F5F5F5F5F5F5F5F5F5F5F5F5F5
310
F5F5F5F5F5F5F5F5F5F5F5F5F5F5F5F5F5F5F5F5F5F5F5F5F5F5F5F5F5F5F5F5F5F5F5F5F5F5F5F5F5F5F5F5F5F5F5F5F5F5F5F5F5F5F5F5F5F5F5F5F5F5F5F5F5F5F5F5F5F5F5F5F5F5F5F5F5F5F5F5F5F5F5F5F5F5F5F5F5F5F5F5F5F5F5F5F5F5F5F5F5F5E2F5F5F5E2F5F5E2E2EFE2F5F5E2F5F5F5E2E2E2E2E2E2E2E2
310
E2E2E2E2E2E2E2E2E2E2E2E2E2E2E2E2E2E2E2E2E2E2E2E2E2E2E2E2E2E2E2E2E2E2E2E2E2E2E2E2E2E2E2E2E2E2E2E2E2E2E2E2E2E2E2E2E2E2E2E2E2E2E2E2E2E2E2E2E2E2E2E2E2E2E2E2E2E2E2E2E2E2E2E2E2E2E2E2E2E2E2E2E2E2E2E2E2E2E2E2E2E2E2E2E2E2E2E2E2E2E2E2E2E2E2E2E2E2E2E2E2E2E2E2E2E2E2
310
E2E2E2E2E2E2E2E2E2E2E2E2E2E2E2E2E2E2E2E2E2E2E2E2E2E2E2E2E2F5F5F5E2F5F5E2E2EFE2F5F5E2E2E2E2E2E2E2E2F5F5F5F5F5F5F5F5F5E2E2E2E2E2E2E2E2E2E2E2E2E2E2E2E2F5F5F5F5F5F5F5F5F5E2E2E2E2E2E2E2E2E2E2E2E2E2E2E2F5F5F5F5F5F5F5F5F5E2E2E2E2E2E2E2E2E2E2E2E2E2E2E2E2F5F5F5F5
310
F5F5F5F5E2E2E2E2E2E2E2E2E2E2E2E2E2E2E2E2F5F5F5F5F5F5F5F5F5E2E2E2E2E2E2E2E2E2E2E2E2E2E2E2F5F5F5F5F5F5F5F5F5E2E2E2E2E2E2E2E2E2E2E2E2E2E2E2E2F5F5F5F5F5F5F5F5F5E2E2E2E2E2E2E2E2F5F5E2E2EFE2F5F5F5F5F5F5F5F5F5F5F5F5F5F5F5F5F5F5F5F5F5F5F5F5F5F5F5F5F5F5F5F5F5F5F5
310
F5F5F5F5F5F5F5F5F5F5F5F5F5F5F5F5F5F5F5F5F5F5F5F5F5F5F5F5F5F5F5F5F5F5F5F5F5F5F5F5F5F5F5F5F5F5F5F5F5F5F5F5F5F5F5F5F5F5F5F5F5F5F5F5F5F5F5F5F5F5F5F5F5F5F5F5F5F5F5F5F5F5F5F5F5F5F5F5F5F5F5F5F5F5F5F5F5F5F5F5F5F5F5F5F5F5F5F5F5F5F5F5F5F5F5F5F5F5F5F5F5F5F5F5F5F5F5
310
F5F5F5F5F5F5F5F5F5F5F5F5F5F5E2E2EFE2F5F5F5F5F5F5F5F5F5F5F5F5F5F5F5F5F5F5F5F5F5F5F5F5F5F5F5F5F5F5F5F5F5F5F5F5F5F5F5F5F5F5F5F5F5F5F5F5F5F5F5F5F5F5F5F5F5F5F5F5F5F5F5F5F5F5F5F5F5F5F5F5F5F5F5F5F5F5F5F5F5F5F5F5F5F5F5F5F5F5F5F5F5F5F5F5F5F5F5F5F5F5F5F5F5F5F5F5F5
310
F5F5F5F5F5F5F5F5F5F5F5F5F5F5F5F5F5F5F5F5F5F5F5F5F5F5F5F5F5F5F5F5F5F5F5F5F5F5F5F5F5F5F5F5F5F5F5F5F5F5F5F5F5F5F5F5F5F5F5F5F5F5F5F5F5F5F5E2E2EFE2F5F5F5F5F5F5F5F5F5F5F5F5F5F5F5F5F5F5F5F5F5F5F5F5F5F5F5F5F5F5F5F5F5F5F5F5F5F5F5F5F5F5F5F5F5F5F5F5F5F5F5F5F5F5F5F5
310
F5F5F5F5F5F5F5F5F5F5F5F5F5F5F5F5F5F5F5F5F5F5F5F5F5F5F5F5F5F5F5F5F5F5F5F5F5F5F5F5F5F5F5F5F5F5F5F5F5F5F5F5F5F5F5F5F5F5F5F5F5F5F5F5F5F5F5F5F5F5F5F5F5F5F5F5F5F5F5F5F5F5F5F5F5F5F5F5F5F5F5F5F5F5F5F5F5F5F5F5F5F5F5F5F5F5F5F5F5F5F5F5F5F5F5F5F5F5F5F5E2EFEFE2E2E2E2
310
E2E2E2E2E2E2E2E2E2E2E2E2E2E2E2E2E2E2E2E2E2E2E2E2E2E2E2E2E2E2E2E2E2E2E2E2E2E2E2E2E2E2E2E2E2E2E2E2E2E2E2E2E2E2E2E2E2E2E2E2E2E2E2E2E2E2E2E2E2E2E2E2E2E2E2E2E2E2E2E2E2E2E2E2E2E2E2E2E2E2E2E2E2E2E2E2E2E2E2E2E2E2E2E2E2E2E2E2E2E2E2E2E2E2E2E2E2E2E2E2E2E2E2E2E2E2E2
310
E2E2E2E2E2E2E2E2E2E2E2E2E2E2E2E2E2E2E2E2E2E2E2E2E2E2E2E2E2E2E2E2E2E2E2E2E2E2E2E2E2E2E2E2E2E2E2EF
  0
XRECORD
  5
1648C
102
{ACAD_REACTORS
330
1648B
102
}
330
1648B
100
AcDbXrecord
280
     1
102
SHADEPLOT
 70
     0
102
SHADEPLOTRESLEVEL
 70
     2
102
SHADEPLOTCUSTOMDPI
 70
   300
  0
XRECORD
  5
1643E
102
{ACAD_REACTORS
330
1643D
102
}
330
1643D
100
AcDbXrecord
280
     1
102
MATERIAL
148
0.0
149
0.0
149
0.0
 93
        0
 94
       63
282
     0
 72
     1
 77
     1
171
     1
175
     1
179
     1
273
     0
  0
XRECORD
  5
1643C
102
{ACAD_REACTORS
330
1643B
102
}
330
1643B
100
AcDbXrecord
280
     1
102
MATERIAL
148
0.0
149
0.0
149
0.0
 93
        0
 94
       63
282
     0
 72
     1
 77
     1
171
     1
175
     1
179
     1
273
     0
  0
XRECORD
  5
16440
102
{ACAD_REACTORS
330
1643F
102
}
330
1643F
100
AcDbXrecord
280
     1
102
MATERIAL
148
0.0
149
0.0
149
0.0
 93
        0
 94
       63
282
     0
 72
     1
 77
     1
171
     1
175
     1
179
     1
273
     0
  0
XRECORD
  5
16490
102
{ACAD_REACTORS
330
1648F
102
}
330
1648F
100
AcDbXrecord
280
     1
102
SHADEPLOT
 70
     0
102
SHADEPLOTRESLEVEL
 70
     2
102
SHADEPLOTCUSTOMDPI
 70
   300
  0
XRECORD
  5
16492
102
{ACAD_REACTORS
330
16491
102
}
330
16491
100
AcDbXrecord
280
     1
102
ACAD_ROUNDTRIP_PRE2007_TABLESTYLE
 90
      512
 91
        0
  1

 92
      512
 93
        0
  2

 94
      512
 95
        0
  3

  0
ENDSEC
  0
EOF
