  0
SECTION
  2
HEADER
  9
$ACADVER
  1
AC1015
  9
$ACADMAINTVER
 70
    20
  9
$DWGCODEPAGE
  3
ANSI_932
  9
$INSBASE
 10
0.0
 20
0.0
 30
0.0
  9
$EXTMIN
 10
-715.7022890067906
 20
1401.980605902073
 30
0.0
  9
$EXTMAX
 10
279.3742249691999
 20
2321.980605902073
 30
0.0
  9
$LIMMIN
 10
0.0
 20
0.0
  9
$LIMMAX
 10
420.0
 20
297.0
  9
$ORTHOMODE
 70
     0
  9
$REGENMODE
 70
     1
  9
$FILLMODE
 70
     1
  9
$QTEXTMODE
 70
     0
  9
$MIRRTEXT
 70
     0
  9
$LTSCALE
 40
1.0
  9
$ATTMODE
 70
     1
  9
$TEXTSIZE
 40
2.5
  9
$TRACEWID
 40
1.0
  9
$TEXTSTYLE
  7
Standard
  9
$CLAYER
  8
作図線
  9
$CELTYPE
  6
ByLayer
  9
$CECOLOR
 62
   256
  9
$CELTSCALE
 40
1.0
  9
$DISPSILH
 70
     0
  9
$DIMSCALE
 40
1.0
  9
$DIMASZ
 40
4.0
  9
$DIMEXO
 40
1.0
  9
$DIMDLI
 40
7.0
  9
$DIMRND
 40
0.0
  9
$DIMDLE
 40
0.0
  9
$DIMEXE
 40
1.0
  9
$DIMTP
 40
0.0
  9
$DIMTM
 40
0.0
  9
$DIMTXT
 40
5.0
  9
$DIMCEN
 40
0.0
  9
$DIMTSZ
 40
0.0
  9
$DIMTOL
 70
     0
  9
$DIMLIM
 70
     0
  9
$DIMTIH
 70
     0
  9
$DIMTOH
 70
     0
  9
$DIMSE1
 70
     0
  9
$DIMSE2
 70
     0
  9
$DIMTAD
 70
     1
  9
$DIMZIN
 70
     8
  9
$DIMBLK
  1
Open30
  9
$DIMASO
 70
     1
  9
$DIMSHO
 70
     1
  9
$DIMPOST
  1

  9
$DIMAPOST
  1

  9
$DIMALT
 70
     0
  9
$DIMALTD
 70
     2
  9
$DIMALTF
 40
0.0394
  9
$DIMLFAC
 40
1.0
  9
$DIMTOFL
 70
     1
  9
$DIMTVP
 40
0.0
  9
$DIMTIX
 70
     0
  9
$DIMSOXD
 70
     0
  9
$DIMSAH
 70
     0
  9
$DIMBLK1
  1

  9
$DIMBLK2
  1

  9
$DIMSTYLE
  2
JIS
  9
$DIMCLRD
 70
     0
  9
$DIMCLRE
 70
     0
  9
$DIMCLRT
 70
     0
  9
$DIMTFAC
 40
1.0
  9
$DIMGAP
 40
1.0
  9
$DIMJUST
 70
     0
  9
$DIMSD1
 70
     0
  9
$DIMSD2
 70
     0
  9
$DIMTOLJ
 70
     1
  9
$DIMTZIN
 70
     0
  9
$DIMALTZ
 70
     0
  9
$DIMALTTZ
 70
     0
  9
$DIMUPT
 70
     0
  9
$DIMDEC
 70
     4
  9
$DIMTDEC
 70
     4
  9
$DIMALTU
 70
     2
  9
$DIMALTTD
 70
     2
  9
$DIMTXSTY
  7
Standard
  9
$DIMAUNIT
 70
     0
  9
$DIMADEC
 70
     0
  9
$DIMALTRND
 40
0.0
  9
$DIMAZIN
 70
     0
  9
$DIMDSEP
 70
    46
  9
$DIMATFIT
 70
     3
  9
$DIMFRAC
 70
     0
  9
$DIMLDRBLK
  1
Open30
  9
$DIMLUNIT
 70
     2
  9
$DIMLWD
 70
    -2
  9
$DIMLWE
 70
    -2
  9
$DIMTMOVE
 70
     0
  9
$LUNITS
 70
     2
  9
$LUPREC
 70
     4
  9
$SKETCHINC
 40
1.0
  9
$FILLETRAD
 40
0.0
  9
$AUNITS
 70
     0
  9
$AUPREC
 70
     0
  9
$MENU
  1
.
  9
$ELEVATION
 40
0.0
  9
$PELEVATION
 40
0.0
  9
$THICKNESS
 40
0.0
  9
$LIMCHECK
 70
     0
  9
$CHAMFERA
 40
0.0
  9
$CHAMFERB
 40
0.0
  9
$CHAMFERC
 40
0.0
  9
$CHAMFERD
 40
0.0
  9
$SKPOLY
 70
     0
  9
$TDCREATE
 40
2454379.577641921
  9
$TDUCREATE
 40
2454379.202641921
  9
$TDUPDATE
 40
2454936.701159653
  9
$TDUUPDATE
 40
2454936.326159653
  9
$TDINDWG
 40
0.2959012384
  9
$TDUSRTIMER
 40
0.2959005093
  9
$USRTIMER
 70
     1
  9
$ANGBASE
 50
0.0
  9
$ANGDIR
 70
     0
  9
$PDMODE
 70
     0
  9
$PDSIZE
 40
0.0
  9
$PLINEWID
 40
0.0
  9
$SPLFRAME
 70
     0
  9
$SPLINETYPE
 70
     6
  9
$SPLINESEGS
 70
     8
  9
$HANDSEED
  5
686E
  9
$SURFTAB1
 70
     6
  9
$SURFTAB2
 70
     6
  9
$SURFTYPE
 70
     6
  9
$SURFU
 70
     6
  9
$SURFV
 70
     6
  9
$UCSBASE
  2

  9
$UCSNAME
  2

  9
$UCSORG
 10
0.0
 20
0.0
 30
0.0
  9
$UCSXDIR
 10
1.0
 20
0.0
 30
0.0
  9
$UCSYDIR
 10
0.0
 20
1.0
 30
0.0
  9
$UCSORTHOREF
  2

  9
$UCSORTHOVIEW
 70
     0
  9
$UCSORGTOP
 10
0.0
 20
0.0
 30
0.0
  9
$UCSORGBOTTOM
 10
0.0
 20
0.0
 30
0.0
  9
$UCSORGLEFT
 10
0.0
 20
0.0
 30
0.0
  9
$UCSORGRIGHT
 10
0.0
 20
0.0
 30
0.0
  9
$UCSORGFRONT
 10
0.0
 20
0.0
 30
0.0
  9
$UCSORGBACK
 10
0.0
 20
0.0
 30
0.0
  9
$PUCSBASE
  2

  9
$PUCSNAME
  2

  9
$PUCSORG
 10
0.0
 20
0.0
 30
0.0
  9
$PUCSXDIR
 10
1.0
 20
0.0
 30
0.0
  9
$PUCSYDIR
 10
0.0
 20
1.0
 30
0.0
  9
$PUCSORTHOREF
  2

  9
$PUCSORTHOVIEW
 70
     0
  9
$PUCSORGTOP
 10
0.0
 20
0.0
 30
0.0
  9
$PUCSORGBOTTOM
 10
0.0
 20
0.0
 30
0.0
  9
$PUCSORGLEFT
 10
0.0
 20
0.0
 30
0.0
  9
$PUCSORGRIGHT
 10
0.0
 20
0.0
 30
0.0
  9
$PUCSORGFRONT
 10
0.0
 20
0.0
 30
0.0
  9
$PUCSORGBACK
 10
0.0
 20
0.0
 30
0.0
  9
$USERI1
 70
     0
  9
$USERI2
 70
     0
  9
$USERI3
 70
     0
  9
$USERI4
 70
     0
  9
$USERI5
 70
     0
  9
$USERR1
 40
0.0
  9
$USERR2
 40
0.0
  9
$USERR3
 40
0.0
  9
$USERR4
 40
0.0
  9
$USERR5
 40
0.0
  9
$WORLDVIEW
 70
     1
  9
$SHADEDGE
 70
     3
  9
$SHADEDIF
 70
    70
  9
$TILEMODE
 70
     1
  9
$MAXACTVP
 70
    64
  9
$PINSBASE
 10
0.0
 20
0.0
 30
0.0
  9
$PLIMCHECK
 70
     0
  9
$PEXTMIN
 10
0.0
 20
0.0
 30
0.0
  9
$PEXTMAX
 10
297.0
 20
210.0
 30
0.0
  9
$PLIMMIN
 10
0.037002778146416
 20
0.0133361937478469
  9
$PLIMMAX
 10
296.9629976511933
 20
209.9866638304666
  9
$UNITMODE
 70
     0
  9
$VISRETAIN
 70
     1
  9
$PLINEGEN
 70
     0
  9
$PSLTSCALE
 70
     1
  9
$TREEDEPTH
 70
  3020
  9
$CMLSTYLE
  2
Standard
  9
$CMLJUST
 70
     0
  9
$CMLSCALE
 40
20.0
  9
$PROXYGRAPHICS
 70
     1
  9
$MEASUREMENT
 70
     1
  9
$CELWEIGHT
370
    -1
  9
$ENDCAPS
280
     0
  9
$JOINSTYLE
280
     0
  9
$LWDISPLAY
290
     0
  9
$INSUNITS
 70
     4
  9
$HYPERLINKBASE
  1

  9
$STYLESHEET
  1

  9
$XEDIT
290
     1
  9
$CEPSNTYPE
380
     0
  9
$PSTYLEMODE
290
     1
  9
$FINGERPRINTGUID
  2
{733C549A-BCB8-4AFB-9693-44D802A4876F}
  9
$VERSIONGUID
  2
{9E17D181-34FB-4219-9B66-91600A3D23A1}
  9
$EXTNAMES
290
     1
  9
$PSVPSCALE
 40
0.0
  9
$OLESTARTUP
290
     0
  0
ENDSEC
  0
SECTION
  2
CLASSES
  0
CLASS
  1
ACDBDICTIONARYWDFLT
  2
AcDbDictionaryWithDefault
  3
ObjectDBX Classes
 90
        0
280
     0
281
     0
  0
CLASS
  1
PLOTSETTINGS
  2
AcDbPlotSettings
  3
ObjectDBX Classes
 90
        0
280
     0
281
     0
  0
CLASS
  1
DICTIONARYVAR
  2
AcDbDictionaryVar
  3
ObjectDBX Classes
 90
        0
280
     0
281
     0
  0
CLASS
  1
TABLESTYLE
  2
AcDbTableStyle
  3
ObjectDBX Classes
 90
     4095
280
     0
281
     0
  0
CLASS
  1
MATERIAL
  2
AcDbMaterial
  3
ObjectDBX Classes
 90
     1024
280
     0
281
     0
  0
CLASS
  1
VISUALSTYLE
  2
AcDbVisualStyle
  3
ObjectDBX Classes
 90
     4095
280
     0
281
     0
  0
CLASS
  1
ACAD_EVALUATION_GRAPH
  2
AcDbEvalGraph
  3
ObjectDBX Classes
 90
    33921
280
     0
281
     0
  0
CLASS
  1
ACAECUSTOBJ
  2
AcAeEditorObj
  3
AcAeEditorObj
 90
    33792
280
     0
281
     0
  0
CLASS
  1
ACDB_DYNAMICBLOCKPURGEPREVENTER_VERSION
  2
AcDbDynamicBlockPurgePreventer
  3
ObjectDBX Classes
 90
    33921
280
     0
281
     0
  0
CLASS
  1
SORTENTSTABLE
  2
AcDbSortentsTable
  3
ObjectDBX Classes
 90
        0
280
     0
281
     0
  0
CLASS
  1
DIMASSOC
  2
AcDbDimAssoc
  3
"AcDbDimAssoc|Product Desc:     AcDim ARX App For Dimension|Company:          Autodesk, Inc.|WEB Address:      www.autodesk.com"
 90
        0
280
     0
281
     0
  0
CLASS
  1
ACDBPLACEHOLDER
  2
AcDbPlaceHolder
  3
ObjectDBX Classes
 90
        0
280
     0
281
     0
  0
CLASS
  1
LAYOUT
  2
AcDbLayout
  3
ObjectDBX Classes
 90
        0
280
     0
281
     0
  0
ENDSEC
  0
SECTION
  2
TABLES
  0
TABLE
  2
VPORT
  5
8
330
0
100
AcDbSymbolTable
 70
     2
  0
VPORT
  5
1B5
330
8
100
AcDbSymbolTableRecord
100
AcDbViewportTableRecord
  2
*Active
 70
     0
 10
0.0
 20
0.0
 11
1.0
 21
1.0
 12
237.1937285776608
 22
1896.2074935845
 13
0.0
 23
0.0
 14
10.0
 24
10.0
 15
10.0
 25
10.0
 16
0.0
 26
0.0
 36
1.0
 17
0.0
 27
0.0
 37
0.0
 40
586.1565902897255
 41
2.059585492227979
 42
50.0
 43
0.0
 44
0.0
 50
0.0
 51
0.0
 71
     0
 72
  1000
 73
     1
 74
     3
 75
     0
 76
     0
 77
     0
 78
     0
281
     0
 65
     1
110
0.0
120
0.0
130
0.0
111
1.0
121
0.0
131
0.0
112
0.0
122
1.0
132
0.0
 79
     0
146
0.0
  0
VPORT
  5
45A
330
8
100
AcDbSymbolTableRecord
100
AcDbViewportTableRecord
  2
本図
 70
     0
 10
0.0
 20
0.0
 11
1.0
 21
1.0
 12
322.2643325138894
 22
893.4870383816823
 13
0.0
 23
0.0
 14
10.0
 24
10.0
 15
10.0
 25
10.0
 16
0.0
 26
0.0
 36
1.0
 17
0.0
 27
0.0
 37
0.0
 40
349.6006736910367
 41
1.105194805194805
 42
50.0
 43
0.0
 44
0.0
 50
0.0
 51
0.0
 71
     0
 72
  1000
 73
     1
 74
     3
 75
     0
 76
     1
 77
     0
 78
     0
281
     0
 65
     1
110
0.0
120
0.0
130
0.0
111
1.0
121
0.0
131
0.0
112
0.0
122
1.0
132
0.0
 79
     0
146
0.0
  0
ENDTAB
  0
TABLE
  2
LTYPE
  5
5
330
0
100
AcDbSymbolTable
 70
     6
  0
LTYPE
  5
14
330
5
100
AcDbSymbolTableRecord
100
AcDbLinetypeTableRecord
  2
ByBlock
 70
     0
  3

 72
    65
 73
     0
 40
0.0
  0
LTYPE
  5
15
330
5
100
AcDbSymbolTableRecord
100
AcDbLinetypeTableRecord
  2
ByLayer
 70
     0
  3

 72
    65
 73
     0
 40
0.0
  0
LTYPE
  5
16
330
5
100
AcDbSymbolTableRecord
100
AcDbLinetypeTableRecord
  2
Continuous
 70
     0
  3
Solid line
 72
    65
 73
     0
 40
0.0
  0
LTYPE
  5
291
330
5
100
AcDbSymbolTableRecord
100
AcDbLinetypeTableRecord
  2
HIDDEN2
 70
     0
  3
Hidden (.5x) _ _ _ _ _ _ _ _ _ _ _ _ _ _ _ _ _
 72
    65
 73
     2
 40
4.762499999999998
 49
3.174999999999998
 74
     0
 49
-1.587499999999999
 74
     0
  0
LTYPE
  5
4C3
330
5
100
AcDbSymbolTableRecord
100
AcDbLinetypeTableRecord
  2
CENTER2
 70
     0
  3
Center (.5x) ___ _ ___ _ ___ _ ___ _ ___ _ ___
 72
    65
 73
     4
 40
28.575
 49
19.05
 74
     0
 49
-3.174999999999998
 74
     0
 49
3.174999999999998
 74
     0
 49
-3.174999999999998
 74
     0
  0
LTYPE
  5
4C4
330
5
100
AcDbSymbolTableRecord
100
AcDbLinetypeTableRecord
  2
PHANTOM2
 70
     0
  3
Phantom (.5x) ___ _ _ ___ _ _ ___ _ _ ___ _ _
 72
    65
 73
     6
 40
31.75
 49
15.875
 74
     0
 49
-3.174999999999998
 74
     0
 49
3.174999999999998
 74
     0
 49
-3.174999999999998
 74
     0
 49
3.174999999999998
 74
     0
 49
-3.174999999999998
 74
     0
  0
LTYPE
  5
C92
330
5
100
AcDbSymbolTableRecord
100
AcDbLinetypeTableRecord
  2
CENTER
 70
     0
  3
Center ____ _ ____ _ ____ _ ____ _ ____ _ ____
 72
    65
 73
     4
 40
50.8
 49
31.75
 74
     0
 49
-6.349999999999998
 74
     0
 49
6.349999999999998
 74
     0
 49
-6.349999999999998
 74
     0
  0
LTYPE
  5
2283
330
5
100
AcDbSymbolTableRecord
100
AcDbLinetypeTableRecord
  2
HIDDEN
 70
     0
  3
Hidden __ __ __ __ __ __ __ __ __ __ __ __ __ _
 72
    65
 73
     2
 40
9.524999999999996
 49
6.349999999999998
 74
     0
 49
-3.174999999999998
 74
     0
  0
ENDTAB
  0
TABLE
  2
LAYER
  5
2
102
{ACAD_XDICTIONARY
360
18A
102
}
330
0
100
AcDbSymbolTable
 70
    20
  0
LAYER
  5
10
330
2
100
AcDbSymbolTableRecord
100
AcDbLayerTableRecord
  2
0
 70
     0
 62
     7
  6
Continuous
370
    -3
390
F
  0
LAYER
  5
E4
330
2
100
AcDbSymbolTableRecord
100
AcDbLayerTableRecord
  2
Object
 70
     0
 62
     7
  6
Continuous
370
    -3
390
F
  0
LAYER
  5
12C
330
2
100
AcDbSymbolTableRecord
100
AcDbLayerTableRecord
  2
Title Block
 70
     0
 62
     7
  6
Continuous
370
    -3
390
F
  0
LAYER
  5
12D
330
2
100
AcDbSymbolTableRecord
100
AcDbLayerTableRecord
  2
Viewport
 70
     0
 62
     7
  6
Continuous
370
    -3
390
F
  0
LAYER
  5
345
330
2
100
AcDbSymbolTableRecord
100
AcDbLayerTableRecord
  2
作図線
 70
     0
 62
    -6
  6
Continuous
290
     0
370
    18
390
F
  0
LAYER
  5
3DA
330
2
100
AcDbSymbolTableRecord
100
AcDbLayerTableRecord
  2
Dims
 70
     0
 62
     6
  6
Continuous
370
    -3
390
F
  0
LAYER
  5
3DB
330
2
100
AcDbSymbolTableRecord
100
AcDbLayerTableRecord
  2
Defpoints
 70
     0
 62
     7
  6
Continuous
290
     0
370
    -3
390
F
  0
LAYER
  5
3DC
330
2
100
AcDbSymbolTableRecord
100
AcDbLayerTableRecord
  2
テキスト
 70
     0
 62
     4
  6
Continuous
370
    -3
390
F
1001
AcAecLayerStandard
1000

1000

  0
LAYER
  5
4C5
330
2
100
AcDbSymbolTableRecord
100
AcDbLayerTableRecord
  2
寸法線
 70
     0
 62
     3
  6
Continuous
370
    18
390
F
  0
LAYER
  5
4C6
330
2
100
AcDbSymbolTableRecord
100
AcDbLayerTableRecord
  2
隠れ線
 70
     0
 62
     5
  6
HIDDEN2
370
    18
390
F
  0
LAYER
  5
4C7
330
2
100
AcDbSymbolTableRecord
100
AcDbLayerTableRecord
  2
中心線
 70
     0
 62
    -1
  6
CENTER2
370
    18
390
F
  0
LAYER
  5
4C8
330
2
100
AcDbSymbolTableRecord
100
AcDbLayerTableRecord
  2
太線0.5
 70
     0
 62
     8
  6
Continuous
370
    50
390
F
  0
LAYER
  5
4C9
330
2
100
AcDbSymbolTableRecord
100
AcDbLayerTableRecord
  2
想像線
 70
     0
 62
     5
  6
PHANTOM2
370
    18
390
F
  0
LAYER
  5
4CA
330
2
100
AcDbSymbolTableRecord
100
AcDbLayerTableRecord
  2
一時線
 70
     0
 62
    -2
  6
Continuous
290
     0
370
    18
390
F
1001
AcAecLayerStandard
1000

1000

  0
LAYER
  5
4CB
330
2
100
AcDbSymbolTableRecord
100
AcDbLayerTableRecord
  2
切断線
 70
     0
 62
     8
  6
Continuous
370
    25
390
F
1001
AcAecLayerStandard
1000

1000

  0
LAYER
  5
4CC
330
2
100
AcDbSymbolTableRecord
100
AcDbLayerTableRecord
  2
塗潰し
 70
     0
 62
     8
  6
Continuous
370
    18
390
F
1001
AcAecLayerStandard
1000

1000

  0
LAYER
  5
A4A
330
2
100
AcDbSymbolTableRecord
100
AcDbLayerTableRecord
  2
寸法
 70
     0
 62
     3
  6
Continuous
370
    18
390
F
  0
LAYER
  5
C93
330
2
100
AcDbSymbolTableRecord
100
AcDbLayerTableRecord
  2
Bracket
 70
     0
 62
     5
  6
Continuous
370
    40
390
F
  0
LAYER
  5
C94
330
2
100
AcDbSymbolTableRecord
100
AcDbLayerTableRecord
  2
Center
 70
     0
 62
     1
  6
CENTER
370
    -3
390
F
  0
LAYER
  5
2284
330
2
100
AcDbSymbolTableRecord
100
AcDbLayerTableRecord
  2
Hidden
 70
     0
 62
     3
  6
Continuous
370
    -3
390
F
  0
ENDTAB
  0
TABLE
  2
STYLE
  5
3
330
0
100
AcDbSymbolTable
 70
     4
  0
STYLE
  5
11
330
3
100
AcDbSymbolTableRecord
100
AcDbTextStyleTableRecord
  2
Standard
 70
     0
 40
0.0
 41
1.0
 50
0.0
 71
     0
 42
2.5
  3
MS Gothic.ttf
  4

1001
ACAD
1000
MS Gothic
1071
    32817
  0
STYLE
  5
B0
330
3
100
AcDbSymbolTableRecord
100
AcDbTextStyleTableRecord
  2
Roman
 70
     0
 40
0.0
 41
1.0
 50
0.0
 71
     0
 42
5.0
  3
romans.shx
  4
extfont2.shx
  0
STYLE
  5
346
330
3
100
AcDbSymbolTableRecord
100
AcDbTextStyleTableRecord
  2
尺度１／２
 70
     0
 40
0.0
 41
1.0
 50
0.0
 71
     0
 42
8.0
  3
MS Gothic.ttf
  4

1001
ACAD
1000
MS Gothic
1071
    32817
  0
STYLE
  5
68E
330
3
100
AcDbSymbolTableRecord
100
AcDbTextStyleTableRecord
  2
BWH-jdt02
 70
     0
 40
0.0
 41
0.7
 50
0.0
 71
     0
 42
4.752464886293636
  3
SIMSUN.TTF
  4

1001
ACAD
1000
SimSun
1071
    34306
  0
ENDTAB
  0
TABLE
  2
VIEW
  5
6
330
0
100
AcDbSymbolTable
 70
     1
  0
ENDTAB
  0
TABLE
  2
UCS
  5
7
330
0
100
AcDbSymbolTable
 70
     0
  0
ENDTAB
  0
TABLE
  2
APPID
  5
9
330
0
100
AcDbSymbolTable
 70
     9
  0
APPID
  5
12
330
9
100
AcDbSymbolTableRecord
100
AcDbRegAppTableRecord
  2
ACAD
 70
     0
  0
APPID
  5
1B4
330
9
100
AcDbSymbolTableRecord
100
AcDbRegAppTableRecord
  2
ACAD_PSEXT
 70
     0
  0
APPID
  5
27C
330
9
100
AcDbSymbolTableRecord
100
AcDbRegAppTableRecord
  2
ACAUTHENVIRON
 70
     0
  0
APPID
  5
280
330
9
100
AcDbSymbolTableRecord
100
AcDbRegAppTableRecord
  2
AcDbDynamicBlockTrueName
 70
     0
  0
APPID
  5
281
330
9
100
AcDbSymbolTableRecord
100
AcDbRegAppTableRecord
  2
AcDbDynamicBlockGUID
 70
     0
  0
APPID
  5
283
330
9
100
AcDbSymbolTableRecord
100
AcDbRegAppTableRecord
  2
AcDbBlockRepETag
 70
     0
  0
APPID
  5
331
330
9
100
AcDbSymbolTableRecord
100
AcDbRegAppTableRecord
  2
ACAD_EXEMPT_FROM_CAD_STANDARDS
 70
     0
  0
APPID
  5
3DD
330
9
100
AcDbSymbolTableRecord
100
AcDbRegAppTableRecord
  2
AcAecLayerStandard
 70
     0
  0
APPID
  5
692
330
9
100
AcDbSymbolTableRecord
100
AcDbRegAppTableRecord
  2
RAK
 70
     0
  0
ENDTAB
  0
TABLE
  2
DIMSTYLE
  5
A
330
0
100
AcDbSymbolTable
 70
     4
100
AcDbDimStyleTable
 71
     3
340
121
340
348
340
347
  0
DIMSTYLE
105
121
102
{ACAD_REACTORS
330
646C
330
6470
330
6471
330
6472
330
6473
330
6474
330
647C
330
64A1
330
64BF
330
64C2
330
10B4
330
10B5
330
10B6
330
10B7
330
1125
330
1126
330
1127
102
}
330
A
100
AcDbSymbolTableRecord
100
AcDbDimStyleTableRecord
  2
JIS
 70
     0
 41
4.0
 42
1.0
 43
7.0
 44
1.0
 73
     0
 74
     0
 77
     1
 78
     8
140
5.0
141
0.0
143
0.0394
147
1.0
172
     1
340
11
341
33F
342
33F
  0
DIMSTYLE
105
292
330
A
100
AcDbSymbolTableRecord
100
AcDbDimStyleTableRecord
  2
ISO-25
 70
     0
 41
2.5
 42
0.625
 43
3.75
 44
1.25
 73
     0
 74
     0
 77
     1
 78
     8
140
2.5
141
2.5
143
0.03937007874016
147
0.625
171
     3
172
     1
271
     2
272
     2
274
     3
278
    44
283
     0
284
     8
340
11
  0
DIMSTYLE
105
347
330
A
100
AcDbSymbolTableRecord
100
AcDbDimStyleTableRecord
  2
JIS１／２
 70
     0
 41
6.0
 42
1.0
 43
7.0
 44
1.0
 73
     0
 74
     0
 77
     1
 78
     8
140
7.0
141
0.0
143
0.0394
147
2.0
172
     1
271
     2
272
     2
340
346
341
33F
342
33F
  0
DIMSTYLE
105
348
330
A
100
AcDbSymbolTableRecord
100
AcDbDimStyleTableRecord
  2
JIS２／１
 70
     0
 41
2.5
 42
1.0
 43
7.0
 44
1.0
 73
     0
 74
     0
 77
     1
 78
     8
140
3.0
141
0.0
143
0.0394
147
0.5
172
     1
271
     2
272
     2
340
11
341
33F
342
33F
  0
ENDTAB
  0
TABLE
  2
BLOCK_RECORD
  5
1
330
0
100
AcDbSymbolTable
 70
    45
  0
BLOCK_RECORD
  5
1F
102
{ACAD_XDICTIONARY
360
B52
102
}
330
1
100
AcDbSymbolTableRecord
100
AcDbBlockTableRecord
  2
*Model_Space
340
22
  0
BLOCK_RECORD
  5
682B
330
1
100
AcDbSymbolTableRecord
100
AcDbBlockTableRecord
  2
*Paper_Space
340
6828
  0
BLOCK_RECORD
  5
AB
102
{ACAD_XDICTIONARY
360
28E
102
}
330
1
100
AcDbSymbolTableRecord
100
AcDbBlockTableRecord
  2
JIS A4 title block (portrait)
340
0
310
2800000020000000200000000100080000000000000400000000000000000000000000000000000000000000000080000080000000808000800000008000800080800000C0C0C000C0DCC000F0CAA6000020400000206000002080000020A0000020C0000020E00000400000004020000040400000406000004080000040A0
310
000040C0000040E00000600000006020000060400000606000006080000060A0000060C0000060E00000800000008020000080400000806000008080000080A0000080C0000080E00000A0000000A0200000A0400000A0600000A0800000A0A00000A0C00000A0E00000C0000000C0200000C0400000C0600000C0800000C0
310
A00000C0C00000C0E00000E0000000E0200000E0400000E0600000E0800000E0A00000E0C00000E0E00040000000400020004000400040006000400080004000A0004000C0004000E00040200000402020004020400040206000402080004020A0004020C0004020E000404000004040200040404000404060004040800040
310
40A0004040C0004040E00040600000406020004060400040606000406080004060A0004060C0004060E00040800000408020004080400040806000408080004080A0004080C0004080E00040A0000040A0200040A0400040A0600040A0800040A0A00040A0C00040A0E00040C0000040C0200040C0400040C0600040C08000
310
40C0A00040C0C00040C0E00040E0000040E0200040E0400040E0600040E0800040E0A00040E0C00040E0E00080000000800020008000400080006000800080008000A0008000C0008000E00080200000802020008020400080206000802080008020A0008020C0008020E00080400000804020008040400080406000804080
310
008040A0008040C0008040E00080600000806020008060400080606000806080008060A0008060C0008060E00080800000808020008080400080806000808080008080A0008080C0008080E00080A0000080A0200080A0400080A0600080A0800080A0A00080A0C00080A0E00080C0000080C0200080C0400080C0600080C0
310
800080C0A00080C0C00080C0E00080E0000080E0200080E0400080E0600080E0800080E0A00080E0C00080E0E000C0000000C0002000C0004000C0006000C0008000C000A000C000C000C000E000C0200000C0202000C0204000C0206000C0208000C020A000C020C000C020E000C0400000C0402000C0404000C0406000C0
310
408000C040A000C040C000C040E000C0600000C0602000C0604000C0606000C0608000C060A000C060C000C060E000C0800000C0802000C0804000C0806000C0808000C080A000C080C000C080E000C0A00000C0A02000C0A04000C0A06000C0A08000C0A0A000C0A0C000C0A0E000C0C00000C0C02000C0C04000C0C06000
310
C0C08000C0C0A000F0FBFF00A4A0A000808080000000FF0000FF000000FFFF00FF000000FF00FF00FFFF0000FFFFFF00FFFFFFFFFFFFFFFFFFFFFFFFFFFFFFFFFFFFFFFFFFFFFFFFFFFFFFFFFFFFFFFFFFFFFFFFFFFF000000FFFFFFFFFFFFFF00FFFFFFFFFFFFFFFF00FFFFFFFFFFFFFFFFFFFFFFFF000000000000000000
310
0000000000000000000000FFFFFFFFFFFFFFFFFFFFFFFFFFFF00FFFFFF0000000000000000000000000000FFFFFFFFFFFFFFFFFFFFFFFFFFFF00FFFFFF0000000000000000FFFFFFFFFF00FFFFFFFFFFFFFFFFFFFFFFFFFFFF00FFFFFF0000000000000000000000000000FFFFFFFFFFFFFFFFFFFFFFFFFFFF00FFFFFF0000
310
000000000000000000000000FFFFFFFFFFFFFFFFFFFFFFFFFF0000FFFFFFFFFFFFFFFFFFFFFFFFFFFFFFFF00FFFFFFFFFFFFFFFFFFFFFFFFFFFF00FFFFFFFFFFFFFFFFFFFFFFFFFFFFFFFF00FFFFFFFFFFFFFFFFFFFFFFFFFFFF00FFFFFFFFFFFFFFFFFFFFFFFFFFFFFFFF00FFFFFFFFFFFFFFFFFFFFFFFFFFFF00FFFFFFFF
310
FFFFFFFFFFFFFFFFFFFFFFFF00FFFFFFFFFFFFFFFFFFFFFFFFFF0000FFFFFFFFFFFFFFFFFFFFFFFFFFFFFFFF00FFFFFFFFFFFFFFFFFFFFFFFFFFFF00FFFFFFFFFFFFFFFFFFFFFFFFFFFFFFFF00FFFFFFFFFFFFFFFFFFFFFFFFFFFF00FFFFFFFFFFFFFFFFFFFFFFFFFFFFFFFF00FFFFFFFFFFFFFFFFFFFFFFFFFFFF00FFFFFF
310
FFFFFFFFFFFFFFFFFFFFFFFFFF00FFFFFFFFFFFFFFFFFFFFFFFF000000FFFFFFFFFFFFFFFFFFFFFFFFFFFFFFFF00FFFFFFFFFFFFFFFFFFFFFFFFFFFF00FFFFFFFFFFFFFFFFFFFFFFFFFFFFFFFF00FFFFFFFFFFFFFFFFFFFFFFFFFFFF00FFFFFFFFFFFFFFFFFFFFFFFFFFFFFFFF00FFFFFFFFFFFFFFFFFFFFFFFFFFFF00FFFF
310
FFFFFFFFFFFFFFFFFFFFFFFFFFFF00FFFFFFFFFFFFFFFFFFFFFFFFFFFF00FFFFFFFFFFFFFFFFFFFFFFFFFFFFFFFF00FFFFFFFFFFFFFFFFFFFFFFFFFF0000FFFFFFFFFFFFFFFFFFFFFFFFFFFFFFFF00FFFFFFFFFFFFFFFFFFFFFFFFFFFF00FFFFFFFFFFFFFFFFFFFFFFFFFFFFFFFF00FFFFFFFFFFFFFFFFFFFFFFFFFFFF00FF
310
FFFFFFFFFFFFFFFFFFFFFFFFFFFFFF00FFFFFFFFFFFFFFFFFFFFFFFFFFFF00FFFFFFFFFFFFFFFFFFFFFFFFFFFFFFFF00FFFFFFFFFFFFFFFFFFFFFFFFFF0000FFFFFFFFFFFFFFFFFFFFFFFFFFFFFFFF00FFFFFFFFFFFFFFFFFFFFFFFFFFFF00FFFFFFFFFFFFFFFFFFFFFFFFFFFFFFFF00FFFFFFFFFFFFFFFFFFFFFFFFFFFF00
310
00000000000000000000FFFFFFFFFFFF00FFFFFFFFFFFFFFFFFFFFFFFFFFFF0000000000000000000000FFFFFFFFFFFF00FFFFFFFFFFFFFFFFFFFFFFFFFFFF0000000000000000000000FFFFFFFFFFFF00FFFFFFFFFFFFFFFFFFFFFFFF00FF000000000000000000000000000000000000FFFFFFFFFFFFFFFFFFFFFFFF0000
310
00FFFFFFFFFFFFFF00FFFFFFFFFFFFFFFF00FFFFFFFFFFFFFFFFFFFFFFFFFFFFFFFFFFFFFFFFFFFFFFFFFFFFFFFFFFFFFFFFFFFFFFFFFFFF
102
{BLKREFS
331
11A
102
}
1001
AcDbDynamicBlockGUID
1000
{6DB1C6FB-04ED-4989-8D70-427348F3A6A6}
1001
AcDbBlockRepETag
1070
     1
1071
       23
1001
ACAD
1000
DesignCenter Data
1002
{
1070
     1
1070
     4
1002
}
  0
BLOCK_RECORD
  5
33F
330
1
100
AcDbSymbolTableRecord
100
AcDbBlockTableRecord
  2
_Open30
340
0
102
{BLKREFS
331
FF2
331
FF3
331
FFE
331
FFF
331
100B
331
100C
331
1018
331
1019
331
1024
331
1025
331
1031
331
1032
331
103D
331
103E
331
5EC9
331
5ECA
331
5ED1
331
5ED2
331
5ED8
331
5ED9
331
5EE1
331
5EE2
331
5EEB
331
5EEC
331
5EF4
331
5EF5
331
5EFD
331
5EFE
331
5F05
331
5F06
331
5F12
331
5F13
331
5F20
331
5F21
331
617E
331
617F
331
6191
331
6192
331
62DB
331
62DC
331
62E5
331
62E6
331
6310
331
6311
331
6319
331
631A
331
6325
331
6326
331
632C
331
632D
331
6338
331
6339
331
635D
331
635E
331
66EF
331
66F0
331
66FA
331
66FB
331
6702
331
6703
331
670B
331
670C
331
6728
331
6729
331
6764
331
6765
331
678F
331
6790
331
6799
331
679A
331
67CA
331
67CB
331
67DD
331
67DE
102
}
  0
BLOCK_RECORD
  5
4E7
102
{ACAD_XDICTIONARY
360
4E8
102
}
330
1
100
AcDbSymbolTableRecord
100
AcDbBlockTableRecord
  2
JIS A3 title block
340
0
310
2800000020000000200000000100080000000000000400000000000000000000000000000000000000000000000080000080000000808000800000008000800080800000C0C0C000C0DCC000F0CAA6000020400000206000002080000020A0000020C0000020E00000400000004020000040400000406000004080000040A0
310
000040C0000040E00000600000006020000060400000606000006080000060A0000060C0000060E00000800000008020000080400000806000008080000080A0000080C0000080E00000A0000000A0200000A0400000A0600000A0800000A0A00000A0C00000A0E00000C0000000C0200000C0400000C0600000C0800000C0
310
A00000C0C00000C0E00000E0000000E0200000E0400000E0600000E0800000E0A00000E0C00000E0E00040000000400020004000400040006000400080004000A0004000C0004000E00040200000402020004020400040206000402080004020A0004020C0004020E000404000004040200040404000404060004040800040
310
40A0004040C0004040E00040600000406020004060400040606000406080004060A0004060C0004060E00040800000408020004080400040806000408080004080A0004080C0004080E00040A0000040A0200040A0400040A0600040A0800040A0A00040A0C00040A0E00040C0000040C0200040C0400040C0600040C08000
310
40C0A00040C0C00040C0E00040E0000040E0200040E0400040E0600040E0800040E0A00040E0C00040E0E00080000000800020008000400080006000800080008000A0008000C0008000E00080200000802020008020400080206000802080008020A0008020C0008020E00080400000804020008040400080406000804080
310
008040A0008040C0008040E00080600000806020008060400080606000806080008060A0008060C0008060E00080800000808020008080400080806000808080008080A0008080C0008080E00080A0000080A0200080A0400080A0600080A0800080A0A00080A0C00080A0E00080C0000080C0200080C0400080C0600080C0
310
800080C0A00080C0C00080C0E00080E0000080E0200080E0400080E0600080E0800080E0A00080E0C00080E0E000C0000000C0002000C0004000C0006000C0008000C000A000C000C000C000E000C0200000C0202000C0204000C0206000C0208000C020A000C020C000C020E000C0400000C0402000C0404000C0406000C0
310
408000C040A000C040C000C040E000C0600000C0602000C0604000C0606000C0608000C060A000C060C000C060E000C0800000C0802000C0804000C0806000C0808000C080A000C080C000C080E000C0A00000C0A02000C0A04000C0A06000C0A08000C0A0A000C0A0C000C0A0E000C0C00000C0C02000C0C04000C0C06000
310
C0C08000C0C0A000F0FBFF00A4A0A000808080000000FF0000FF000000FFFF00FF000000FF00FF00FFFF0000FFFFFF00FFFFFFFFFFFFFFFFFFFFFFFFFFFFFFFFFFFFFFFFFFFFFFFFFFFFFFFFFFFFFFFFFFFFFFFFFFFFFFFFFFFFFFFFFFFFFFFFFFFFFFFFFFFFFFFFFFFFFFFFFFFFFFFFFFFFFFFFFFFFFFFFFFFFFFFFFFFFFF
310
FFFFFFFFFFFFFFFFFFFFFFFFFFFFFFFFFFFFFFFFFFFFFFFFFFFFFFFFFFFFFFFFFFFFFFFFFFFFFFFFFFFFFFFFFFFFFFFFFFFFFFFFFFFFFFFFFFFFFFFFFFFFFFFFFFFFFFFFFFFFFFFFFFFFFFFFFFFFFFFFFFFFFFFFFFFFFFFFFFFFFFFFFFFFFFFFFFFFFFFFFFFFFFFFFFFFFFFFFFFFFFFFFFFF00FFFF00000000000000000000
310
000000000000FFFFFFFFFFFF0000FFFF00FFFFFFFF0000000000000000FFFFFFFFFFFFFFFFFFFFFFFFFFFFFFFFFFFFFFFFFFFFFFFF0000000000000000FFFFFFFFFFFFFFFFFFFFFFFFFFFFFFFFFFFF00FFFFFFFFFF00FFFFFFFFFFFFFFFFFFFFFFFFFFFFFFFFFFFFFFFFFFFFFFFFFF00FFFFFFFFFFFFFFFFFFFFFFFFFFFFFF
310
FFFFFFFFFFFFFFFFFFFFFFFFFFFFFFFF00FFFFFFFFFF00FFFFFFFFFFFFFFFFFFFFFFFFFFFFFFFFFFFFFFFFFFFFFFFFFF00FFFFFFFFFF00FFFFFFFFFFFFFFFFFFFFFFFFFFFFFFFFFFFFFFFFFFFFFFFFFF00FFFFFFFFFFFFFFFFFFFFFFFFFFFFFFFFFFFFFFFFFFFFFFFFFFFFFFFFFFFFFF00FFFFFFFFFF00FFFFFFFFFFFFFFFF
310
FFFFFFFFFFFFFFFFFFFFFFFFFFFFFFFFFF00FFFFFFFFFF00FFFFFFFFFFFFFFFFFFFFFFFFFFFFFFFFFFFFFFFFFFFFFFFFFF00FFFFFF000000FFFFFFFFFFFFFFFFFFFFFFFFFFFFFFFFFFFFFFFFFFFFFFFFFF0000FFFFFFFF00FFFFFFFFFFFFFFFFFFFFFFFFFFFFFFFFFFFFFFFFFFFFFFFFFF00FFFFFFFFFF00FFFFFFFFFFFFFF
310
FFFFFFFFFFFFFFFFFFFFFFFFFFFFFFFFFFFF00FFFFFFFFFF00FFFFFFFFFFFFFFFFFFFFFFFFFFFFFFFFFFFFFFFFFFFFFFFFFF00FFFFFFFFFF00FFFFFFFFFFFFFFFFFFFFFFFFFFFFFFFFFFFFFFFFFFFFFFFFFF00FFFFFFFFFF00FFFFFFFFFFFFFFFFFFFFFFFFFFFFFFFFFFFFFFFFFFFFFFFFFF00FFFFFFFFFF00FFFFFFFFFFFF
310
FFFFFFFFFFFFFFFFFFFFFFFFFFFFFFFFFFFFFF00FFFFFFFFFF00FFFFFFFFFFFFFFFFFFFFFFFFFFFFFFFFFFFFFFFFFFFFFFFFFF00FFFFFFFFFF00FFFFFFFFFFFFFFFFFFFFFFFFFFFFFFFFFFFFFFFFFFFFFFFFFF00FFFFFF000000000000000000000000000000000000000000000000000000000000FFFFFFFFFFFFFFFFFFFF
310
FFFFFFFFFFFFFFFFFFFFFFFFFFFFFFFFFFFFFFFFFFFFFFFFFFFFFFFFFFFFFFFFFFFFFFFFFFFFFFFFFFFFFFFFFFFFFFFFFFFFFFFFFFFFFFFFFFFFFFFFFFFFFFFFFFFFFFFFFFFFFFFFFFFFFFFFFFFFFFFFFFFFFFFFFFFFFFFFFFFFFFFFFFFFFFFFFFFFFFFFFFFFFFFFFFFFFFFFFFFFFFFFFFFFFFFFFFFFFFFFFFFFFFFFFFFFFF
310
FFFFFFFFFFFFFFFFFFFFFFFFFFFFFFFFFFFFFFFFFFFFFFFFFFFFFFFFFFFFFFFFFFFFFFFFFFFFFFFFFFFFFFFFFFFFFFFFFFFFFFFFFFFFFFFF
102
{BLKREFS
331
6B2
102
}
1001
AcDbDynamicBlockGUID
1000
{ADD7F6C8-90DF-4B5E-9041-BE536E290B26}
1001
AcDbBlockRepETag
1070
     1
1071
       75
1001
ACAD
1000
DesignCenter Data
1002
{
1070
     1
1070
     4
1002
}
  0
BLOCK_RECORD
  5
6ED
102
{ACAD_XDICTIONARY
360
930
102
}
330
1
100
AcDbSymbolTableRecord
100
AcDbBlockTableRecord
  2
JIS A4 title block (landscape)
340
0
102
{BLKREFS
331
8B6
102
}
1001
AcDbDynamicBlockGUID
1000
{CEEEE382-D703-4645-97A2-E5AB7DAA0D3B}
1001
AcDbBlockRepETag
1070
     1
1071
       77
1001
ACAD
1000
DesignCenter Data
1002
{
1070
     1
1070
     4
1002
}
  0
BLOCK_RECORD
  5
FED
330
1
100
AcDbSymbolTableRecord
100
AcDbBlockTableRecord
  2
*D6
340
0
  0
BLOCK_RECORD
  5
FF9
330
1
100
AcDbSymbolTableRecord
100
AcDbBlockTableRecord
  2
*D7
340
0
  0
BLOCK_RECORD
  5
1005
330
1
100
AcDbSymbolTableRecord
100
AcDbBlockTableRecord
  2
*D8
340
0
  0
BLOCK_RECORD
  5
1012
330
1
100
AcDbSymbolTableRecord
100
AcDbBlockTableRecord
  2
*D9
340
0
  0
BLOCK_RECORD
  5
101F
330
1
100
AcDbSymbolTableRecord
100
AcDbBlockTableRecord
  2
*D10
340
0
  0
BLOCK_RECORD
  5
102B
330
1
100
AcDbSymbolTableRecord
100
AcDbBlockTableRecord
  2
*D11
340
0
  0
BLOCK_RECORD
  5
1038
330
1
100
AcDbSymbolTableRecord
100
AcDbBlockTableRecord
  2
*D12
340
0
  0
BLOCK_RECORD
  5
1044
102
{ACAD_XDICTIONARY
360
1128
102
}
330
1
100
AcDbSymbolTableRecord
100
AcDbBlockTableRecord
  2
A$C73271D1F
340
0
1001
ACAD
1000
DesignCenter Data
1002
{
1070
     1
1070
     4
1002
}
  0
BLOCK_RECORD
  5
5E67
330
1
100
AcDbSymbolTableRecord
100
AcDbBlockTableRecord
  2
*D14
340
0
  0
BLOCK_RECORD
  5
5E72
330
1
100
AcDbSymbolTableRecord
100
AcDbBlockTableRecord
  2
*D15
340
0
  0
BLOCK_RECORD
  5
5E7D
330
1
100
AcDbSymbolTableRecord
100
AcDbBlockTableRecord
  2
*D16
340
0
  0
BLOCK_RECORD
  5
5E89
330
1
100
AcDbSymbolTableRecord
100
AcDbBlockTableRecord
  2
*D17
340
0
  0
BLOCK_RECORD
  5
5E95
330
1
100
AcDbSymbolTableRecord
100
AcDbBlockTableRecord
  2
*D18
340
0
  0
BLOCK_RECORD
  5
5EA1
330
1
100
AcDbSymbolTableRecord
100
AcDbBlockTableRecord
  2
*D19
340
0
  0
BLOCK_RECORD
  5
5EAD
330
1
100
AcDbSymbolTableRecord
100
AcDbBlockTableRecord
  2
*D20
340
0
  0
BLOCK_RECORD
  5
5EB9
330
1
100
AcDbSymbolTableRecord
100
AcDbBlockTableRecord
  2
*D21
340
0
  0
BLOCK_RECORD
  5
5F0B
330
1
100
AcDbSymbolTableRecord
100
AcDbBlockTableRecord
  2
*D22
340
0
  0
BLOCK_RECORD
  5
5F19
330
1
100
AcDbSymbolTableRecord
100
AcDbBlockTableRecord
  2
*D23
340
0
  0
BLOCK_RECORD
  5
5FA4
330
1
100
AcDbSymbolTableRecord
100
AcDbBlockTableRecord
  2
*D24
340
0
  0
BLOCK_RECORD
  5
5FAF
330
1
100
AcDbSymbolTableRecord
100
AcDbBlockTableRecord
  2
*D25
340
0
  0
BLOCK_RECORD
  5
5FBA
330
1
100
AcDbSymbolTableRecord
100
AcDbBlockTableRecord
  2
*D26
340
0
  0
BLOCK_RECORD
  5
5FC6
330
1
100
AcDbSymbolTableRecord
100
AcDbBlockTableRecord
  2
*D27
340
0
  0
BLOCK_RECORD
  5
5FD2
330
1
100
AcDbSymbolTableRecord
100
AcDbBlockTableRecord
  2
*D28
340
0
  0
BLOCK_RECORD
  5
5FDE
330
1
100
AcDbSymbolTableRecord
100
AcDbBlockTableRecord
  2
*D29
340
0
  0
BLOCK_RECORD
  5
5FEA
330
1
100
AcDbSymbolTableRecord
100
AcDbBlockTableRecord
  2
*D30
340
0
  0
BLOCK_RECORD
  5
5FF6
330
1
100
AcDbSymbolTableRecord
100
AcDbBlockTableRecord
  2
*D31
340
0
  0
BLOCK_RECORD
  5
6048
330
1
100
AcDbSymbolTableRecord
100
AcDbBlockTableRecord
  2
*D32
340
0
  0
BLOCK_RECORD
  5
6056
330
1
100
AcDbSymbolTableRecord
100
AcDbBlockTableRecord
  2
*D33
340
0
  0
BLOCK_RECORD
  5
64E8
330
1
100
AcDbSymbolTableRecord
100
AcDbBlockTableRecord
  2
*D34
340
0
  0
BLOCK_RECORD
  5
64F4
330
1
100
AcDbSymbolTableRecord
100
AcDbBlockTableRecord
  2
*D35
340
0
  0
BLOCK_RECORD
  5
6500
330
1
100
AcDbSymbolTableRecord
100
AcDbBlockTableRecord
  2
*D36
340
0
  0
BLOCK_RECORD
  5
650C
330
1
100
AcDbSymbolTableRecord
100
AcDbBlockTableRecord
  2
*D37
340
0
  0
BLOCK_RECORD
  5
6518
330
1
100
AcDbSymbolTableRecord
100
AcDbBlockTableRecord
  2
*D38
340
0
  0
BLOCK_RECORD
  5
6524
330
1
100
AcDbSymbolTableRecord
100
AcDbBlockTableRecord
  2
*D39
340
0
  0
BLOCK_RECORD
  5
6530
330
1
100
AcDbSymbolTableRecord
100
AcDbBlockTableRecord
  2
*D40
340
0
  0
BLOCK_RECORD
  5
653C
330
1
100
AcDbSymbolTableRecord
100
AcDbBlockTableRecord
  2
*D41
340
0
  0
BLOCK_RECORD
  5
6590
330
1
100
AcDbSymbolTableRecord
100
AcDbBlockTableRecord
  2
*D42
340
0
  0
BLOCK_RECORD
  5
659E
330
1
100
AcDbSymbolTableRecord
100
AcDbBlockTableRecord
  2
*D43
340
0
  0
ENDTAB
  0
ENDSEC
  0
SECTION
  2
BLOCKS
  0
BLOCK
  5
20
330
1F
100
AcDbEntity
  8
0
100
AcDbBlockBegin
  2
*Model_Space
 70
     0
 10
0.0
 20
0.0
 30
0.0
  3
*Model_Space
  1

  0
ENDBLK
  5
21
330
1F
100
AcDbEntity
  8
0
100
AcDbBlockEnd
  0
BLOCK
  5
6843
330
682B
100
AcDbEntity
 67
     1
  8
0
100
AcDbBlockBegin
  2
*Paper_Space
 70
     0
 10
0.0
 20
0.0
 30
0.0
  3
*Paper_Space
  1

  0
ENDBLK
  5
6844
330
682B
100
AcDbEntity
 67
     1
  8
0
100
AcDbBlockEnd
  0
BLOCK
  5
116
330
AB
100
AcDbEntity
  8
0
100
AcDbBlockBegin
  2
JIS A4 title block (portrait)
 70
     2
 10
0.0
 20
0.0
 30
0.0
  3
JIS A4 title block (portrait)
  1

  4
JIS A4 title block and attributes (portrait)
  0
LINE
  5
28C
330
AB
100
AcDbEntity
  8
0
100
AcDbLine
 10
0.0
 20
297.0
 30
0.0
 11
25.0
 21
297.0
 31
0.0
1001
AcDbBlockRepETag
1070
     1
1071
        0
1005
28C
  0
LINE
  5
28D
330
AB
100
AcDbEntity
  8
0
100
AcDbLine
 10
0.0
 20
287.0
 30
0.0
 11
0.0
 21
297.0
 31
0.0
1001
AcDbBlockRepETag
1070
     1
1071
        1
1005
28D
  0
LINE
  5
2E7
330
AB
100
AcDbEntity
  8
0
100
AcDbLine
 10
17.5
 20
10.0
 30
0.0
 11
17.5
 21
287.0
 31
0.0
1001
AcDbBlockRepETag
1070
     1
1071
        2
1005
2E7
  0
LINE
  5
2E8
330
AB
100
AcDbEntity
  8
0
100
AcDbLine
 10
192.5
 20
287.0
 30
0.0
 11
192.5
 21
10.0
 31
0.0
1001
AcDbBlockRepETag
1070
     1
1071
        3
1005
2E8
  0
LINE
  5
2E9
330
AB
100
AcDbEntity
  8
0
100
AcDbLine
 10
192.5
 20
10.0
 30
0.0
 11
17.5
 21
10.0
 31
0.0
1001
AcDbBlockRepETag
1070
     1
1071
        4
1005
2E9
  0
LINE
  5
2EA
330
AB
100
AcDbEntity
  8
0
100
AcDbLine
 10
25.0
 20
0.0
 30
0.0
 11
0.0
 21
0.0
 31
0.0
1001
AcDbBlockRepETag
1070
     1
1071
        5
1005
2EA
  0
LINE
  5
2EB
330
AB
100
AcDbEntity
  8
0
100
AcDbLine
 10
0.0
 20
0.0
 30
0.0
 11
0.0
 21
10.0
 31
0.0
1001
AcDbBlockRepETag
1070
     1
1071
        6
1005
2EB
  0
LINE
  5
2EC
330
AB
100
AcDbEntity
  8
0
100
AcDbLine
 10
61.25
 20
10.0
 30
0.0
 11
61.25
 21
5.0
 31
0.0
1001
AcDbBlockRepETag
1070
     1
1071
        7
1005
2EC
  0
LINE
  5
2ED
330
AB
100
AcDbEntity
  8
0
100
AcDbLine
 10
17.5
 20
148.5
 30
0.0
 11
0.0
 21
148.5
 31
0.0
1001
AcDbBlockRepETag
1070
     1
1071
        8
1005
2ED
  0
LINE
  5
2EE
330
AB
100
AcDbEntity
  8
0
100
AcDbLine
 10
17.5
 20
56.16666666666668
 30
0.0
 11
12.5
 21
56.16666666666668
 31
0.0
1001
AcDbBlockRepETag
1070
     1
1071
        9
1005
2EE
  0
LINE
  5
2EF
330
AB
100
AcDbEntity
  8
0
100
AcDbLine
 10
17.5
 20
102.3333333333333
 30
0.0
 11
12.5
 21
102.3333333333333
 31
0.0
1001
AcDbBlockRepETag
1070
     1
1071
       10
1005
2EF
  0
LINE
  5
2F0
330
AB
100
AcDbEntity
  8
0
100
AcDbLine
 10
17.5
 20
148.5
 30
0.0
 11
12.5
 21
148.5
 31
0.0
1001
AcDbBlockRepETag
1070
     1
1071
       11
1005
2F0
  0
LINE
  5
2F1
330
AB
100
AcDbEntity
  8
0
100
AcDbLine
 10
105.0
 20
10.0
 30
0.0
 11
105.0
 21
0.0
 31
0.0
1001
AcDbBlockRepETag
1070
     1
1071
       12
1005
2F1
  0
LINE
  5
2F2
330
AB
100
AcDbEntity
  8
0
100
AcDbLine
 10
210.0
 20
10.0
 30
0.0
 11
210.0
 21
0.0
 31
0.0
1001
AcDbBlockRepETag
1070
     1
1071
       13
1005
2F2
  0
LINE
  5
2F3
330
AB
100
AcDbEntity
  8
0
100
AcDbLine
 10
148.75
 20
10.0
 30
0.0
 11
148.75
 21
5.0
 31
0.0
1001
AcDbBlockRepETag
1070
     1
1071
       14
1005
2F3
  0
LINE
  5
2F4
330
AB
100
AcDbEntity
  8
0
100
AcDbLine
 10
210.0
 20
0.0
 30
0.0
 11
200.0
 21
0.0
 31
0.0
1001
AcDbBlockRepETag
1070
     1
1071
       15
1005
2F4
  0
LINE
  5
2F5
330
AB
100
AcDbEntity
  8
0
100
AcDbLine
 10
192.5
 20
56.16666666666668
 30
0.0
 11
197.5
 21
56.16666666666668
 31
0.0
1001
AcDbBlockRepETag
1070
     1
1071
       16
1005
2F5
  0
LINE
  5
2F6
330
AB
100
AcDbEntity
  8
0
100
AcDbLine
 10
192.5
 20
102.3333333333333
 30
0.0
 11
197.5
 21
102.3333333333333
 31
0.0
1001
AcDbBlockRepETag
1070
     1
1071
       17
1005
2F6
  0
LINE
  5
2F7
330
AB
100
AcDbEntity
  8
0
100
AcDbLine
 10
192.5
 20
148.5
 30
0.0
 11
210.0
 21
148.5
 31
0.0
1001
AcDbBlockRepETag
1070
     1
1071
       18
1005
2F7
  0
LINE
  5
2F8
330
AB
100
AcDbEntity
  8
0
100
AcDbLine
 10
192.5
 20
148.5
 30
0.0
 11
197.5
 21
148.5
 31
0.0
1001
AcDbBlockRepETag
1070
     1
1071
       19
1005
2F8
  0
LINE
  5
2F9
330
AB
100
AcDbEntity
  8
0
100
AcDbLine
 10
17.5
 20
287.0
 30
0.0
 11
192.5
 21
287.0
 31
0.0
1001
AcDbBlockRepETag
1070
     1
1071
       20
1005
2F9
  0
LINE
  5
2FA
330
AB
100
AcDbEntity
  8
0
100
AcDbLine
 10
17.5
 20
194.6666666666666
 30
0.0
 11
12.5
 21
194.6666666666666
 31
0.0
1001
AcDbBlockRepETag
1070
     1
1071
       21
1005
2FA
  0
LINE
  5
2FB
330
AB
100
AcDbEntity
  8
0
100
AcDbLine
 10
17.5
 20
240.8333333333333
 30
0.0
 11
12.5
 21
240.8333333333333
 31
0.0
1001
AcDbBlockRepETag
1070
     1
1071
       22
1005
2FB
  0
LINE
  5
2FC
330
AB
100
AcDbEntity
  8
0
100
AcDbLine
 10
61.25
 20
287.0
 30
0.0
 11
61.25
 21
292.0
 31
0.0
1001
AcDbBlockRepETag
1070
     1
1071
       24
1005
2FC
  0
ATTDEF
  5
2FD
330
AB
100
AcDbEntity
  8
0
 62
     0
380
     1
100
AcDbText
 10
17.5
 20
293.0
 30
0.0
 40
3.0
  1

  7
Roman
100
AcDbAttributeDefinition
  3
Author:
  2
USER
 70
     8
1001
AcDbBlockRepETag
1070
     1
1071
       25
1005
0
  0
LINE
  5
2FE
330
AB
100
AcDbEntity
  8
0
100
AcDbLine
 10
192.5
 20
194.6666666666667
 30
0.0
 11
197.5
 21
194.6666666666667
 31
0.0
1001
AcDbBlockRepETag
1070
     1
1071
       26
1005
2FE
  0
LINE
  5
2FF
330
AB
100
AcDbEntity
  8
0
100
AcDbLine
 10
192.5
 20
240.8333333333334
 30
0.0
 11
197.5
 21
240.8333333333334
 31
0.0
1001
AcDbBlockRepETag
1070
     1
1071
       27
1005
2FF
  0
ATTDEF
  5
300
330
AB
100
AcDbEntity
  8
0
 62
     0
380
     1
100
AcDbText
 10
125.5
 20
293.0
 30
0.0
 40
3.0
  1

  7
Roman
100
AcDbAttributeDefinition
  3
File name:
  2
FNAME
 70
     8
1001
AcDbBlockRepETag
1070
     1
1071
       28
1005
0
  0
LINE
  5
301
330
AB
100
AcDbEntity
  8
0
100
AcDbLine
 10
105.0
 20
287.0
 30
0.0
 11
105.0
 21
297.0
 31
0.0
1001
AcDbBlockRepETag
1070
     1
1071
       29
1005
301
  0
LINE
  5
302
330
AB
100
AcDbEntity
  8
0
100
AcDbLine
 10
105.0
 20
287.0
 30
0.0
 11
105.0
 21
292.0
 31
0.0
1001
AcDbBlockRepETag
1070
     1
1071
       30
1005
302
  0
ATTDEF
  5
303
330
AB
100
AcDbEntity
  8
0
 62
     0
380
     1
100
AcDbText
 10
77.5
 20
293.0
 30
0.0
 40
3.0
  1

  7
Roman
100
AcDbAttributeDefinition
  3
Revision date:
  2
REVDATE
 70
     8
1001
AcDbBlockRepETag
1070
     1
1071
       31
1005
0
  0
LINE
  5
304
330
AB
100
AcDbEntity
  8
0
100
AcDbLine
 10
210.0
 20
297.0
 30
0.0
 11
210.0
 21
287.0
 31
0.0
1001
AcDbBlockRepETag
1070
     1
1071
       32
1005
304
  0
LINE
  5
305
330
AB
100
AcDbEntity
  8
0
100
AcDbLine
 10
148.75
 20
287.0
 30
0.0
 11
148.75
 21
292.0
 31
0.0
1001
AcDbBlockRepETag
1070
     1
1071
       33
1005
305
  0
LINE
  5
306
330
AB
100
AcDbEntity
  8
0
100
AcDbLine
 10
200.0
 20
297.0
 30
0.0
 11
210.0
 21
297.0
 31
0.0
1001
AcDbBlockRepETag
1070
     1
1071
       34
1005
306
  0
TEXT
  5
307
330
AB
100
AcDbEntity
  8
0
100
AcDbText
 10
13.87568307432493
 20
120.75
 30
0.0
 40
3.0
  1
D
  7
Roman
 72
     1
 11
15.4471116457535
 21
120.75
 31
0.0
100
AcDbText
1001
AcDbBlockRepETag
1070
     1
1071
       35
1005
307
  0
TEXT
  5
308
330
AB
100
AcDbEntity
  8
0
100
AcDbText
 10
13.9471116457535
 20
168.25
 30
0.0
 40
3.0
  1
C
  7
Roman
 72
     1
 11
15.4471116457535
 21
168.25
 31
0.0
100
AcDbText
1001
AcDbBlockRepETag
1070
     1
1071
       36
1005
308
  0
TEXT
  5
309
330
AB
100
AcDbEntity
  8
0
100
AcDbText
 10
13.87568307432493
 20
215.75
 30
0.0
 40
3.0
  1
B
  7
Roman
 72
     1
 11
15.4471116457535
 21
215.75
 31
0.0
100
AcDbText
1001
AcDbBlockRepETag
1070
     1
1071
       37
1005
309
  0
TEXT
  5
30A
330
AB
100
AcDbEntity
  8
0
100
AcDbText
 10
14.16139736003921
 20
263.25
 30
0.0
 40
3.0
  1
A
  7
Roman
 72
     1
 11
15.4471116457535
 21
263.25
 31
0.0
100
AcDbText
1001
AcDbBlockRepETag
1070
     1
1071
       38
1005
30A
  0
TEXT
  5
30B
330
AB
100
AcDbEntity
  8
0
100
AcDbText
 10
38.11904761904761
 20
288.0
 30
0.0
 40
3.0
  1
1
  7
Roman
 72
     1
 11
39.33333333333332
 21
288.0
 31
0.0
100
AcDbText
1001
AcDbBlockRepETag
1070
     1
1071
       39
1005
30B
  0
TEXT
  5
30C
330
AB
100
AcDbEntity
  8
0
100
AcDbText
 10
81.57142857142856
 20
288.0
 30
0.0
 40
3.0
  1
2
  7
Roman
 72
     1
 11
83.0
 21
288.0
 31
0.0
100
AcDbText
1001
AcDbBlockRepETag
1070
     1
1071
       40
1005
30C
  0
TEXT
  5
30D
330
AB
100
AcDbEntity
  8
0
100
AcDbText
 10
125.2380952380953
 20
288.0
 30
0.0
 40
3.0
  1
3
  7
Roman
 72
     1
 11
126.6666666666667
 21
288.0
 31
0.0
100
AcDbText
1001
AcDbBlockRepETag
1070
     1
1071
       41
1005
30D
  0
TEXT
  5
30E
330
AB
100
AcDbEntity
  8
0
100
AcDbText
 10
168.8333333333333
 20
288.0
 30
0.0
 40
3.0
  1
4
  7
Roman
 72
     1
 11
170.3333333333333
 21
288.0
 31
0.0
100
AcDbText
1001
AcDbBlockRepETag
1070
     1
1071
       42
1005
30E
  0
TEXT
  5
30F
330
AB
100
AcDbEntity
  8
0
100
AcDbText
 10
13.9471116457535
 20
28.41666666666668
 30
0.0
 40
3.0
  1
F
  7
Roman
 72
     1
 11
15.4471116457535
 21
28.41666666666668
 31
0.0
100
AcDbText
1001
AcDbBlockRepETag
1070
     1
1071
       43
1005
30F
  0
TEXT
  5
310
330
AB
100
AcDbEntity
  8
0
100
AcDbText
 10
13.9471116457535
 20
75.91666666666668
 30
0.0
 40
3.0
  1
E
  7
Roman
 72
     1
 11
15.4471116457535
 21
75.91666666666668
 31
0.0
100
AcDbText
1001
AcDbBlockRepETag
1070
     1
1071
       44
1005
310
  0
LINE
  5
311
330
AB
100
AcDbEntity
  8
0
100
AcDbLine
 10
192.4978723404242
 20
19.0
 30
0.0
 11
75.49787234042418
 21
19.0
 31
0.0
1001
AcDbBlockRepETag
1070
     1
1071
      166
1005
311
  0
LINE
  5
312
330
AB
100
AcDbEntity
  8
0
100
AcDbLine
 10
115.4978723404242
 20
28.0
 30
0.0
 11
75.49787234042418
 21
28.0
 31
0.0
1001
AcDbBlockRepETag
1070
     1
1071
      168
1005
312
  0
LINE
  5
313
330
AB
100
AcDbEntity
  8
0
100
AcDbLine
 10
192.4978723404242
 20
37.0
 30
0.0
 11
75.49787234042418
 21
37.0
 31
0.0
1001
AcDbBlockRepETag
1070
     1
1071
      169
1005
313
  0
LINE
  5
314
330
AB
100
AcDbEntity
  8
0
100
AcDbLine
 10
192.4978723404242
 20
46.0
 30
0.0
 11
75.49787234042418
 21
46.0
 31
0.0
1001
AcDbBlockRepETag
1070
     1
1071
      170
1005
314
  0
MTEXT
  5
315
330
AB
100
AcDbEntity
  8
0
100
AcDbMText
 10
100.9978723404242
 20
14.5
 30
0.0
 40
4.0
 41
51.0
 71
     5
 72
     5
  1
富国石油株式会社
 73
     1
 44
1.0
1001
AcDbBlockRepETag
1070
     1
1071
      171
1005
315
1001
ACAD
1000
MTEXTBEGIN
1070
    73
1070
     1
1070
    44
1040
1.0
1070
    74
1070
     0
1000
MTEXTEND
  0
MTEXT
  5
316
102
{ACAD_XDICTIONARY
360
6859
102
}
330
AB
100
AcDbEntity
  8
0
100
AcDbMText
 10
78.47796344079569
 20
23.5
 30
0.0
 40
2.0
 41
3.96018220074299
 71
     5
 72
     5
  1
検\P図
 73
     1
 44
1.0
1001
AcDbBlockRepETag
1070
     1
1071
      172
1005
316
1001
ACAD
1000
MTEXTBEGIN
1070
    73
1070
     1
1070
    44
1040
1.0
1070
    74
1070
     0
1000
MTEXTEND
1000
ACAD_MTEXT_DEFINED_HEIGHT_BEGIN
1070
    46
1040
9.0
1000
ACAD_MTEXT_DEFINED_HEIGHT_END
  0
MTEXT
  5
317
330
AB
100
AcDbEntity
  8
0
100
AcDbMText
 10
78.47796344079569
 20
32.5
 30
0.0
 40
2.0
 41
3.96018220074299
 71
     5
 72
     5
  1
確\P認
 73
     1
 44
1.0
1001
AcDbBlockRepETag
1070
     1
1071
      173
1005
317
1001
ACAD
1000
MTEXTBEGIN
1070
    73
1070
     1
1070
    44
1040
1.0
1070
    74
1070
     0
1000
MTEXTEND
1000
ACAD_MTEXT_DEFINED_HEIGHT_BEGIN
1070
    46
1040
9.0
1000
ACAD_MTEXT_DEFINED_HEIGHT_END
  0
MTEXT
  5
318
330
AB
100
AcDbEntity
  8
0
100
AcDbMText
 10
78.47796344079569
 20
41.5
 30
0.0
 40
2.0
 41
3.96018220074299
 71
     5
 72
     5
  1
縮\P尺
 73
     1
 44
1.0
1001
AcDbBlockRepETag
1070
     1
1071
      174
1005
318
1001
ACAD
1000
MTEXTBEGIN
1070
    73
1070
     1
1070
    44
1040
1.0
1070
    74
1070
     0
1000
MTEXTEND
1000
ACAD_MTEXT_DEFINED_HEIGHT_BEGIN
1070
    46
1040
9.0
1000
ACAD_MTEXT_DEFINED_HEIGHT_END
  0
LINE
  5
319
330
AB
100
AcDbEntity
  8
0
100
AcDbLine
 10
95.49787234042415
 20
19.0
 30
0.0
 11
95.49787234042415
 21
46.0
 31
0.0
1001
AcDbBlockRepETag
1070
     1
1071
      175
1005
319
  0
LINE
  5
31A
330
AB
100
AcDbEntity
  8
0
100
AcDbLine
 10
115.4978723404242
 20
19.0
 30
0.0
 11
115.4978723404242
 21
46.0
 31
0.0
1001
AcDbBlockRepETag
1070
     1
1071
      176
1005
31A
  0
LINE
  5
31B
330
AB
100
AcDbEntity
  8
0
100
AcDbLine
 10
147.4978723404241
 20
37.0
 30
0.0
 11
147.4978723404241
 21
46.0
 31
0.0
1001
AcDbBlockRepETag
1070
     1
1071
      194
1005
31B
  0
MTEXT
  5
31C
330
AB
100
AcDbEntity
  8
0
100
AcDbMText
 10
98.47796344079569
 20
32.5
 30
0.0
 40
2.0
 41
3.96018220074299
 71
     5
 72
     5
  1
設\P計
 73
     1
 44
1.0
1001
AcDbBlockRepETag
1070
     1
1071
      177
1005
31C
1001
ACAD
1000
MTEXTBEGIN
1070
    73
1070
     1
1070
    44
1040
1.0
1070
    74
1070
     0
1000
MTEXTEND
1000
ACAD_MTEXT_DEFINED_HEIGHT_BEGIN
1070
    46
1040
9.0
1000
ACAD_MTEXT_DEFINED_HEIGHT_END
  0
MTEXT
  5
31D
330
AB
100
AcDbEntity
  8
0
100
AcDbMText
 10
98.47796344079569
 20
23.5
 30
0.0
 40
2.0
 41
3.96018220074299
 71
     5
 72
     5
  1
製\P図
 73
     1
 44
1.0
1001
AcDbBlockRepETag
1070
     1
1071
      178
1005
31D
1001
ACAD
1000
MTEXTBEGIN
1070
    73
1070
     1
1070
    44
1040
1.0
1070
    74
1070
     0
1000
MTEXTEND
1000
ACAD_MTEXT_DEFINED_HEIGHT_BEGIN
1070
    46
1040
9.0
1000
ACAD_MTEXT_DEFINED_HEIGHT_END
  0
MTEXT
  5
31E
330
AB
100
AcDbEntity
  8
0
100
AcDbMText
 10
118.4779634407957
 20
41.5
 30
0.0
 40
2.0
 41
3.96018220074299
 71
     5
 72
     5
  1
材\P料
 73
     1
 44
1.0
1001
AcDbBlockRepETag
1070
     1
1071
      179
1005
31E
1001
ACAD
1000
MTEXTBEGIN
1070
    73
1070
     1
1070
    44
1040
1.0
1070
    74
1070
     0
1000
MTEXTEND
1000
ACAD_MTEXT_DEFINED_HEIGHT_BEGIN
1070
    46
1040
9.0
1000
ACAD_MTEXT_DEFINED_HEIGHT_END
  0
LINE
  5
31F
330
AB
100
AcDbEntity
  8
0
  6
HIDDEN2
 48
0.5
100
AcDbLine
 10
192.4978723404242
 20
32.5
 30
0.0
 11
115.4978723404242
 21
32.5
 31
0.0
1001
AcDbBlockRepETag
1070
     1
1071
      180
1005
31F
  0
POINT
  5
320
330
AB
100
AcDbEntity
  8
0
100
AcDbPoint
 10
101.2478723404242
 20
37.0
 30
0.0
1001
AcDbBlockRepETag
1070
     1
1071
      189
1005
320
  0
POINT
  5
321
330
AB
100
AcDbEntity
  8
0
100
AcDbPoint
 10
101.2478723404242
 20
28.0
 30
0.0
1001
AcDbBlockRepETag
1070
     1
1071
      190
1005
321
  0
MTEXT
  5
322
330
AB
100
AcDbEntity
  8
0
100
AcDbMText
 10
108.3728723404242
 20
23.5
 30
0.0
 40
3.0
 41
14.25
 71
     5
 72
     5
  1
齊藤
 73
     1
 44
1.0
1001
AcDbBlockRepETag
1070
     1
1071
      192
1005
322
1001
ACAD
1000
MTEXTBEGIN
1070
    73
1070
     1
1070
    44
1040
1.0
1070
    74
1070
     0
1000
MTEXTEND
1000
ACAD_MTEXT_DEFINED_HEIGHT_BEGIN
1070
    46
1040
9.0
1000
ACAD_MTEXT_DEFINED_HEIGHT_END
  0
TEXT
  5
323
330
AB
100
AcDbEntity
  8
0
100
AcDbText
 10
38.45238095238097
 20
6.230338100985591
 30
0.0
 40
3.0
  1
1
  7
Roman
 72
     1
 11
39.66666666666668
 21
6.230338100985591
 31
0.0
100
AcDbText
1001
AcDbBlockRepETag
1070
     1
1071
       45
1005
323
  0
TEXT
  5
324
330
AB
100
AcDbEntity
  8
0
100
AcDbText
 10
81.90476190476188
 20
6.230338100985591
 30
0.0
 40
3.0
  1
2
  7
Roman
 72
     1
 11
83.33333333333332
 21
6.230338100985591
 31
0.0
100
AcDbText
1001
AcDbBlockRepETag
1070
     1
1071
       46
1005
324
  0
TEXT
  5
325
330
AB
100
AcDbEntity
  8
0
100
AcDbText
 10
125.5714285714286
 20
6.230338100985591
 30
0.0
 40
3.0
  1
3
  7
Roman
 72
     1
 11
127.0
 21
6.230338100985591
 31
0.0
100
AcDbText
1001
AcDbBlockRepETag
1070
     1
1071
       47
1005
325
  0
TEXT
  5
326
330
AB
100
AcDbEntity
  8
0
100
AcDbText
 10
169.1666666666667
 20
6.230338100985591
 30
0.0
 40
3.0
  1
4
  7
Roman
 72
     1
 11
170.6666666666667
 21
6.230338100985591
 31
0.0
100
AcDbText
1001
AcDbBlockRepETag
1070
     1
1071
       48
1005
326
  0
TEXT
  5
327
330
AB
100
AcDbEntity
  8
0
100
AcDbText
 10
193.2387724536951
 20
33.75
 30
0.0
 40
3.0
  1
F
  7
Roman
 72
     1
 11
194.7387724536952
 21
33.75
 31
0.0
100
AcDbText
1001
AcDbBlockRepETag
1070
     1
1071
       49
1005
327
  0
TEXT
  5
328
330
AB
100
AcDbEntity
  8
0
100
AcDbText
 10
193.2387724536951
 20
81.25
 30
0.0
 40
3.0
  1
E
  7
Roman
 72
     1
 11
194.7387724536952
 21
81.25
 31
0.0
100
AcDbText
1001
AcDbBlockRepETag
1070
     1
1071
       50
1005
328
  0
TEXT
  5
329
330
AB
100
AcDbEntity
  8
0
100
AcDbText
 10
193.1673438822666
 20
221.0833333333333
 30
0.0
 40
3.0
  1
B
  7
Roman
 72
     1
 11
194.7387724536952
 21
221.0833333333333
 31
0.0
100
AcDbText
1001
AcDbBlockRepETag
1070
     1
1071
       51
1005
329
  0
TEXT
  5
32A
330
AB
100
AcDbEntity
  8
0
100
AcDbText
 10
193.4530581679809
 20
268.5833333333333
 30
0.0
 40
3.0
  1
A
  7
Roman
 72
     1
 11
194.7387724536952
 21
268.5833333333333
 31
0.0
100
AcDbText
1001
AcDbBlockRepETag
1070
     1
1071
       52
1005
32A
  0
LINE
  5
32B
330
AB
100
AcDbEntity
  8
0
100
AcDbLine
 10
75.49787234042418
 20
10.0
 30
0.0
 11
75.49787234042418
 21
46.0
 31
0.0
1001
AcDbBlockRepETag
1070
     1
1071
      162
1005
32B
  0
LINE
  5
32C
330
AB
100
AcDbEntity
  8
0
100
AcDbLine
 10
126.4978723404242
 20
10.0
 30
0.0
 11
126.4978723404242
 21
19.0
 31
0.0
1001
AcDbBlockRepETag
1070
     1
1071
      167
1005
32C
  0
TEXT
  5
32D
330
AB
100
AcDbEntity
  8
0
100
AcDbText
 10
193.1673438822666
 20
126.0833333333333
 30
0.0
 40
3.0
  1
D
  7
Roman
 72
     1
 11
194.7387724536952
 21
126.0833333333333
 31
0.0
100
AcDbText
1001
AcDbBlockRepETag
1070
     1
1071
       54
1005
32D
  0
TEXT
  5
32E
330
AB
100
AcDbEntity
  8
0
100
AcDbText
 10
193.2387724536951
 20
173.5833333333333
 30
0.0
 40
3.0
  1
C
  7
Roman
 72
     1
 11
194.7387724536952
 21
173.5833333333333
 31
0.0
100
AcDbText
1001
AcDbBlockRepETag
1070
     1
1071
       53
1005
32E
  0
ENDBLK
  5
117
330
AB
100
AcDbEntity
  8
0
100
AcDbBlockEnd
  0
BLOCK
  5
340
330
33F
100
AcDbEntity
  8
0
100
AcDbBlockBegin
  2
_Open30
 70
     0
 10
0.0
 20
0.0
 30
0.0
  3
_Open30
  1

  0
LINE
  5
341
330
33F
100
AcDbEntity
  8
0
  6
ByBlock
 62
     0
370
    -2
100
AcDbLine
 10
-1.0
 20
0.26794919
 30
0.0
 11
0.0
 21
0.0
 31
0.0
  0
LINE
  5
342
330
33F
100
AcDbEntity
  8
0
  6
ByBlock
 62
     0
370
    -2
100
AcDbLine
 10
0.0
 20
0.0
 30
0.0
 11
-1.0
 21
-0.26794919
 31
0.0
  0
LINE
  5
343
330
33F
100
AcDbEntity
  8
0
  6
ByBlock
 62
     0
370
    -2
100
AcDbLine
 10
0.0
 20
0.0
 30
0.0
 11
-1.0
 21
0.0
 31
0.0
  0
ENDBLK
  5
344
330
33F
100
AcDbEntity
  8
0
100
AcDbBlockEnd
  0
BLOCK
  5
4EA
330
4E7
100
AcDbEntity
  8
0
100
AcDbBlockBegin
  2
JIS A3 title block
 70
     2
 10
0.0
 20
0.0
 30
0.0
  3
JIS A3 title block
  1

  4
JIS A3 title block and attributes
  0
LINE
  5
4EB
330
4E7
100
AcDbEntity
  8
0
100
AcDbLine
 10
402.5
 20
10.0
 30
0.0
 11
17.49999999999999
 21
10.0
 31
0.0
1001
AcDbBlockRepETag
1070
     1
1071
        0
1005
4EB
  0
LINE
  5
4EC
330
4E7
100
AcDbEntity
  8
0
100
AcDbLine
 10
17.5
 20
287.0
 30
0.0
 11
402.5
 21
287.0
 31
0.0
1001
AcDbBlockRepETag
1070
     1
1071
        1
1005
4EC
  0
LINE
  5
4ED
330
4E7
100
AcDbEntity
  8
0
100
AcDbLine
 10
25.0
 20
0.0
 30
0.0
 11
0.0
 21
0.0
 31
0.0
1001
AcDbBlockRepETag
1070
     1
1071
        3
1005
4ED
  0
LINE
  5
4EE
330
4E7
100
AcDbEntity
  8
0
100
AcDbLine
 10
0.0
 20
0.0
 30
0.0
 11
0.0
 21
10.0
 31
0.0
1001
AcDbBlockRepETag
1070
     1
1071
        4
1005
4EE
  0
LINE
  5
4EF
330
4E7
100
AcDbEntity
  8
0
100
AcDbLine
 10
65.625
 20
10.0
 30
0.0
 11
65.625
 21
5.0
 31
0.0
1001
AcDbBlockRepETag
1070
     1
1071
        5
1005
4EF
  0
TEXT
  5
4F0
330
4E7
100
AcDbEntity
  8
0
100
AcDbText
 10
40.34821428571429
 20
6.019997240728746
 30
0.0
 40
3.0
  1
1
  7
Roman
 72
     1
 11
41.5625
 21
6.019997240728746
 31
0.0
100
AcDbText
1001
AcDbBlockRepETag
1070
     1
1071
        6
1005
4F0
  0
ATTDEF
  5
4F1
330
4E7
100
AcDbEntity
  8
0
 62
     0
380
     1
100
AcDbText
 10
11.49999999999999
 20
10.0
 30
0.0
 40
3.0
  1

 50
90.0
  7
Roman
100
AcDbAttributeDefinition
  3
Author:
  2
USER
 70
     8
1001
AcDbBlockRepETag
1070
     1
1071
        7
1005
0
  0
TEXT
  5
4F2
330
4E7
100
AcDbEntity
  8
0
100
AcDbText
 10
13.60716135953388
 20
33.08333333333334
 30
0.0
 40
3.0
  1
F
  7
Roman
 72
     1
 11
15.10716135953388
 21
33.08333333333334
 31
0.0
100
AcDbText
1001
AcDbBlockRepETag
1070
     1
1071
        8
1005
4F2
  0
LINE
  5
4F3
330
4E7
100
AcDbEntity
  8
0
100
AcDbLine
 10
17.49999999999999
 20
148.5
 30
0.0
 11
0.0
 21
148.5
 31
0.0
1001
AcDbBlockRepETag
1070
     1
1071
        9
1005
4F3
  0
ATTDEF
  5
4F4
330
4E7
100
AcDbEntity
  8
0
 62
     0
380
     1
100
AcDbText
 10
11.49999999999999
 20
70.0
 30
0.0
 40
3.0
  1

 50
90.0
  7
Roman
100
AcDbAttributeDefinition
  3
Revision date:
  2
REVDATE
 70
     8
1001
AcDbBlockRepETag
1070
     1
1071
       10
1005
0
  0
LINE
  5
4F5
330
4E7
100
AcDbEntity
  8
0
100
AcDbLine
 10
17.49999999999999
 20
56.16666666666667
 30
0.0
 11
12.49999999999999
 21
56.16666666666667
 31
0.0
1001
AcDbBlockRepETag
1070
     1
1071
       11
1005
4F5
  0
TEXT
  5
4F6
330
4E7
100
AcDbEntity
  8
0
100
AcDbText
 10
13.60716135953388
 20
79.25
 30
0.0
 40
3.0
  1
E
  7
Roman
 72
     1
 11
15.10716135953388
 21
79.25
 31
0.0
100
AcDbText
1001
AcDbBlockRepETag
1070
     1
1071
       12
1005
4F6
  0
ATTDEF
  5
4F7
330
4E7
100
AcDbEntity
  8
0
 62
     0
380
     1
100
AcDbText
 10
11.49999999999999
 20
118.0
 30
0.0
 40
3.0
  1

 50
90.0
  7
Roman
100
AcDbAttributeDefinition
  3
File name:
  2
FNAME
 70
     8
1001
AcDbBlockRepETag
1070
     1
1071
       13
1005
0
  0
LINE
  5
4F8
330
4E7
100
AcDbEntity
  8
0
100
AcDbLine
 10
17.49999999999999
 20
102.3333333333333
 30
0.0
 11
12.49999999999999
 21
102.3333333333333
 31
0.0
1001
AcDbBlockRepETag
1070
     1
1071
       14
1005
4F8
  0
TEXT
  5
4F9
330
4E7
100
AcDbEntity
  8
0
100
AcDbText
 10
13.53573278810531
 20
125.4166666666666
 30
0.0
 40
3.0
  1
D
  7
Roman
 72
     1
 11
15.10716135953388
 21
125.4166666666666
 31
0.0
100
AcDbText
1001
AcDbBlockRepETag
1070
     1
1071
       15
1005
4F9
  0
LINE
  5
4FA
330
4E7
100
AcDbEntity
  8
0
100
AcDbLine
 10
17.49999999999999
 20
148.5
 30
0.0
 11
12.49999999999999
 21
148.5
 31
0.0
1001
AcDbBlockRepETag
1070
     1
1071
       16
1005
4FA
  0
TEXT
  5
4FB
330
4E7
100
AcDbEntity
  8
0
100
AcDbText
 10
136.3839285714286
 20
6.019997240728746
 30
0.0
 40
3.0
  1
3
  7
Roman
 72
     1
 11
137.8125
 21
6.019997240728746
 31
0.0
100
AcDbText
1001
AcDbBlockRepETag
1070
     1
1071
       17
1005
4FB
  0
LINE
  5
4FC
330
4E7
100
AcDbEntity
  8
0
100
AcDbLine
 10
113.75
 20
10.0
 30
0.0
 11
113.75
 21
5.0
 31
0.0
1001
AcDbBlockRepETag
1070
     1
1071
       18
1005
4FC
  0
TEXT
  5
4FD
330
4E7
100
AcDbEntity
  8
0
100
AcDbText
 10
88.25892857142857
 20
6.019997240728746
 30
0.0
 40
3.0
  1
2
  7
Roman
 72
     1
 11
89.6875
 21
6.019997240728746
 31
0.0
100
AcDbText
1001
AcDbBlockRepETag
1070
     1
1071
       19
1005
4FD
  0
LINE
  5
4FE
330
4E7
100
AcDbEntity
  8
0
100
AcDbLine
 10
161.875
 20
10.0
 30
0.0
 11
161.875
 21
5.0
 31
0.0
1001
AcDbBlockRepETag
1070
     1
1071
       20
1005
4FE
  0
TEXT
  5
4FF
330
4E7
100
AcDbEntity
  8
0
100
AcDbText
 10
184.4375
 20
6.019997240728746
 30
0.0
 40
3.0
  1
4
  7
Roman
 72
     1
 11
185.9375
 21
6.019997240728746
 31
0.0
100
AcDbText
1001
AcDbBlockRepETag
1070
     1
1071
       21
1005
4FF
  0
TEXT
  5
500
330
4E7
100
AcDbEntity
  8
0
100
AcDbText
 10
13.60716135953388
 20
171.5833333333333
 30
0.0
 40
3.0
  1
C
  7
Roman
 72
     1
 11
15.10716135953388
 21
171.5833333333333
 31
0.0
100
AcDbText
1001
AcDbBlockRepETag
1070
     1
1071
       22
1005
500
  0
LINE
  5
501
330
4E7
100
AcDbEntity
  8
0
100
AcDbLine
 10
17.49999999999999
 20
194.6666666666666
 30
0.0
 11
12.49999999999999
 21
194.6666666666666
 31
0.0
1001
AcDbBlockRepETag
1070
     1
1071
       23
1005
501
  0
TEXT
  5
502
330
4E7
100
AcDbEntity
  8
0
100
AcDbText
 10
13.53573278810531
 20
217.75
 30
0.0
 40
3.0
  1
B
  7
Roman
 72
     1
 11
15.10716135953388
 21
217.75
 31
0.0
100
AcDbText
1001
AcDbBlockRepETag
1070
     1
1071
       24
1005
502
  0
LINE
  5
503
330
4E7
100
AcDbEntity
  8
0
100
AcDbLine
 10
17.49999999999999
 20
240.8333333333333
 30
0.0
 11
12.49999999999999
 21
240.8333333333333
 31
0.0
1001
AcDbBlockRepETag
1070
     1
1071
       25
1005
503
  0
LINE
  5
504
330
4E7
100
AcDbEntity
  8
0
100
AcDbLine
 10
0.0
 20
297.0
 30
0.0
 11
25.0
 21
297.0
 31
0.0
1001
AcDbBlockRepETag
1070
     1
1071
       26
1005
504
  0
LINE
  5
505
330
4E7
100
AcDbEntity
  8
0
100
AcDbLine
 10
0.0
 20
287.0
 30
0.0
 11
0.0
 21
297.0
 31
0.0
1001
AcDbBlockRepETag
1070
     1
1071
       27
1005
505
  0
LINE
  5
506
330
4E7
100
AcDbEntity
  8
0
100
AcDbLine
 10
65.625
 20
287.0
 30
0.0
 11
65.625
 21
292.0
 31
0.0
1001
AcDbBlockRepETag
1070
     1
1071
       28
1005
506
  0
TEXT
  5
507
330
4E7
100
AcDbEntity
  8
0
100
AcDbText
 10
13.82144707381959
 20
263.9166666666666
 30
0.0
 40
3.0
  1
A
  7
Roman
 72
     1
 11
15.10716135953388
 21
263.9166666666666
 31
0.0
100
AcDbText
1001
AcDbBlockRepETag
1070
     1
1071
       29
1005
507
  0
TEXT
  5
508
330
4E7
100
AcDbEntity
  8
0
100
AcDbText
 10
40.34821428571429
 20
288.0
 30
0.0
 40
3.0
  1
1
  7
Roman
 72
     1
 11
41.5625
 21
288.0
 31
0.0
100
AcDbText
1001
AcDbBlockRepETag
1070
     1
1071
       30
1005
508
  0
TEXT
  5
509
330
4E7
100
AcDbEntity
  8
0
100
AcDbText
 10
136.3839285714286
 20
288.0
 30
0.0
 40
3.0
  1
3
  7
Roman
 72
     1
 11
137.8125
 21
288.0
 31
0.0
100
AcDbText
1001
AcDbBlockRepETag
1070
     1
1071
       31
1005
509
  0
LINE
  5
50A
330
4E7
100
AcDbEntity
  8
0
100
AcDbLine
 10
113.75
 20
287.0
 30
0.0
 11
113.75
 21
292.0
 31
0.0
1001
AcDbBlockRepETag
1070
     1
1071
       32
1005
50A
  0
TEXT
  5
50B
330
4E7
100
AcDbEntity
  8
0
100
AcDbText
 10
88.25892857142857
 20
288.0
 30
0.0
 40
3.0
  1
2
  7
Roman
 72
     1
 11
89.6875
 21
288.0
 31
0.0
100
AcDbText
1001
AcDbBlockRepETag
1070
     1
1071
       33
1005
50B
  0
LINE
  5
50C
330
4E7
100
AcDbEntity
  8
0
100
AcDbLine
 10
161.875
 20
287.0
 30
0.0
 11
161.875
 21
292.0
 31
0.0
1001
AcDbBlockRepETag
1070
     1
1071
       34
1005
50C
  0
TEXT
  5
50D
330
4E7
100
AcDbEntity
  8
0
100
AcDbText
 10
184.4375
 20
288.0
 30
0.0
 40
3.0
  1
4
  7
Roman
 72
     1
 11
185.9375
 21
288.0
 31
0.0
100
AcDbText
1001
AcDbBlockRepETag
1070
     1
1071
       35
1005
50D
  0
LINE
  5
50E
330
4E7
100
AcDbEntity
  8
0
100
AcDbLine
 10
402.5
 20
287.0
 30
0.0
 11
402.5
 21
10.0
 31
0.0
1001
AcDbBlockRepETag
1070
     1
1071
       36
1005
50E
  0
LINE
  5
50F
330
4E7
100
AcDbEntity
  8
0
100
AcDbLine
 10
210.0
 20
10.0
 30
0.0
 11
210.0
 21
0.0
 31
0.0
1001
AcDbBlockRepETag
1070
     1
1071
       37
1005
50F
  0
LINE
  5
510
330
4E7
100
AcDbEntity
  8
0
100
AcDbLine
 10
258.125
 20
10.0
 30
0.0
 11
258.125
 21
5.0
 31
0.0
1001
AcDbBlockRepETag
1070
     1
1071
       39
1005
510
  0
TEXT
  5
511
330
4E7
100
AcDbEntity
  8
0
100
AcDbText
 10
232.6339285714286
 20
6.019997240728746
 30
0.0
 40
3.0
  1
5
  7
Roman
 72
     1
 11
234.0625
 21
6.019997240728746
 31
0.0
100
AcDbText
1001
AcDbBlockRepETag
1070
     1
1071
       40
1005
511
  0
LINE
  5
512
330
4E7
100
AcDbEntity
  8
0
100
AcDbLine
 10
306.25
 20
10.0
 30
0.0
 11
306.25
 21
5.0
 31
0.0
1001
AcDbBlockRepETag
1070
     1
1071
       41
1005
512
  0
TEXT
  5
513
330
4E7
100
AcDbEntity
  8
0
100
AcDbText
 10
280.6875
 20
6.019997240728746
 30
0.0
 40
3.0
  1
6
  7
Roman
 72
     1
 11
282.1875
 21
6.019997240728746
 31
0.0
100
AcDbText
1001
AcDbBlockRepETag
1070
     1
1071
       42
1005
513
  0
TEXT
  5
514
330
4E7
100
AcDbEntity
  8
0
100
AcDbText
 10
328.8839285714285
 20
6.019997240728746
 30
0.0
 40
3.0
  1
7
  7
Roman
 72
     1
 11
330.3125
 21
6.019997240728746
 31
0.0
100
AcDbText
1001
AcDbBlockRepETag
1070
     1
1071
       43
1005
514
  0
LINE
  5
515
330
4E7
100
AcDbEntity
  8
0
100
AcDbLine
 10
354.375
 20
10.0
 30
0.0
 11
354.375
 21
5.0
 31
0.0
1001
AcDbBlockRepETag
1070
     1
1071
       44
1005
515
  0
TEXT
  5
516
330
4E7
100
AcDbEntity
  8
0
100
AcDbText
 10
377.0089285714286
 20
6.019997240728746
 30
0.0
 40
3.0
  1
8
  7
Roman
 72
     1
 11
378.4375
 21
6.019997240728746
 31
0.0
100
AcDbText
1001
AcDbBlockRepETag
1070
     1
1071
       45
1005
516
  0
LINE
  5
517
330
4E7
100
AcDbEntity
  8
0
100
AcDbLine
 10
420.0
 20
10.0
 30
0.0
 11
420.0
 21
0.0
 31
0.0
1001
AcDbBlockRepETag
1070
     1
1071
       46
1005
517
  0
LINE
  5
518
330
4E7
100
AcDbEntity
  8
0
100
AcDbLine
 10
420.0
 20
0.0
 30
0.0
 11
410.0
 21
0.0
 31
0.0
1001
AcDbBlockRepETag
1070
     1
1071
       47
1005
518
  0
LINE
  5
519
330
4E7
100
AcDbEntity
  8
0
 62
     0
380
     1
100
AcDbLine
 10
402.5
 20
49.00000000000036
 30
0.0
 11
402.5
 21
10.0
 31
0.0
1001
AcDbBlockRepETag
1070
     1
1071
       48
1005
519
  0
LINE
  5
51A
330
4E7
100
AcDbEntity
  8
0
 62
     0
380
     1
100
AcDbLine
 10
402.5
 20
10.0
 30
0.0
 11
402.5
 21
49.00000000000036
 31
0.0
1001
AcDbBlockRepETag
1070
     1
1071
       49
1005
51A
  0
TEXT
  5
51B
330
4E7
100
AcDbEntity
  8
0
100
AcDbText
 10
403.8708251683468
 20
33.08333333333334
 30
0.0
 40
3.0
  1
F
  7
Roman
 72
     1
 11
405.3708251683468
 21
33.08333333333334
 31
0.0
100
AcDbText
1001
AcDbBlockRepETag
1070
     1
1071
       50
1005
51B
  0
LINE
  5
51C
330
4E7
100
AcDbEntity
  8
0
100
AcDbLine
 10
402.5
 20
56.16666666666668
 30
0.0
 11
407.5
 21
56.16666666666668
 31
0.0
1001
AcDbBlockRepETag
1070
     1
1071
       51
1005
51C
  0
TEXT
  5
51D
330
4E7
100
AcDbEntity
  8
0
100
AcDbText
 10
403.8708251683468
 20
79.25
 30
0.0
 40
3.0
  1
E
  7
Roman
 72
     1
 11
405.3708251683468
 21
79.25
 31
0.0
100
AcDbText
1001
AcDbBlockRepETag
1070
     1
1071
       52
1005
51D
  0
LINE
  5
51E
330
4E7
100
AcDbEntity
  8
0
100
AcDbLine
 10
402.5
 20
102.3333333333333
 30
0.0
 11
407.5
 21
102.3333333333333
 31
0.0
1001
AcDbBlockRepETag
1070
     1
1071
       53
1005
51E
  0
TEXT
  5
51F
330
4E7
100
AcDbEntity
  8
0
100
AcDbText
 10
403.7993965969183
 20
125.4166666666666
 30
0.0
 40
3.0
  1
D
  7
Roman
 72
     1
 11
405.3708251683468
 21
125.4166666666666
 31
0.0
100
AcDbText
1001
AcDbBlockRepETag
1070
     1
1071
       54
1005
51F
  0
LINE
  5
520
330
4E7
100
AcDbEntity
  8
0
100
AcDbLine
 10
402.5
 20
148.5
 30
0.0
 11
420.0
 21
148.5
 31
0.0
1001
AcDbBlockRepETag
1070
     1
1071
       56
1005
520
  0
LINE
  5
521
330
4E7
100
AcDbEntity
  8
0
100
AcDbLine
 10
210.0
 20
287.0
 30
0.0
 11
210.0
 21
297.0
 31
0.0
1001
AcDbBlockRepETag
1070
     1
1071
       57
1005
521
  0
LINE
  5
522
330
4E7
100
AcDbEntity
  8
0
100
AcDbLine
 10
258.125
 20
287.0
 30
0.0
 11
258.125
 21
292.0
 31
0.0
1001
AcDbBlockRepETag
1070
     1
1071
       58
1005
522
  0
LINE
  5
523
330
4E7
100
AcDbEntity
  8
0
100
AcDbLine
 10
210.0
 20
287.0
 30
0.0
 11
210.0
 21
292.0
 31
0.0
1001
AcDbBlockRepETag
1070
     1
1071
       59
1005
523
  0
TEXT
  5
524
330
4E7
100
AcDbEntity
  8
0
100
AcDbText
 10
232.6339285714286
 20
288.0
 30
0.0
 40
3.0
  1
5
  7
Roman
 72
     1
 11
234.0625
 21
288.0
 31
0.0
100
AcDbText
1001
AcDbBlockRepETag
1070
     1
1071
       60
1005
524
  0
LINE
  5
525
330
4E7
100
AcDbEntity
  8
0
100
AcDbLine
 10
306.25
 20
287.0
 30
0.0
 11
306.25
 21
292.0
 31
0.0
1001
AcDbBlockRepETag
1070
     1
1071
       61
1005
525
  0
TEXT
  5
526
330
4E7
100
AcDbEntity
  8
0
100
AcDbText
 10
280.6875
 20
288.0
 30
0.0
 40
3.0
  1
6
  7
Roman
 72
     1
 11
282.1875
 21
288.0
 31
0.0
100
AcDbText
1001
AcDbBlockRepETag
1070
     1
1071
       62
1005
526
  0
TEXT
  5
527
330
4E7
100
AcDbEntity
  8
0
100
AcDbText
 10
328.8839285714285
 20
288.0
 30
0.0
 40
3.0
  1
7
  7
Roman
 72
     1
 11
330.3125
 21
288.0
 31
0.0
100
AcDbText
1001
AcDbBlockRepETag
1070
     1
1071
       63
1005
527
  0
TEXT
  5
528
330
4E7
100
AcDbEntity
  8
0
100
AcDbText
 10
403.8708251683468
 20
171.5833333333333
 30
0.0
 40
3.0
  1
C
  7
Roman
 72
     1
 11
405.3708251683468
 21
171.5833333333333
 31
0.0
100
AcDbText
1001
AcDbBlockRepETag
1070
     1
1071
       64
1005
528
  0
LINE
  5
529
330
4E7
100
AcDbEntity
  8
0
100
AcDbLine
 10
402.5
 20
194.6666666666667
 30
0.0
 11
407.5
 21
194.6666666666667
 31
0.0
1001
AcDbBlockRepETag
1070
     1
1071
       65
1005
529
  0
TEXT
  5
52A
330
4E7
100
AcDbEntity
  8
0
100
AcDbText
 10
403.7993965969183
 20
217.75
 30
0.0
 40
3.0
  1
B
  7
Roman
 72
     1
 11
405.3708251683468
 21
217.75
 31
0.0
100
AcDbText
1001
AcDbBlockRepETag
1070
     1
1071
       66
1005
52A
  0
LINE
  5
52B
330
4E7
100
AcDbEntity
  8
0
100
AcDbLine
 10
402.5
 20
240.8333333333334
 30
0.0
 11
407.5
 21
240.8333333333334
 31
0.0
1001
AcDbBlockRepETag
1070
     1
1071
       67
1005
52B
  0
LINE
  5
52C
330
4E7
100
AcDbEntity
  8
0
100
AcDbLine
 10
354.375
 20
287.0
 30
0.0
 11
354.375
 21
292.0
 31
0.0
1001
AcDbBlockRepETag
1070
     1
1071
       68
1005
52C
  0
TEXT
  5
52D
330
4E7
100
AcDbEntity
  8
0
100
AcDbText
 10
377.0089285714286
 20
288.0
 30
0.0
 40
3.0
  1
8
  7
Roman
 72
     1
 11
378.4375
 21
288.0
 31
0.0
100
AcDbText
1001
AcDbBlockRepETag
1070
     1
1071
       69
1005
52D
  0
LINE
  5
52E
330
4E7
100
AcDbEntity
  8
0
100
AcDbLine
 10
420.0
 20
297.0
 30
0.0
 11
420.0
 21
287.0
 31
0.0
1001
AcDbBlockRepETag
1070
     1
1071
       70
1005
52E
  0
TEXT
  5
52F
330
4E7
100
AcDbEntity
  8
0
100
AcDbText
 10
404.0851108826325
 20
263.9166666666666
 30
0.0
 40
3.0
  1
A
  7
Roman
 72
     1
 11
405.3708251683468
 21
263.9166666666666
 31
0.0
100
AcDbText
1001
AcDbBlockRepETag
1070
     1
1071
       71
1005
52F
  0
LINE
  5
530
330
4E7
100
AcDbEntity
  8
0
100
AcDbLine
 10
410.0
 20
297.0
 30
0.0
 11
420.0
 21
297.0
 31
0.0
1001
AcDbBlockRepETag
1070
     1
1071
       72
1005
530
  0
LINE
  5
531
330
4E7
100
AcDbEntity
  8
0
100
AcDbLine
 10
286.4978723404242
 20
10.0
 30
0.0
 11
286.4978723404242
 21
10.0
 31
0.0
1001
AcDbBlockRepETag
1070
     1
1071
      161
1005
531
  0
LINE
  5
532
330
4E7
100
AcDbEntity
  8
0
100
AcDbLine
 10
285.4978723404242
 20
10.0
 30
0.0
 11
285.4978723404242
 21
46.0
 31
0.0
1001
AcDbBlockRepETag
1070
     1
1071
      162
1005
532
  0
LINE
  5
533
330
4E7
100
AcDbEntity
  8
0
100
AcDbLine
 10
402.4978723404242
 20
19.0
 30
0.0
 11
285.4978723404242
 21
19.0
 31
0.0
1001
AcDbBlockRepETag
1070
     1
1071
      166
1005
533
  0
LINE
  5
534
330
4E7
100
AcDbEntity
  8
0
100
AcDbLine
 10
336.4978723404242
 20
10.0
 30
0.0
 11
336.4978723404242
 21
19.0
 31
0.0
1001
AcDbBlockRepETag
1070
     1
1071
      167
1005
534
  0
LINE
  5
535
330
4E7
100
AcDbEntity
  8
0
100
AcDbLine
 10
325.4978723404242
 20
28.0
 30
0.0
 11
285.4978723404242
 21
28.0
 31
0.0
1001
AcDbBlockRepETag
1070
     1
1071
      168
1005
535
  0
LINE
  5
536
330
4E7
100
AcDbEntity
  8
0
100
AcDbLine
 10
402.4978723404242
 20
37.0
 30
0.0
 11
285.4978723404242
 21
37.0
 31
0.0
1001
AcDbBlockRepETag
1070
     1
1071
      169
1005
536
  0
LINE
  5
537
330
4E7
100
AcDbEntity
  8
0
100
AcDbLine
 10
402.4978723404242
 20
46.0
 30
0.0
 11
285.4978723404242
 21
46.0
 31
0.0
1001
AcDbBlockRepETag
1070
     1
1071
      170
1005
537
  0
MTEXT
  5
538
330
4E7
100
AcDbEntity
  8
0
100
AcDbMText
 10
310.9978723404242
 20
14.5
 30
0.0
 40
4.0
 41
51.0
 71
     5
 72
     5
  1
富国石油株式会社
 73
     1
 44
1.0
1001
AcDbBlockRepETag
1070
     1
1071
      171
1005
538
1001
ACAD
1000
MTEXTBEGIN
1070
    73
1070
     1
1070
    44
1040
1.0
1070
    74
1070
     0
1000
MTEXTEND
  0
MTEXT
  5
539
102
{ACAD_XDICTIONARY
360
685D
102
}
330
4E7
100
AcDbEntity
  8
0
100
AcDbMText
 10
288.4779634407957
 20
23.5
 30
0.0
 40
2.0
 41
3.96018220074299
 71
     5
 72
     5
  1
検\P図
 73
     1
 44
1.0
1001
AcDbBlockRepETag
1070
     1
1071
      172
1005
539
1001
ACAD
1000
MTEXTBEGIN
1070
    73
1070
     1
1070
    44
1040
1.0
1070
    74
1070
     0
1000
MTEXTEND
1000
ACAD_MTEXT_DEFINED_HEIGHT_BEGIN
1070
    46
1040
9.0
1000
ACAD_MTEXT_DEFINED_HEIGHT_END
  0
MTEXT
  5
53A
330
4E7
100
AcDbEntity
  8
0
100
AcDbMText
 10
288.4779634407957
 20
32.5
 30
0.0
 40
2.0
 41
3.96018220074299
 71
     5
 72
     5
  1
確\P認
 73
     1
 44
1.0
1001
AcDbBlockRepETag
1070
     1
1071
      173
1005
53A
1001
ACAD
1000
MTEXTBEGIN
1070
    73
1070
     1
1070
    44
1040
1.0
1070
    74
1070
     0
1000
MTEXTEND
1000
ACAD_MTEXT_DEFINED_HEIGHT_BEGIN
1070
    46
1040
9.0
1000
ACAD_MTEXT_DEFINED_HEIGHT_END
  0
MTEXT
  5
53B
330
4E7
100
AcDbEntity
  8
0
100
AcDbMText
 10
288.4779634407957
 20
41.5
 30
0.0
 40
2.0
 41
3.96018220074299
 71
     5
 72
     5
  1
縮\P尺
 73
     1
 44
1.0
1001
AcDbBlockRepETag
1070
     1
1071
      174
1005
53B
1001
ACAD
1000
MTEXTBEGIN
1070
    73
1070
     1
1070
    44
1040
1.0
1070
    74
1070
     0
1000
MTEXTEND
1000
ACAD_MTEXT_DEFINED_HEIGHT_BEGIN
1070
    46
1040
9.0
1000
ACAD_MTEXT_DEFINED_HEIGHT_END
  0
LINE
  5
53C
330
4E7
100
AcDbEntity
  8
0
100
AcDbLine
 10
305.4978723404242
 20
19.0
 30
0.0
 11
305.4978723404242
 21
46.0
 31
0.0
1001
AcDbBlockRepETag
1070
     1
1071
      175
1005
53C
  0
LINE
  5
53D
330
4E7
100
AcDbEntity
  8
0
100
AcDbLine
 10
325.4978723404242
 20
19.0
 30
0.0
 11
325.4978723404242
 21
46.0
 31
0.0
1001
AcDbBlockRepETag
1070
     1
1071
      176
1005
53D
  0
LINE
  5
53E
330
4E7
100
AcDbEntity
  8
0
100
AcDbLine
 10
357.4978723404242
 20
37.0
 30
0.0
 11
357.4978723404242
 21
46.0
 31
0.0
1001
AcDbBlockRepETag
1070
     1
1071
      194
1005
53E
  0
MTEXT
  5
53F
330
4E7
100
AcDbEntity
  8
0
100
AcDbMText
 10
308.4779634407957
 20
32.5
 30
0.0
 40
2.0
 41
3.96018220074299
 71
     5
 72
     5
  1
設\P計
 73
     1
 44
1.0
1001
AcDbBlockRepETag
1070
     1
1071
      177
1005
53F
1001
ACAD
1000
MTEXTBEGIN
1070
    73
1070
     1
1070
    44
1040
1.0
1070
    74
1070
     0
1000
MTEXTEND
1000
ACAD_MTEXT_DEFINED_HEIGHT_BEGIN
1070
    46
1040
9.0
1000
ACAD_MTEXT_DEFINED_HEIGHT_END
  0
MTEXT
  5
540
330
4E7
100
AcDbEntity
  8
0
100
AcDbMText
 10
308.4779634407957
 20
23.5
 30
0.0
 40
2.0
 41
3.96018220074299
 71
     5
 72
     5
  1
製\P図
 73
     1
 44
1.0
1001
AcDbBlockRepETag
1070
     1
1071
      178
1005
540
1001
ACAD
1000
MTEXTBEGIN
1070
    73
1070
     1
1070
    44
1040
1.0
1070
    74
1070
     0
1000
MTEXTEND
1000
ACAD_MTEXT_DEFINED_HEIGHT_BEGIN
1070
    46
1040
9.0
1000
ACAD_MTEXT_DEFINED_HEIGHT_END
  0
MTEXT
  5
541
330
4E7
100
AcDbEntity
  8
0
100
AcDbMText
 10
328.4779634407957
 20
41.5
 30
0.0
 40
2.0
 41
3.96018220074299
 71
     5
 72
     5
  1
材\P料
 73
     1
 44
1.0
1001
AcDbBlockRepETag
1070
     1
1071
      179
1005
541
1001
ACAD
1000
MTEXTBEGIN
1070
    73
1070
     1
1070
    44
1040
1.0
1070
    74
1070
     0
1000
MTEXTEND
1000
ACAD_MTEXT_DEFINED_HEIGHT_BEGIN
1070
    46
1040
9.0
1000
ACAD_MTEXT_DEFINED_HEIGHT_END
  0
LINE
  5
542
330
4E7
100
AcDbEntity
  8
0
  6
HIDDEN2
 48
0.5
100
AcDbLine
 10
402.4978723404242
 20
32.5
 30
0.0
 11
325.4978723404242
 21
32.5
 31
0.0
1001
AcDbBlockRepETag
1070
     1
1071
      180
1005
542
  0
POINT
  5
543
330
4E7
100
AcDbEntity
  8
0
100
AcDbPoint
 10
311.2478723404242
 20
37.0
 30
0.0
1001
AcDbBlockRepETag
1070
     1
1071
      189
1005
543
  0
POINT
  5
544
330
4E7
100
AcDbEntity
  8
0
100
AcDbPoint
 10
311.2478723404242
 20
28.0
 30
0.0
1001
AcDbBlockRepETag
1070
     1
1071
      190
1005
544
  0
LINE
  5
545
330
4E7
100
AcDbEntity
  8
0
100
AcDbLine
 10
17.5
 20
10.0
 30
0.0
 11
17.5
 21
287.0
 31
0.0
1001
AcDbBlockRepETag
1070
     1
1071
       74
1005
545
  0
ENDBLK
  5
546
330
4E7
100
AcDbEntity
  8
0
100
AcDbBlockEnd
  0
BLOCK
  5
6F0
330
6ED
100
AcDbEntity
  8
0
100
AcDbBlockBegin
  2
JIS A4 title block (landscape)
 70
     2
 10
0.0
 20
0.0
 30
0.0
  3
JIS A4 title block (landscape)
  1

  4
JIS A3 title block and attributes
  0
LINE
  5
92E
330
6ED
100
AcDbEntity
  8
0
100
AcDbLine
 10
0.0
 20
297.0
 30
0.0
 11
25.0
 21
297.0
 31
0.0
1001
AcDbBlockRepETag
1070
     1
1071
       26
1005
92E
  0
LINE
  5
92F
330
6ED
100
AcDbEntity
  8
0
100
AcDbLine
 10
0.0
 20
287.0
 30
0.0
 11
0.0
 21
297.0
 31
0.0
1001
AcDbBlockRepETag
1070
     1
1071
       27
1005
92F
  0
LINE
  5
989
330
6ED
100
AcDbEntity
  8
0
100
AcDbLine
 10
279.5
 20
97.0
 30
0.0
 11
17.5
 21
97.0
 31
0.0
1001
AcDbBlockRepETag
1070
     1
1071
        0
1005
989
  0
LINE
  5
98A
330
6ED
100
AcDbEntity
  8
0
100
AcDbLine
 10
17.5
 20
287.0
 30
0.0
 11
279.5
 21
287.0
 31
0.0
1001
AcDbBlockRepETag
1070
     1
1071
        1
1005
98A
  0
LINE
  5
98B
330
6ED
100
AcDbEntity
  8
0
100
AcDbLine
 10
17.5
 20
97.0
 30
0.0
 11
17.5
 21
287.0
 31
0.0
1001
AcDbBlockRepETag
1070
     1
1071
        2
1005
98B
  0
LINE
  5
98C
330
6ED
100
AcDbEntity
  8
0
100
AcDbLine
 10
25.0
 20
87.0
 30
0.0
 11
0.0
 21
87.0
 31
0.0
1001
AcDbBlockRepETag
1070
     1
1071
        3
1005
98C
  0
LINE
  5
98D
330
6ED
100
AcDbEntity
  8
0
100
AcDbLine
 10
0.0
 20
87.0
 30
0.0
 11
0.0
 21
97.0
 31
0.0
1001
AcDbBlockRepETag
1070
     1
1071
        4
1005
98D
  0
LINE
  5
98E
330
6ED
100
AcDbEntity
  8
0
100
AcDbLine
 10
61.16666666666668
 20
97.0
 30
0.0
 11
61.16666666666668
 21
92.0
 31
0.0
1001
AcDbBlockRepETag
1070
     1
1071
        5
1005
98E
  0
TEXT
  5
98F
330
6ED
100
AcDbEntity
  8
0
100
AcDbText
 10
38.11904761904761
 20
93.23033810098564
 30
0.0
 40
3.0
  1
1
  7
Roman
 72
     1
 11
39.33333333333332
 21
93.23033810098564
 31
0.0
100
AcDbText
1001
AcDbBlockRepETag
1070
     1
1071
        6
1005
98F
  0
ATTDEF
  5
990
330
6ED
100
AcDbEntity
  8
0
 62
     0
100
AcDbText
 10
11.5
 20
97.0
 30
0.0
 40
3.0
  1

 50
90.0
  7
Roman
100
AcDbAttributeDefinition
  3
Author:
  2
USER
 70
     8
1001
AcDbBlockRepETag
1070
     1
1071
        7
1005
0
  0
TEXT
  5
991
330
6ED
100
AcDbEntity
  8
0
100
AcDbText
 10
13.87568307432493
 20
120.75
 30
0.0
 40
3.0
  1
D
  7
Roman
 72
     1
 11
15.4471116457535
 21
120.75
 31
0.0
100
AcDbText
1001
AcDbBlockRepETag
1070
     1
1071
        8
1005
991
  0
LINE
  5
992
330
6ED
100
AcDbEntity
  8
0
100
AcDbLine
 10
17.5
 20
192.0
 30
0.0
 11
0.0
 21
192.0
 31
0.0
1001
AcDbBlockRepETag
1070
     1
1071
        9
1005
992
  0
ATTDEF
  5
993
330
6ED
100
AcDbEntity
  8
0
 62
     0
100
AcDbText
 10
11.5
 20
157.0
 30
0.0
 40
3.0
  1

 50
90.0
  7
Roman
100
AcDbAttributeDefinition
  3
Revision date:
  2
REVDATE
 70
     8
1001
AcDbBlockRepETag
1070
     1
1071
       10
1005
0
  0
LINE
  5
994
330
6ED
100
AcDbEntity
  8
0
100
AcDbLine
 10
17.5
 20
144.5
 30
0.0
 11
12.5
 21
144.5
 31
0.0
1001
AcDbBlockRepETag
1070
     1
1071
       11
1005
994
  0
TEXT
  5
995
330
6ED
100
AcDbEntity
  8
0
100
AcDbText
 10
13.9471116457535
 20
168.25
 30
0.0
 40
3.0
  1
C
  7
Roman
 72
     1
 11
15.4471116457535
 21
168.25
 31
0.0
100
AcDbText
1001
AcDbBlockRepETag
1070
     1
1071
       12
1005
995
  0
ATTDEF
  5
996
330
6ED
100
AcDbEntity
  8
0
 62
     0
100
AcDbText
 10
11.5
 20
205.0
 30
0.0
 40
3.0
  1

 50
90.0
  7
Roman
100
AcDbAttributeDefinition
  3
File name:
  2
FNAME
 70
     8
1001
AcDbBlockRepETag
1070
     1
1071
       13
1005
0
  0
LINE
  5
997
330
6ED
100
AcDbEntity
  8
0
100
AcDbLine
 10
17.5
 20
192.0
 30
0.0
 11
12.5
 21
192.0
 31
0.0
1001
AcDbBlockRepETag
1070
     1
1071
       14
1005
997
  0
TEXT
  5
998
330
6ED
100
AcDbEntity
  8
0
100
AcDbText
 10
13.87568307432493
 20
215.75
 30
0.0
 40
3.0
  1
B
  7
Roman
 72
     1
 11
15.4471116457535
 21
215.75
 31
0.0
100
AcDbText
1001
AcDbBlockRepETag
1070
     1
1071
       15
1005
998
  0
LINE
  5
999
330
6ED
100
AcDbEntity
  8
0
100
AcDbLine
 10
104.8333333333333
 20
97.0
 30
0.0
 11
104.8333333333333
 21
92.0
 31
0.0
1001
AcDbBlockRepETag
1070
     1
1071
       16
1005
999
  0
TEXT
  5
99A
330
6ED
100
AcDbEntity
  8
0
100
AcDbText
 10
81.57142857142856
 20
93.23033810098564
 30
0.0
 40
3.0
  1
2
  7
Roman
 72
     1
 11
83.0
 21
93.23033810098564
 31
0.0
100
AcDbText
1001
AcDbBlockRepETag
1070
     1
1071
       17
1005
99A
  0
TEXT
  5
99B
330
6ED
100
AcDbEntity
  8
0
100
AcDbText
 10
125.2380952380953
 20
93.23033810098564
 30
0.0
 40
3.0
  1
3
  7
Roman
 72
     1
 11
126.6666666666667
 21
93.23033810098564
 31
0.0
100
AcDbText
1001
AcDbBlockRepETag
1070
     1
1071
       18
1005
99B
  0
LINE
  5
99C
330
6ED
100
AcDbEntity
  8
0
100
AcDbLine
 10
148.5
 20
97.0
 30
0.0
 11
148.5
 21
87.0
 31
0.0
1001
AcDbBlockRepETag
1070
     1
1071
       19
1005
99C
  0
LINE
  5
99D
330
6ED
100
AcDbEntity
  8
0
100
AcDbLine
 10
148.5
 20
97.0
 30
0.0
 11
148.5
 21
92.0
 31
0.0
1001
AcDbBlockRepETag
1070
     1
1071
       20
1005
99D
  0
LINE
  5
99E
330
6ED
100
AcDbEntity
  8
0
100
AcDbLine
 10
192.1666666666667
 20
97.0
 30
0.0
 11
192.1666666666667
 21
92.0
 31
0.0
1001
AcDbBlockRepETag
1070
     1
1071
       21
1005
99E
  0
TEXT
  5
99F
330
6ED
100
AcDbEntity
  8
0
100
AcDbText
 10
168.8333333333333
 20
93.23033810098564
 30
0.0
 40
3.0
  1
4
  7
Roman
 72
     1
 11
170.3333333333333
 21
93.23033810098564
 31
0.0
100
AcDbText
1001
AcDbBlockRepETag
1070
     1
1071
       22
1005
99F
  0
LINE
  5
9A0
330
6ED
100
AcDbEntity
  8
0
100
AcDbLine
 10
17.5
 20
239.5
 30
0.0
 11
12.5
 21
239.5
 31
0.0
1001
AcDbBlockRepETag
1070
     1
1071
       25
1005
9A0
  0
TEXT
  5
9A1
330
6ED
100
AcDbEntity
  8
0
100
AcDbText
 10
14.16139736003921
 20
263.25
 30
0.0
 40
3.0
  1
A
  7
Roman
 72
     1
 11
15.4471116457535
 21
263.25
 31
0.0
100
AcDbText
1001
AcDbBlockRepETag
1070
     1
1071
       75
1005
9A1
  0
TEXT
  5
9A2
330
6ED
100
AcDbEntity
  8
0
100
AcDbText
 10
38.11904761904761
 20
288.0
 30
0.0
 40
3.0
  1
1
  7
Roman
 72
     1
 11
39.33333333333332
 21
288.0
 31
0.0
100
AcDbText
1001
AcDbBlockRepETag
1070
     1
1071
       76
1005
9A2
  0
LINE
  5
9A3
330
6ED
100
AcDbEntity
  8
0
100
AcDbLine
 10
61.16666666666666
 20
287.0
 30
0.0
 11
61.16666666666666
 21
292.0
 31
0.0
1001
AcDbBlockRepETag
1070
     1
1071
       28
1005
9A3
  0
TEXT
  5
9A4
330
6ED
100
AcDbEntity
  8
0
100
AcDbText
 10
81.57142857142856
 20
288.0
 30
0.0
 40
3.0
  1
2
  7
Roman
 72
     1
 11
83.0
 21
288.0
 31
0.0
100
AcDbText
1001
AcDbBlockRepETag
1070
     1
1071
       29
1005
9A4
  0
LINE
  5
9A5
330
6ED
100
AcDbEntity
  8
0
100
AcDbLine
 10
104.8333333333333
 20
287.0
 30
0.0
 11
104.8333333333333
 21
292.0
 31
0.0
1001
AcDbBlockRepETag
1070
     1
1071
       30
1005
9A5
  0
TEXT
  5
9A6
330
6ED
100
AcDbEntity
  8
0
100
AcDbText
 10
125.2380952380953
 20
288.0
 30
0.0
 40
3.0
  1
3
  7
Roman
 72
     1
 11
126.6666666666667
 21
288.0
 31
0.0
100
AcDbText
1001
AcDbBlockRepETag
1070
     1
1071
       31
1005
9A6
  0
TEXT
  5
9A7
330
6ED
100
AcDbEntity
  8
0
100
AcDbText
 10
168.8333333333333
 20
288.0
 30
0.0
 40
3.0
  1
4
  7
Roman
 72
     1
 11
170.3333333333333
 21
288.0
 31
0.0
100
AcDbText
1001
AcDbBlockRepETag
1070
     1
1071
       32
1005
9A7
  0
LINE
  5
9A8
330
6ED
100
AcDbEntity
  8
0
100
AcDbLine
 10
148.5
 20
287.0
 30
0.0
 11
148.5
 21
297.0
 31
0.0
1001
AcDbBlockRepETag
1070
     1
1071
       33
1005
9A8
  0
LINE
  5
9A9
330
6ED
100
AcDbEntity
  8
0
100
AcDbLine
 10
148.5
 20
287.0
 30
0.0
 11
148.5
 21
292.0
 31
0.0
1001
AcDbBlockRepETag
1070
     1
1071
       34
1005
9A9
  0
LINE
  5
9AA
330
6ED
100
AcDbEntity
  8
0
100
AcDbLine
 10
192.1666666666666
 20
287.0
 30
0.0
 11
192.1666666666666
 21
292.0
 31
0.0
1001
AcDbBlockRepETag
1070
     1
1071
       35
1005
9AA
  0
LINE
  5
9AB
330
6ED
100
AcDbEntity
  8
0
100
AcDbLine
 10
279.5
 20
287.0
 30
0.0
 11
279.5
 21
97.0
 31
0.0
1001
AcDbBlockRepETag
1070
     1
1071
       36
1005
9AB
  0
LINE
  5
9AC
330
6ED
100
AcDbEntity
  8
0
100
AcDbLine
 10
235.8333333333334
 20
97.0
 30
0.0
 11
235.8333333333334
 21
92.0
 31
0.0
1001
AcDbBlockRepETag
1070
     1
1071
       37
1005
9AC
  0
TEXT
  5
9AD
330
6ED
100
AcDbEntity
  8
0
100
AcDbText
 10
212.5714285714286
 20
93.23033810098564
 30
0.0
 40
3.0
  1
5
  7
Roman
 72
     1
 11
214.0
 21
93.23033810098564
 31
0.0
100
AcDbText
1001
AcDbBlockRepETag
1070
     1
1071
       38
1005
9AD
  0
TEXT
  5
9AE
330
6ED
100
AcDbEntity
  8
0
100
AcDbText
 10
256.1666666666667
 20
93.23033810098564
 30
0.0
 40
3.0
  1
6
  7
Roman
 72
     1
 11
257.6666666666667
 21
93.23033810098564
 31
0.0
100
AcDbText
1001
AcDbBlockRepETag
1070
     1
1071
       39
1005
9AE
  0
LINE
  5
9AF
330
6ED
100
AcDbEntity
  8
0
100
AcDbLine
 10
297.0
 20
97.0
 30
0.0
 11
297.0
 21
87.0
 31
0.0
1001
AcDbBlockRepETag
1070
     1
1071
       40
1005
9AF
  0
LINE
  5
9B0
330
6ED
100
AcDbEntity
  8
0
100
AcDbLine
 10
297.0
 20
87.0
 30
0.0
 11
287.0
 21
87.0
 31
0.0
1001
AcDbBlockRepETag
1070
     1
1071
       41
1005
9B0
  0
TEXT
  5
9B1
330
6ED
100
AcDbEntity
  8
0
100
AcDbText
 10
280.1673438822666
 20
120.75
 30
0.0
 40
3.0
  1
D
  7
Roman
 72
     1
 11
281.7387724536952
 21
120.75
 31
0.0
100
AcDbText
1001
AcDbBlockRepETag
1070
     1
1071
       42
1005
9B1
  0
LINE
  5
9B2
330
6ED
100
AcDbEntity
  8
0
100
AcDbLine
 10
279.5
 20
144.5
 30
0.0
 11
284.5
 21
144.5
 31
0.0
1001
AcDbBlockRepETag
1070
     1
1071
       43
1005
9B2
  0
TEXT
  5
9B3
330
6ED
100
AcDbEntity
  8
0
100
AcDbText
 10
280.2387724536952
 20
168.25
 30
0.0
 40
3.0
  1
C
  7
Roman
 72
     1
 11
281.7387724536952
 21
168.25
 31
0.0
100
AcDbText
1001
AcDbBlockRepETag
1070
     1
1071
       44
1005
9B3
  0
LINE
  5
9B4
330
6ED
100
AcDbEntity
  8
0
100
AcDbLine
 10
279.5
 20
192.0
 30
0.0
 11
297.0
 21
192.0
 31
0.0
1001
AcDbBlockRepETag
1070
     1
1071
       45
1005
9B4
  0
LINE
  5
9B5
330
6ED
100
AcDbEntity
  8
0
100
AcDbLine
 10
279.5
 20
192.0
 30
0.0
 11
284.5
 21
192.0
 31
0.0
1001
AcDbBlockRepETag
1070
     1
1071
       46
1005
9B5
  0
TEXT
  5
9B6
330
6ED
100
AcDbEntity
  8
0
100
AcDbText
 10
280.1673438822666
 20
215.75
 30
0.0
 40
3.0
  1
B
  7
Roman
 72
     1
 11
281.7387724536952
 21
215.75
 31
0.0
100
AcDbText
1001
AcDbBlockRepETag
1070
     1
1071
       47
1005
9B6
  0
TEXT
  5
9B7
330
6ED
100
AcDbEntity
  8
0
100
AcDbText
 10
212.5714285714286
 20
288.0
 30
0.0
 40
3.0
  1
5
  7
Roman
 72
     1
 11
214.0
 21
288.0
 31
0.0
100
AcDbText
1001
AcDbBlockRepETag
1070
     1
1071
       48
1005
9B7
  0
LINE
  5
9B8
330
6ED
100
AcDbEntity
  8
0
100
AcDbLine
 10
235.8333333333333
 20
287.0
 30
0.0
 11
235.8333333333333
 21
292.0
 31
0.0
1001
AcDbBlockRepETag
1070
     1
1071
       49
1005
9B8
  0
TEXT
  5
9B9
330
6ED
100
AcDbEntity
  8
0
100
AcDbText
 10
256.1666666666667
 20
288.0
 30
0.0
 40
3.0
  1
6
  7
Roman
 72
     1
 11
257.6666666666667
 21
288.0
 31
0.0
100
AcDbText
1001
AcDbBlockRepETag
1070
     1
1071
       50
1005
9B9
  0
LINE
  5
9BA
330
6ED
100
AcDbEntity
  8
0
100
AcDbLine
 10
279.5
 20
239.5
 30
0.0
 11
284.5
 21
239.5
 31
0.0
1001
AcDbBlockRepETag
1070
     1
1071
       51
1005
9BA
  0
TEXT
  5
9BB
330
6ED
100
AcDbEntity
  8
0
100
AcDbText
 10
280.4530581679809
 20
263.25
 30
0.0
 40
3.0
  1
A
  7
Roman
 72
     1
 11
281.7387724536952
 21
263.25
 31
0.0
100
AcDbText
1001
AcDbBlockRepETag
1070
     1
1071
       52
1005
9BB
  0
LINE
  5
9BC
330
6ED
100
AcDbEntity
  8
0
100
AcDbLine
 10
287.0
 20
297.0
 30
0.0
 11
297.0
 21
297.0
 31
0.0
1001
AcDbBlockRepETag
1070
     1
1071
       53
1005
9BC
  0
LINE
  5
9BD
330
6ED
100
AcDbEntity
  8
0
100
AcDbLine
 10
297.0
 20
297.0
 30
0.0
 11
297.0
 21
287.0
 31
0.0
1001
AcDbBlockRepETag
1070
     1
1071
       54
1005
9BD
  0
LINE
  5
9BE
330
6ED
100
AcDbEntity
  8
0
100
AcDbLine
 10
163.4978723404242
 20
97.0
 30
0.0
 11
163.4978723404242
 21
97.0
 31
0.0
1001
AcDbBlockRepETag
1070
     1
1071
      161
1005
9BE
  0
LINE
  5
9BF
330
6ED
100
AcDbEntity
  8
0
100
AcDbLine
 10
162.4978723404242
 20
97.0
 30
0.0
 11
162.4978723404242
 21
133.0
 31
0.0
1001
AcDbBlockRepETag
1070
     1
1071
      162
1005
9BF
  0
LINE
  5
9C0
330
6ED
100
AcDbEntity
  8
0
100
AcDbLine
 10
279.4978723404242
 20
106.0
 30
0.0
 11
162.4978723404242
 21
106.0
 31
0.0
1001
AcDbBlockRepETag
1070
     1
1071
      166
1005
9C0
  0
LINE
  5
9C1
330
6ED
100
AcDbEntity
  8
0
100
AcDbLine
 10
213.4978723404242
 20
97.0
 30
0.0
 11
213.4978723404242
 21
106.0
 31
0.0
1001
AcDbBlockRepETag
1070
     1
1071
      167
1005
9C1
  0
LINE
  5
9C2
330
6ED
100
AcDbEntity
  8
0
100
AcDbLine
 10
202.4978723404242
 20
115.0
 30
0.0
 11
162.4978723404242
 21
115.0
 31
0.0
1001
AcDbBlockRepETag
1070
     1
1071
      168
1005
9C2
  0
LINE
  5
9C3
330
6ED
100
AcDbEntity
  8
0
100
AcDbLine
 10
279.4978723404242
 20
124.0
 30
0.0
 11
162.4978723404242
 21
124.0
 31
0.0
1001
AcDbBlockRepETag
1070
     1
1071
      169
1005
9C3
  0
LINE
  5
9C4
330
6ED
100
AcDbEntity
  8
0
100
AcDbLine
 10
279.4978723404242
 20
133.0
 30
0.0
 11
162.4978723404242
 21
133.0
 31
0.0
1001
AcDbBlockRepETag
1070
     1
1071
      170
1005
9C4
  0
MTEXT
  5
9C5
330
6ED
100
AcDbEntity
  8
0
100
AcDbMText
 10
187.997872340424
 20
101.5
 30
0.0
 40
4.0
 41
51.0
 71
     5
 72
     5
  1
富国石油株式会社
 73
     1
 44
1.0
1001
AcDbBlockRepETag
1070
     1
1071
      171
1005
9C5
1001
ACAD
1000
MTEXTBEGIN
1070
    73
1070
     1
1070
    44
1040
1.0
1070
    74
1070
     0
1000
MTEXTEND
  0
MTEXT
  5
9C6
102
{ACAD_XDICTIONARY
360
6865
102
}
330
6ED
100
AcDbEntity
  8
0
100
AcDbMText
 10
165.4779634407957
 20
110.5
 30
0.0
 40
2.0
 41
3.96018220074299
 71
     5
 72
     5
  1
検\P図
 73
     1
 44
1.0
1001
AcDbBlockRepETag
1070
     1
1071
      172
1005
9C6
1001
ACAD
1000
MTEXTBEGIN
1070
    73
1070
     1
1070
    44
1040
1.0
1070
    74
1070
     0
1000
MTEXTEND
1000
ACAD_MTEXT_DEFINED_HEIGHT_BEGIN
1070
    46
1040
9.0
1000
ACAD_MTEXT_DEFINED_HEIGHT_END
  0
MTEXT
  5
9C7
330
6ED
100
AcDbEntity
  8
0
100
AcDbMText
 10
165.4779634407957
 20
119.5
 30
0.0
 40
2.0
 41
3.96018220074299
 71
     5
 72
     5
  1
確\P認
 73
     1
 44
1.0
1001
AcDbBlockRepETag
1070
     1
1071
      173
1005
9C7
1001
ACAD
1000
MTEXTBEGIN
1070
    73
1070
     1
1070
    44
1040
1.0
1070
    74
1070
     0
1000
MTEXTEND
1000
ACAD_MTEXT_DEFINED_HEIGHT_BEGIN
1070
    46
1040
9.0
1000
ACAD_MTEXT_DEFINED_HEIGHT_END
  0
MTEXT
  5
9C8
330
6ED
100
AcDbEntity
  8
0
100
AcDbMText
 10
165.4779634407957
 20
128.5
 30
0.0
 40
2.0
 41
3.96018220074299
 71
     5
 72
     5
  1
縮\P尺
 73
     1
 44
1.0
1001
AcDbBlockRepETag
1070
     1
1071
      174
1005
9C8
1001
ACAD
1000
MTEXTBEGIN
1070
    73
1070
     1
1070
    44
1040
1.0
1070
    74
1070
     0
1000
MTEXTEND
1000
ACAD_MTEXT_DEFINED_HEIGHT_BEGIN
1070
    46
1040
9.0
1000
ACAD_MTEXT_DEFINED_HEIGHT_END
  0
LINE
  5
9C9
330
6ED
100
AcDbEntity
  8
0
100
AcDbLine
 10
182.4978723404242
 20
106.0
 30
0.0
 11
182.4978723404242
 21
133.0
 31
0.0
1001
AcDbBlockRepETag
1070
     1
1071
      175
1005
9C9
  0
LINE
  5
9CA
330
6ED
100
AcDbEntity
  8
0
100
AcDbLine
 10
202.4978723404242
 20
106.0
 30
0.0
 11
202.4978723404242
 21
133.0
 31
0.0
1001
AcDbBlockRepETag
1070
     1
1071
      176
1005
9CA
  0
LINE
  5
9CB
330
6ED
100
AcDbEntity
  8
0
100
AcDbLine
 10
234.4978723404242
 20
124.0
 30
0.0
 11
234.4978723404242
 21
133.0
 31
0.0
1001
AcDbBlockRepETag
1070
     1
1071
      194
1005
9CB
  0
MTEXT
  5
9CC
330
6ED
100
AcDbEntity
  8
0
100
AcDbMText
 10
185.4779634407956
 20
119.5
 30
0.0
 40
2.0
 41
3.96018220074299
 71
     5
 72
     5
  1
設\P計
 73
     1
 44
1.0
1001
AcDbBlockRepETag
1070
     1
1071
      177
1005
9CC
1001
ACAD
1000
MTEXTBEGIN
1070
    73
1070
     1
1070
    44
1040
1.0
1070
    74
1070
     0
1000
MTEXTEND
1000
ACAD_MTEXT_DEFINED_HEIGHT_BEGIN
1070
    46
1040
9.0
1000
ACAD_MTEXT_DEFINED_HEIGHT_END
  0
MTEXT
  5
9CD
330
6ED
100
AcDbEntity
  8
0
100
AcDbMText
 10
185.4779634407956
 20
110.5
 30
0.0
 40
2.0
 41
3.96018220074299
 71
     5
 72
     5
  1
製\P図
 73
     1
 44
1.0
1001
AcDbBlockRepETag
1070
     1
1071
      178
1005
9CD
1001
ACAD
1000
MTEXTBEGIN
1070
    73
1070
     1
1070
    44
1040
1.0
1070
    74
1070
     0
1000
MTEXTEND
1000
ACAD_MTEXT_DEFINED_HEIGHT_BEGIN
1070
    46
1040
9.0
1000
ACAD_MTEXT_DEFINED_HEIGHT_END
  0
MTEXT
  5
9CE
330
6ED
100
AcDbEntity
  8
0
100
AcDbMText
 10
205.4779634407957
 20
128.5
 30
0.0
 40
2.0
 41
3.96018220074299
 71
     5
 72
     5
  1
材\P料
 73
     1
 44
1.0
1001
AcDbBlockRepETag
1070
     1
1071
      179
1005
9CE
1001
ACAD
1000
MTEXTBEGIN
1070
    73
1070
     1
1070
    44
1040
1.0
1070
    74
1070
     0
1000
MTEXTEND
1000
ACAD_MTEXT_DEFINED_HEIGHT_BEGIN
1070
    46
1040
9.0
1000
ACAD_MTEXT_DEFINED_HEIGHT_END
  0
LINE
  5
9CF
330
6ED
100
AcDbEntity
  8
0
  6
HIDDEN2
 48
0.5
100
AcDbLine
 10
279.4978723404242
 20
119.5
 30
0.0
 11
202.4978723404242
 21
119.5
 31
0.0
1001
AcDbBlockRepETag
1070
     1
1071
      180
1005
9CF
  0
POINT
  5
9D0
330
6ED
100
AcDbEntity
  8
0
100
AcDbPoint
 10
188.2478723404242
 20
124.0
 30
0.0
1001
AcDbBlockRepETag
1070
     1
1071
      189
1005
9D0
  0
POINT
  5
9D1
330
6ED
100
AcDbEntity
  8
0
100
AcDbPoint
 10
188.2478723404242
 20
115.0
 30
0.0
1001
AcDbBlockRepETag
1070
     1
1071
      190
1005
9D1
  0
ENDBLK
  5
74C
330
6ED
100
AcDbEntity
  8
0
100
AcDbBlockEnd
  0
BLOCK
  5
FEE
330
FED
100
AcDbEntity
  8
0
100
AcDbBlockBegin
  2
*D6
 70
     1
 10
0.0
 20
0.0
 30
0.0
  3
*D6
  1

  0
LINE
  5
FEF
330
FED
100
AcDbEntity
  8
Object
 62
     0
370
    -2
100
AcDbLine
 10
-236.0678237260986
 20
1501.259191341884
 30
0.0
 11
-236.0678237260986
 21
1603.101199955093
 31
0.0
  0
LINE
  5
FF0
330
FED
100
AcDbEntity
  8
Object
 62
     0
370
    -2
100
AcDbLine
 10
-137.0552872530715
 20
1501.259191341884
 30
0.0
 11
-137.0552872530715
 21
1603.101199955093
 31
0.0
  0
LINE
  5
FF1
330
FED
100
AcDbEntity
  8
Object
 62
     0
370
    -2
100
AcDbLine
 10
-232.0678237260986
 20
1602.101199955091
 30
0.0
 11
-141.0552872530715
 21
1602.101199955091
 31
0.0
  0
INSERT
  5
FF2
330
FED
100
AcDbEntity
  8
Object
 62
     0
370
    -2
100
AcDbBlockReference
  2
_Open30
 10
-236.0678237260986
 20
1602.101199955091
 30
0.0
 41
4.0
 42
4.0
 43
4.0
 50
180.0
  0
INSERT
  5
FF3
330
FED
100
AcDbEntity
  8
Object
 62
     0
370
    -2
100
AcDbBlockReference
  2
_Open30
 10
-137.0552872530715
 20
1602.101199955091
 30
0.0
 41
4.0
 42
4.0
 43
4.0
  0
MTEXT
  5
FF4
330
FED
100
AcDbEntity
  8
Object
 62
     0
100
AcDbMText
 10
-186.561555489585
 20
1608.459154500547
 30
0.0
 40
7.5
 41
0.0
 71
     5
 72
     1
  1
\A1;{\fＭＳ Ｐゴシック|b0|i0|c128|p50;外径（ｄ）}
 73
     1
 44
1.0
1001
ACAD
1000
MTEXTBEGIN
1070
    73
1070
     1
1070
    44
1040
1.0
1070
    74
1070
     0
1000
MTEXTEND
  0
POINT
  5
FF5
330
FED
100
AcDbEntity
  8
Defpoints
 62
     0
100
AcDbPoint
 10
-236.0678237260986
 20
1500.259191341885
 30
0.0
  0
POINT
  5
FF6
330
FED
100
AcDbEntity
  8
Defpoints
 62
     0
100
AcDbPoint
 10
-137.0552872530715
 20
1500.259191341885
 30
0.0
  0
POINT
  5
FF7
330
FED
100
AcDbEntity
  8
Defpoints
 62
     0
100
AcDbPoint
 10
-137.0552872530715
 20
1602.101199955091
 30
0.0
  0
ENDBLK
  5
FF8
330
FED
100
AcDbEntity
  8
0
100
AcDbBlockEnd
  0
BLOCK
  5
FFA
330
FF9
100
AcDbEntity
  8
0
100
AcDbBlockBegin
  2
*D7
 70
     1
 10
0.0
 20
0.0
 30
0.0
  3
*D7
  1

  0
LINE
  5
FFB
330
FF9
100
AcDbEntity
  8
Object
 62
     0
370
    -2
100
AcDbLine
 10
-176.4365554895849
 20
1493.101199955092
 30
0.0
 11
-176.4365554895849
 21
1573.101199955092
 31
0.0
  0
LINE
  5
FFC
330
FF9
100
AcDbEntity
  8
Object
 62
     0
370
    -2
100
AcDbLine
 10
-137.0552872530715
 20
1501.259191341884
 30
0.0
 11
-137.0552872530715
 21
1573.101199955092
 31
0.0
  0
LINE
  5
FFD
330
FF9
100
AcDbEntity
  8
Object
 62
     0
370
    -2
100
AcDbLine
 10
-172.4365554895849
 20
1572.101199955092
 30
0.0
 11
-141.0552872530715
 21
1572.101199955092
 31
0.0
  0
INSERT
  5
FFE
330
FF9
100
AcDbEntity
  8
Object
 62
     0
370
    -2
100
AcDbBlockReference
  2
_Open30
 10
-176.4365554895849
 20
1572.101199955092
 30
0.0
 41
4.0
 42
4.0
 43
4.0
 50
180.0
  0
INSERT
  5
FFF
330
FF9
100
AcDbEntity
  8
Object
 62
     0
370
    -2
100
AcDbBlockReference
  2
_Open30
 10
-137.0552872530715
 20
1572.101199955092
 30
0.0
 41
4.0
 42
4.0
 43
4.0
  0
MTEXT
  5
1000
330
FF9
100
AcDbEntity
  8
Object
 62
     0
100
AcDbMText
 10
-156.7459213713282
 20
1584.900915864183
 30
0.0
 40
7.5
 41
0.0
 71
     5
 72
     1
  1
\A1;\P{\fＭＳ Ｐゴシック|b0|i0|c128|p50;カブリ}
 73
     1
 44
1.0
1001
ACAD
1000
MTEXTBEGIN
1070
    73
1070
     1
1070
    44
1040
1.0
1070
    74
1070
     0
1000
MTEXTEND
  0
POINT
  5
1001
330
FF9
100
AcDbEntity
  8
Defpoints
 62
     0
100
AcDbPoint
 10
-176.4365554895849
 20
1492.101199955092
 30
0.0
  0
POINT
  5
1002
330
FF9
100
AcDbEntity
  8
Defpoints
 62
     0
100
AcDbPoint
 10
-137.0552872530715
 20
1500.259191341885
 30
0.0
  0
POINT
  5
1003
330
FF9
100
AcDbEntity
  8
Defpoints
 62
     0
100
AcDbPoint
 10
-137.0552872530715
 20
1572.101199955092
 30
0.0
  0
ENDBLK
  5
1004
330
FF9
100
AcDbEntity
  8
0
100
AcDbBlockEnd
  0
BLOCK
  5
1006
330
1005
100
AcDbEntity
  8
0
100
AcDbBlockBegin
  2
*D8
 70
     1
 10
0.0
 20
0.0
 30
0.0
  3
*D8
  1

  0
LINE
  5
1007
330
1005
100
AcDbEntity
  8
Object
 62
     0
370
    -2
100
AcDbLine
 10
-76.56155548958494
 20
1510.516199955092
 30
0.0
 11
-76.56155548958494
 21
1603.101199955093
 31
0.0
  0
LINE
  5
1008
330
1005
100
AcDbEntity
  8
Object
 62
     0
370
    -2
100
AcDbLine
 10
-47.40155548958513
 20
1510.516199955092
 30
0.0
 11
-47.40155548958511
 21
1603.101199955093
 31
0.0
  0
LINE
  5
1009
330
1005
100
AcDbEntity
  8
Object
 62
     0
370
    -2
100
AcDbLine
 10
-51.40155548958514
 20
1602.101199955091
 30
0.0
 11
-72.56155548958495
 21
1602.101199955091
 31
0.0
  0
LINE
  5
100A
330
1005
100
AcDbEntity
  8
Object
 62
     0
370
    -2
100
AcDbLine
 10
-76.56155548958494
 20
1602.101199955091
 30
0.0
 11
-125.1529096004707
 21
1602.101199955091
 31
0.0
  0
INSERT
  5
100B
330
1005
100
AcDbEntity
  8
Object
 62
     0
370
    -2
100
AcDbBlockReference
  2
_Open30
 10
-47.40155548958511
 20
1602.101199955091
 30
0.0
 41
4.0
 42
4.0
 43
4.0
  0
INSERT
  5
100C
330
1005
100
AcDbEntity
  8
Object
 62
     0
370
    -2
100
AcDbBlockReference
  2
_Open30
 10
-76.56155548958494
 20
1602.101199955091
 30
0.0
 41
4.0
 42
4.0
 43
4.0
 50
180.0
  0
MTEXT
  5
100D
330
1005
100
AcDbEntity
  8
Object
 62
     0
100
AcDbMText
 10
-106.6926823277435
 20
1608.395234046001
 30
0.0
 40
7.5
 41
0.0
 71
     5
 72
     1
  1
\A1;{\fＭＳ Ｐゴシック|b0|i0|c128|p50;厚さ（ａ）}
 73
     1
 44
1.0
1001
ACAD
1000
MTEXTBEGIN
1070
    73
1070
     1
1070
    44
1040
1.0
1070
    74
1070
     0
1000
MTEXTEND
  0
POINT
  5
100E
330
1005
100
AcDbEntity
  8
Defpoints
 62
     0
100
AcDbPoint
 10
-76.56155548958494
 20
1509.516199955092
 30
0.0
  0
POINT
  5
100F
330
1005
100
AcDbEntity
  8
Defpoints
 62
     0
100
AcDbPoint
 10
-47.40155548958513
 20
1509.516199955092
 30
0.0
  0
POINT
  5
1010
330
1005
100
AcDbEntity
  8
Defpoints
 62
     0
100
AcDbPoint
 10
-47.40155548958511
 20
1602.101199955091
 30
0.0
  0
ENDBLK
  5
1011
330
1005
100
AcDbEntity
  8
0
100
AcDbBlockEnd
  0
BLOCK
  5
1013
330
1012
100
AcDbEntity
  8
0
100
AcDbBlockBegin
  2
*D9
 70
     1
 10
0.0
 20
0.0
 30
0.0
  3
*D9
  1

  0
LINE
  5
1014
330
1012
100
AcDbEntity
  8
Object
 62
     0
370
    -2
100
AcDbLine
 10
-70.08155548958486
 20
1543.321199955092
 30
0.0
 11
-70.08155548958486
 21
1573.101199955092
 31
0.0
  0
LINE
  5
1015
330
1012
100
AcDbEntity
  8
Object
 62
     0
370
    -2
100
AcDbLine
 10
-53.88155548958494
 20
1543.321199955092
 30
0.0
 11
-53.88155548958494
 21
1573.101199955092
 31
0.0
  0
LINE
  5
1016
330
1012
100
AcDbEntity
  8
Object
 62
     0
370
    -2
100
AcDbLine
 10
-57.88155548958496
 20
1572.101199955092
 30
0.0
 11
-66.08155548958485
 21
1572.101199955092
 31
0.0
  0
LINE
  5
1017
330
1012
100
AcDbEntity
  8
Object
 62
     0
370
    -2
100
AcDbLine
 10
-70.08155548958486
 20
1572.101199955092
 30
0.0
 11
-124.9517914543667
 21
1572.101199955092
 31
0.0
  0
INSERT
  5
1018
330
1012
100
AcDbEntity
  8
Object
 62
     0
370
    -2
100
AcDbBlockReference
  2
_Open30
 10
-53.88155548958494
 20
1572.101199955092
 30
0.0
 41
4.0
 42
4.0
 43
4.0
  0
INSERT
  5
1019
330
1012
100
AcDbEntity
  8
Object
 62
     0
370
    -2
100
AcDbBlockReference
  2
_Open30
 10
-70.08155548958486
 20
1572.101199955092
 30
0.0
 41
4.0
 42
4.0
 43
4.0
 50
180.0
  0
MTEXT
  5
101A
330
1012
100
AcDbEntity
  8
Object
 62
     0
100
AcDbMText
 10
-106.3424164543667
 20
1578.395234046001
 30
0.0
 40
7.5
 41
0.0
 71
     5
 72
     1
  1
\A1;{\fＭＳ Ｐゴシック|b0|i0|c128|p50;厚さ（ｂ）}
 73
     1
 44
1.0
1001
ACAD
1000
MTEXTBEGIN
1070
    73
1070
     1
1070
    44
1040
1.0
1070
    74
1070
     0
1000
MTEXTEND
  0
POINT
  5
101B
330
1012
100
AcDbEntity
  8
Defpoints
 62
     0
100
AcDbPoint
 10
-70.08155548958486
 20
1542.321199955092
 30
0.0
  0
POINT
  5
101C
330
1012
100
AcDbEntity
  8
Defpoints
 62
     0
100
AcDbPoint
 10
-53.88155548958494
 20
1542.321199955092
 30
0.0
  0
POINT
  5
101D
330
1012
100
AcDbEntity
  8
Defpoints
 62
     0
100
AcDbPoint
 10
-53.88155548958494
 20
1572.101199955092
 30
0.0
  0
ENDBLK
  5
101E
330
1012
100
AcDbEntity
  8
0
100
AcDbBlockEnd
  0
BLOCK
  5
1020
330
101F
100
AcDbEntity
  8
0
100
AcDbBlockBegin
  2
*D10
 70
     1
 10
0.0
 20
0.0
 30
0.0
  3
*D10
  1

  0
LINE
  5
1021
330
101F
100
AcDbEntity
  8
Object
 62
     0
370
    -2
100
AcDbLine
 10
223.5864445104151
 20
1493.101199955092
 30
0.0
 11
223.5864445104151
 21
1603.101199955092
 31
0.0
  0
LINE
  5
1022
330
101F
100
AcDbEntity
  8
Object
 62
     0
370
    -2
100
AcDbLine
 10
323.2904445104152
 20
1493.101199955092
 30
0.0
 11
323.2904445104152
 21
1603.101199955092
 31
0.0
  0
LINE
  5
1023
330
101F
100
AcDbEntity
  8
Object
 62
     0
370
    -2
100
AcDbLine
 10
227.5864445104151
 20
1602.101199955091
 30
0.0
 11
319.2904445104152
 21
1602.101199955091
 31
0.0
  0
INSERT
  5
1024
330
101F
100
AcDbEntity
  8
Object
 62
     0
370
    -2
100
AcDbBlockReference
  2
_Open30
 10
223.5864445104151
 20
1602.101199955091
 30
0.0
 41
4.0
 42
4.0
 43
4.0
 50
180.0
  0
INSERT
  5
1025
330
101F
100
AcDbEntity
  8
Object
 62
     0
370
    -2
100
AcDbBlockReference
  2
_Open30
 10
323.2904445104152
 20
1602.101199955091
 30
0.0
 41
4.0
 42
4.0
 43
4.0
  0
MTEXT
  5
1026
330
101F
100
AcDbEntity
  8
Object
 62
     0
100
AcDbMText
 10
273.4384445104151
 20
1608.459154500547
 30
0.0
 40
7.5
 41
0.0
 71
     5
 72
     1
  1
\A1;{\fＭＳ Ｐゴシック|b0|i0|c128|p50;外径（ｄ）}
 73
     1
 44
1.0
1001
ACAD
1000
MTEXTBEGIN
1070
    73
1070
     1
1070
    44
1040
1.0
1070
    74
1070
     0
1000
MTEXTEND
  0
POINT
  5
1027
330
101F
100
AcDbEntity
  8
Defpoints
 62
     0
100
AcDbPoint
 10
223.5864445104151
 20
1492.101199955092
 30
0.0
  0
POINT
  5
1028
330
101F
100
AcDbEntity
  8
Defpoints
 62
     0
100
AcDbPoint
 10
323.2904445104152
 20
1492.101199955092
 30
0.0
  0
POINT
  5
1029
330
101F
100
AcDbEntity
  8
Defpoints
 62
     0
100
AcDbPoint
 10
323.2904445104152
 20
1602.101199955091
 30
0.0
  0
ENDBLK
  5
102A
330
101F
100
AcDbEntity
  8
0
100
AcDbBlockEnd
  0
BLOCK
  5
102C
330
102B
100
AcDbEntity
  8
0
100
AcDbBlockBegin
  2
*D11
 70
     1
 10
0.0
 20
0.0
 30
0.0
  3
*D11
  1

  0
LINE
  5
102D
330
102B
100
AcDbEntity
  8
Object
 62
     0
370
    -2
100
AcDbLine
 10
383.4384445104151
 20
1542.953199955092
 30
0.0
 11
383.4384445104151
 21
1602.809844561993
 31
0.0
  0
LINE
  5
102E
330
102B
100
AcDbEntity
  8
Object
 62
     0
370
    -2
100
AcDbLine
 10
414.3384445104151
 20
1542.953199955092
 30
0.0
 11
414.3384445104151
 21
1602.809844561993
 31
0.0
  0
LINE
  5
102F
330
102B
100
AcDbEntity
  8
Object
 62
     0
370
    -2
100
AcDbLine
 10
410.3384445104151
 20
1601.809844561993
 30
0.0
 11
387.4384445104151
 21
1601.809844561993
 31
0.0
  0
LINE
  5
1030
330
102B
100
AcDbEntity
  8
Object
 62
     0
370
    -2
100
AcDbLine
 10
383.4384445104151
 20
1601.809844561993
 30
0.0
 11
342.5179899649605
 21
1601.809844561993
 31
0.0
  0
INSERT
  5
1031
330
102B
100
AcDbEntity
  8
Object
 62
     0
370
    -2
100
AcDbBlockReference
  2
_Open30
 10
414.3384445104151
 20
1601.809844561993
 30
0.0
 41
4.0
 42
4.0
 43
4.0
  0
INSERT
  5
1032
330
102B
100
AcDbEntity
  8
Object
 62
     0
370
    -2
100
AcDbBlockReference
  2
_Open30
 10
383.4384445104151
 20
1601.809844561993
 30
0.0
 41
4.0
 42
4.0
 43
4.0
 50
180.0
  0
MTEXT
  5
1033
330
102B
100
AcDbEntity
  8
Object
 62
     0
100
AcDbMText
 10
360.9782172376878
 20
1608.103878652902
 30
0.0
 40
7.5
 41
0.0
 71
     5
 72
     1
  1
\A1;{\fＭＳ Ｐゴシック|b0|i0|c128|p50;厚さ（ａ）}
 73
     1
 44
1.0
1001
ACAD
1000
MTEXTBEGIN
1070
    73
1070
     1
1070
    44
1040
1.0
1070
    74
1070
     0
1000
MTEXTEND
  0
POINT
  5
1034
330
102B
100
AcDbEntity
  8
Defpoints
 62
     0
100
AcDbPoint
 10
383.4384445104151
 20
1541.953199955092
 30
0.0
  0
POINT
  5
1035
330
102B
100
AcDbEntity
  8
Defpoints
 62
     0
100
AcDbPoint
 10
414.3384445104151
 20
1541.953199955092
 30
0.0
  0
POINT
  5
1036
330
102B
100
AcDbEntity
  8
Defpoints
 62
     0
100
AcDbPoint
 10
414.3384445104151
 20
1601.809844561993
 30
0.0
  0
ENDBLK
  5
1037
330
102B
100
AcDbEntity
  8
0
100
AcDbBlockEnd
  0
BLOCK
  5
1039
330
1038
100
AcDbEntity
  8
0
100
AcDbBlockBegin
  2
*D12
 70
     1
 10
0.0
 20
0.0
 30
0.0
  3
*D12
  1

  0
LINE
  5
103A
330
1038
100
AcDbEntity
  8
Object
 62
     0
370
    -2
100
AcDbLine
 10
290.9484445104153
 20
1493.101199955092
 30
0.0
 11
290.9484445104153
 21
1553.616610022545
 31
0.0
  0
LINE
  5
103B
330
1038
100
AcDbEntity
  8
Object
 62
     0
370
    -2
100
AcDbLine
 10
323.2904445104153
 20
1493.101199955092
 30
0.0
 11
323.2904445104153
 21
1553.616610022545
 31
0.0
  0
LINE
  5
103C
330
1038
100
AcDbEntity
  8
Object
 62
     0
370
    -2
100
AcDbLine
 10
294.9484445104154
 20
1552.616610022545
 30
0.0
 11
319.2904445104153
 21
1552.616610022545
 31
0.0
  0
INSERT
  5
103D
330
1038
100
AcDbEntity
  8
Object
 62
     0
370
    -2
100
AcDbBlockReference
  2
_Open30
 10
290.9484445104153
 20
1552.616610022545
 30
0.0
 41
4.0
 42
4.0
 43
4.0
 50
180.0
  0
INSERT
  5
103E
330
1038
100
AcDbEntity
  8
Object
 62
     0
370
    -2
100
AcDbBlockReference
  2
_Open30
 10
323.2904445104153
 20
1552.616610022545
 30
0.0
 41
4.0
 42
4.0
 43
4.0
  0
MTEXT
  5
103F
330
1038
100
AcDbEntity
  8
Object
 62
     0
100
AcDbMText
 10
307.1194445104153
 20
1559.166325931636
 30
0.0
 40
7.5
 41
0.0
 71
     5
 72
     1
  1
\A1;{\fＭＳ Ｐゴシック|b0|i0|c128|p50;カブリ}
 73
     1
 44
1.0
1001
ACAD
1000
MTEXTBEGIN
1070
    73
1070
     1
1070
    44
1040
1.0
1070
    74
1070
     0
1000
MTEXTEND
  0
POINT
  5
1040
330
1038
100
AcDbEntity
  8
Defpoints
 62
     0
100
AcDbPoint
 10
290.9484445104153
 20
1492.101199955092
 30
0.0
  0
POINT
  5
1041
330
1038
100
AcDbEntity
  8
Defpoints
 62
     0
100
AcDbPoint
 10
323.2904445104153
 20
1492.101199955092
 30
0.0
  0
POINT
  5
1042
330
1038
100
AcDbEntity
  8
Defpoints
 62
     0
100
AcDbPoint
 10
323.2904445104153
 20
1552.616610022545
 30
0.0
  0
ENDBLK
  5
1043
330
1038
100
AcDbEntity
  8
0
100
AcDbBlockEnd
  0
BLOCK
  5
112A
330
1044
100
AcDbEntity
  8
0
100
AcDbBlockBegin
  2
A$C73271D1F
 70
     0
 10
0.0
 20
0.0
 30
0.0
  3
A$C73271D1F
  1

  0
ARC
  5
1045
330
1044
100
AcDbEntity
  8
Object
100
AcDbCircle
 10
49.50626785569415
 20
46.7770557557069
 30
0.0
 40
47.78999999999999
100
AcDbArc
 50
313.7940898506292
 51
326.2059101493784
  0
ARC
  5
1046
330
1044
100
AcDbEntity
  8
Object
100
AcDbCircle
 10
49.50626785569415
 20
46.7770557557069
 30
0.0
 40
40.49999999999999
100
AcDbArc
 50
54.1821976988511
 51
90.0
  0
ARC
  5
1047
330
1044
100
AcDbEntity
  8
Object
100
AcDbCircle
 10
49.50626785569415
 20
46.7770557557069
 30
0.0
 40
10.125
100
AcDbArc
 50
346.1134596373704
 51
193.8865403626295
  0
ARC
  5
1048
330
1044
100
AcDbEntity
  8
Object
100
AcDbCircle
 10
49.50626785569415
 20
46.7770557557069
 30
0.0
 40
17.415
100
AcDbArc
 50
351.9790671247573
 51
188.0209328752425
  0
LINE
  5
1049
330
1044
100
AcDbEntity
  8
Object
100
AcDbLine
 10
58.97037932359722
 20
61.39597565845996
 30
0.0
 11
73.50346876233448
 21
75.92906509719703
 31
0.0
  0
LINE
  5
104A
330
1044
100
AcDbEntity
  8
Object
100
AcDbLine
 10
64.12518775844714
 20
56.24116722360986
 30
0.0
 11
78.65827719718446
 21
70.7742566623474
 31
0.0
  0
LINE
  5
104B
330
1044
100
AcDbEntity
  8
Object
100
AcDbLine
 10
53.15126785569415
 20
84.35922273686946
 30
0.0
 11
53.15126785569407
 21
63.8063305494261
 31
0.0
  0
ARC
  5
104C
330
1044
100
AcDbEntity
  8
Object
100
AcDbCircle
 10
49.50626785569415
 20
46.7770557557069
 30
0.0
 40
40.49999999999999
100
AcDbArc
 50
90.0
 51
125.8178023011489
  0
ARC
  5
104D
330
1044
100
AcDbEntity
  8
Object
100
AcDbCircle
 10
49.50626785569415
 20
46.7770557557069
 30
0.0
 40
40.49999999999999
100
AcDbArc
 50
352.6656310757573
 51
35.81780230114532
  0
LINE
  5
104E
330
1044
100
AcDbEntity
  8
Object
100
AcDbLine
 10
65.70626785569425
 20
44.34705575570704
 30
0.0
 11
73.27609818536015
 21
13.98612459938113
 31
0.0
  0
LINE
  5
104F
330
1044
100
AcDbEntity
  8
Object
100
AcDbLine
 10
73.2194412136549
 20
44.34705575570704
 30
0.0
 11
79.4206409119489
 21
19.47540224074146
 31
0.0
  0
ARC
  5
1050
330
1044
100
AcDbEntity
  8
Object
100
AcDbCircle
 10
49.50626785569415
 20
46.7770557557069
 30
0.0
 40
40.49999999999999
100
AcDbArc
 50
317.6145451051316
 51
352.6656310757573
  0
ARC
  5
1051
330
1044
100
AcDbEntity
  8
Object
100
AcDbCircle
 10
49.50626785569415
 20
46.7770557557069
 30
0.0
 40
40.49999999999999
100
AcDbArc
 50
289.8198413333077
 51
305.9379945624823
  0
ARC
  5
1052
330
1044
100
AcDbEntity
  8
Object
100
AcDbCircle
 10
55.58126785569417
 20
84.35922273686946
 30
0.0
 40
2.43
100
AcDbArc
 50
80.81780230114706
 51
180.0
  0
ARC
  5
1053
330
1044
100
AcDbEntity
  8
Object
100
AcDbCircle
 10
71.78519928405117
 20
77.64733457548071
 30
0.0
 40
2.43
100
AcDbArc
 50
315.000000000008
 51
54.1821976988511
  0
ARC
  5
1054
330
1044
100
AcDbEntity
  8
Object
100
AcDbCircle
 10
80.3765466754678
 20
69.05598718406372
 30
0.0
 40
2.43
100
AcDbArc
 50
35.81780230114532
 51
135.000000000008
  0
ARC
  5
1055
330
1044
100
AcDbEntity
  8
Object
100
AcDbCircle
 10
86.87177066242753
 20
54.06705575570686
 30
0.0
 40
2.43
100
AcDbArc
 50
270.0
 51
11.03971441403837
  0
ARC
  5
1056
330
1044
100
AcDbEntity
  8
Object
100
AcDbCircle
 10
87.26478080310767
 20
41.91705575570722
 30
0.0
 40
2.43
100
AcDbArc
 50
352.6656310757573
 51
90.0
  0
LINE
  5
1057
330
1044
100
AcDbEntity
  8
Object
100
AcDbLine
 10
52.08664644303195
 20
36.98638308494492
 30
0.0
 11
65.74639054362363
 21
2.309102468664605
 31
0.0
  0
LINE
  5
1058
330
1044
100
AcDbEntity
  8
Object
100
AcDbLine
 10
58.14523865752261
 20
41.49654361339026
 30
0.0
 11
69.85800245173834
 21
11.76196045479173
 31
0.0
  0
LINE
  5
1059
330
1044
100
AcDbEntity
  8
Object
100
AcDbLine
 10
59.33534334629854
 20
44.34705575570704
 30
0.0
 11
87.26478080310767
 21
44.34705575570704
 31
0.0
  0
ARC
  5
105A
330
1044
100
AcDbEntity
  8
Object
100
AcDbCircle
 10
49.50626785569415
 20
46.7770557557069
 30
0.0
 40
10.125
100
AcDbArc
 50
284.7648278509679
 51
328.5649244997035
  0
LINE
  5
105B
330
1044
100
AcDbEntity
  8
Object
100
AcDbLine
 10
66.22938434156485
 20
51.63705575570657
 30
0.0
 11
86.87177066242753
 21
51.63705575570657
 31
0.0
  0
ARC
  5
105C
330
1044
100
AcDbEntity
  8
Object
100
AcDbCircle
 10
79.7044297587677
 20
10.78828781797756
 30
0.0
 40
3.24
100
AcDbArc
 50
232.5723593422679
 51
27.42764065773093
  0
ARC
  5
105D
330
1044
100
AcDbEntity
  8
Object
100
AcDbCircle
 10
90.19214132548702
 20
23.28705575570666
 30
0.0
 40
3.24
100
AcDbArc
 50
252.5723593422668
 51
47.42764065772904
  0
ARC
  5
105E
330
1044
100
AcDbEntity
  8
Object
100
AcDbCircle
 10
95.77253609220756
 20
38.61906436891468
 30
0.0
 40
3.24
100
AcDbArc
 50
272.5723593422631
 51
67.42764065773264
  0
ARC
  5
105F
330
1044
100
AcDbEntity
  8
Object
100
AcDbCircle
 10
95.77253609220756
 20
54.93504714249912
 30
0.0
 40
3.24
100
AcDbArc
 50
292.5723593422659
 51
87.42764065773364
  0
ARC
  5
1060
330
1044
100
AcDbEntity
  8
Object
100
AcDbCircle
 10
90.19214132548681
 20
70.26705575570713
 30
0.0
 40
3.24
100
AcDbArc
 50
312.572359342271
 51
107.4276406577331
  0
ARC
  5
1061
330
1044
100
AcDbEntity
  8
Object
100
AcDbCircle
 10
79.7044297587677
 20
82.76582369343623
 30
0.0
 40
3.24
100
AcDbArc
 50
332.5723593422683
 51
127.4276406577319
  0
ARC
  5
1062
330
1044
100
AcDbEntity
  8
Object
100
AcDbCircle
 10
65.57437418913392
 20
90.92381508022844
 30
0.0
 40
3.24
100
AcDbArc
 50
352.5723593422716
 51
147.427640657726
  0
ARC
  5
1063
330
1044
100
AcDbEntity
  8
Object
100
AcDbCircle
 10
49.50626785569406
 20
93.75705575570648
 30
0.0
 40
3.24
100
AcDbArc
 50
12.57235934226009
 51
167.4276406577399
  0
ARC
  5
1064
330
1044
100
AcDbEntity
  8
Object
100
AcDbCircle
 10
33.43816152225418
 20
90.92381508022844
 30
0.0
 40
3.24
100
AcDbArc
 50
32.57235934225858
 51
187.4276406577283
  0
ARC
  5
1065
330
1044
100
AcDbEntity
  8
Object
100
AcDbCircle
 10
19.30810595262039
 20
82.76582369343623
 30
0.0
 40
3.24
100
AcDbArc
 50
52.57235934226804
 51
207.4276406577309
  0
ARC
  5
1066
330
1044
100
AcDbEntity
  8
Object
100
AcDbCircle
 10
8.820394385901009
 20
70.26705575570668
 30
0.0
 40
3.24
100
AcDbArc
 50
72.57235934226685
 51
227.427640657729
  0
ARC
  5
1067
330
1044
100
AcDbEntity
  8
Object
100
AcDbCircle
 10
3.23999961918048
 20
54.93504714249912
 30
0.0
 40
3.24
100
AcDbArc
 50
92.57235934226306
 51
247.4276406577327
  0
ARC
  5
1068
330
1044
100
AcDbEntity
  8
Object
100
AcDbCircle
 10
3.239999619180621
 20
38.61906436891468
 30
0.0
 40
3.24
100
AcDbArc
 50
112.5723593422673
 51
267.4276406577337
  0
ARC
  5
1069
330
1044
100
AcDbEntity
  8
Object
100
AcDbCircle
 10
8.820394385901209
 20
23.28705575570666
 30
0.0
 40
3.24
100
AcDbArc
 50
132.5723593422709
 51
287.4276406577331
  0
ARC
  5
106A
330
1044
100
AcDbEntity
  8
Object
100
AcDbCircle
 10
19.30810595262059
 20
10.7882878179771
 30
0.0
 40
3.24
100
AcDbArc
 50
152.5723593422683
 51
307.427640657732
  0
ARC
  5
106B
330
1044
100
AcDbEntity
  8
Object
100
AcDbCircle
 10
49.50626785569415
 20
46.7770557557069
 30
0.0
 40
47.78999999999999
100
AcDbArc
 50
213.7940898506215
 51
226.2059101493708
  0
ARC
  5
106C
330
1044
100
AcDbEntity
  8
Object
100
AcDbCircle
 10
49.50626785569415
 20
46.7770557557069
 30
0.0
 40
47.78999999999999
100
AcDbArc
 50
193.7940898506359
 51
206.205910149363
  0
ARC
  5
106D
330
1044
100
AcDbEntity
  8
Object
100
AcDbCircle
 10
49.50626785569415
 20
46.7770557557069
 30
0.0
 40
47.78999999999999
100
AcDbArc
 50
173.7940898506357
 51
186.2059101493643
  0
ARC
  5
106E
330
1044
100
AcDbEntity
  8
Object
100
AcDbCircle
 10
49.50626785569415
 20
46.7770557557069
 30
0.0
 40
47.78999999999999
100
AcDbArc
 50
153.794089850637
 51
166.2059101493775
  0
ARC
  5
106F
330
1044
100
AcDbEntity
  8
Object
100
AcDbCircle
 10
49.50626785569415
 20
46.7770557557069
 30
0.0
 40
47.78999999999999
100
AcDbArc
 50
133.7940898506292
 51
146.2059101493784
  0
ARC
  5
1070
330
1044
100
AcDbEntity
  8
Object
100
AcDbCircle
 10
49.50626785569415
 20
46.7770557557069
 30
0.0
 40
47.78999999999999
100
AcDbArc
 50
113.7940898506285
 51
126.205910149365
  0
ARC
  5
1071
330
1044
100
AcDbEntity
  8
Object
100
AcDbCircle
 10
49.50626785569415
 20
46.7770557557069
 30
0.0
 40
47.78999999999999
100
AcDbArc
 50
93.7940898506296
 51
106.2059101493675
  0
ARC
  5
1072
330
1044
100
AcDbEntity
  8
Object
100
AcDbCircle
 10
49.50626785569415
 20
46.7770557557069
 30
0.0
 40
47.78999999999999
100
AcDbArc
 50
73.79408985063243
 51
86.20591014937039
  0
ARC
  5
1073
330
1044
100
AcDbEntity
  8
Object
100
AcDbCircle
 10
49.50626785569415
 20
46.7770557557069
 30
0.0
 40
47.78999999999999
100
AcDbArc
 50
53.79408985063498
 51
66.20591014937152
  0
ARC
  5
1074
330
1044
100
AcDbEntity
  8
Object
100
AcDbCircle
 10
49.50626785569415
 20
46.7770557557069
 30
0.0
 40
47.78999999999999
100
AcDbArc
 50
33.79408985062152
 51
46.20591014937075
  0
ARC
  5
1075
330
1044
100
AcDbEntity
  8
Object
100
AcDbCircle
 10
49.50626785569415
 20
46.7770557557069
 30
0.0
 40
47.78999999999999
100
AcDbArc
 50
13.79408985062247
 51
26.20591014936297
  0
ARC
  5
1076
330
1044
100
AcDbEntity
  8
Object
100
AcDbCircle
 10
49.50626785569415
 20
46.7770557557069
 30
0.0
 40
47.78999999999999
100
AcDbArc
 50
353.7940898506357
 51
6.205910149364329
  0
ARC
  5
1077
330
1044
100
AcDbEntity
  8
Object
100
AcDbCircle
 10
49.50626785569415
 20
46.7770557557069
 30
0.0
 40
47.78999999999999
100
AcDbArc
 50
333.794089850637
 51
346.2059101493641
  0
LINE
  5
1078
330
1044
100
AcDbEntity
  8
Object
100
AcDbLine
 10
45.86126785569399
 20
84.35922273686946
 30
0.0
 11
45.86126785569404
 21
63.8063305494261
 31
0.0
  0
ARC
  5
1079
330
1044
100
AcDbEntity
  8
Object
100
AcDbCircle
 10
43.43126785569396
 20
84.35922273686946
 30
0.0
 40
2.43
100
AcDbArc
 50
0.0
 51
99.18219769885292
  0
LINE
  5
107A
330
1044
100
AcDbEntity
  8
Object
100
AcDbLine
 10
40.04215638779089
 20
61.39597565845996
 30
0.0
 11
25.50906694905362
 21
75.92906509719703
 31
0.0
  0
ARC
  5
107B
330
1044
100
AcDbEntity
  8
Object
100
AcDbCircle
 10
27.22733642733698
 20
77.64733457548071
 30
0.0
 40
2.43
100
AcDbArc
 50
125.8178023011489
 51
224.9999999999919
  0
ARC
  5
107C
330
1044
100
AcDbEntity
  8
Object
100
AcDbCircle
 10
18.63598903592034
 20
69.05598718406372
 30
0.0
 40
2.43
100
AcDbArc
 50
44.99999999999194
 51
144.1821976988546
  0
LINE
  5
107D
330
1044
100
AcDbEntity
  8
Object
100
AcDbLine
 10
34.88734795294102
 20
56.24116722360986
 30
0.0
 11
20.35425851420365
 21
70.7742566623474
 31
0.0
  0
LINE
  5
107E
330
1044
100
AcDbEntity
  8
Object
100
AcDbLine
 10
32.78315136982332
 20
51.63705575570657
 30
0.0
 11
12.14076504896059
 21
51.63705575570657
 31
0.0
  0
ARC
  5
107F
330
1044
100
AcDbEntity
  8
Object
100
AcDbCircle
 10
12.14076504896059
 20
54.06705575570686
 30
0.0
 40
2.43
100
AcDbArc
 50
168.9602855859616
 51
270.0
  0
ARC
  5
1080
330
1044
100
AcDbEntity
  8
Object
100
AcDbCircle
 10
11.7477549082804
 20
41.91705575570722
 30
0.0
 40
2.43
100
AcDbArc
 50
90.0
 51
187.3343689242427
  0
LINE
  5
1081
330
1044
100
AcDbEntity
  8
Object
100
AcDbLine
 10
25.79309449773319
 20
44.34705575570704
 30
0.0
 11
19.59189479943919
 21
19.47540224074146
 31
0.0
  0
LINE
  5
1082
330
1044
100
AcDbEntity
  8
Object
100
AcDbLine
 10
33.3062678556939
 20
44.34705575570704
 30
0.0
 11
25.73643752602794
 21
13.98612459938113
 31
0.0
  0
ARC
  5
1083
330
1044
100
AcDbEntity
  8
Object
100
AcDbCircle
 10
49.50626785569395
 20
46.7770557557069
 30
0.0
 40
10.125
100
AcDbArc
 50
211.4350755002965
 51
255.2351721490321
  0
LINE
  5
1084
330
1044
100
AcDbEntity
  8
Object
100
AcDbLine
 10
40.86729705386553
 20
41.49654361339026
 30
0.0
 11
29.15453325964978
 21
11.76196045479173
 31
0.0
  0
LINE
  5
1085
330
1044
100
AcDbEntity
  8
Object
100
AcDbLine
 10
46.92588926835614
 20
36.98638308494492
 30
0.0
 11
33.26614516776454
 21
2.309102468664605
 31
0.0
  0
LINE
  5
1086
330
1044
100
AcDbEntity
  8
Object
100
AcDbLine
 10
39.67719236508955
 20
44.34705575570704
 30
0.0
 11
11.7477549082804
 21
44.34705575570704
 31
0.0
  0
ARC
  5
1087
330
1044
100
AcDbEntity
  8
Object
100
AcDbCircle
 10
49.50626785569415
 20
46.7770557557069
 30
0.0
 40
40.49999999999999
100
AcDbArc
 50
234.0620054375177
 51
250.1801586666923
  0
ARC
  5
1088
330
1044
100
AcDbEntity
  8
Object
100
AcDbCircle
 10
49.50626785569415
 20
46.7770557557069
 30
0.0
 40
40.49999999999999
100
AcDbArc
 50
144.1821976988546
 51
222.3854548948683
  0
ARC
  5
1089
330
1044
100
AcDbEntity
  8
Object
100
AcDbCircle
 10
69.13776257891822
 20
3.644999440075024
 30
0.0
 40
3.645
100
AcDbArc
 50
201.4999999999982
 51
20.35130538008116
  0
ARC
  5
108A
330
1044
100
AcDbEntity
  8
Object
100
AcDbCircle
 10
49.50626785569415
 20
46.7770557557069
 30
0.0
 40
47.78999999999999
100
AcDbArc
 50
298.835520240128
 51
306.205910149365
  0
ARC
  5
108B
330
1044
100
AcDbEntity
  8
Object
100
AcDbCircle
 10
29.87477313247007
 20
3.644999440075024
 30
0.0
 40
3.645
100
AcDbArc
 50
159.6486946199188
 51
338.5000000000018
  0
ARC
  5
108C
330
1044
100
AcDbEntity
  8
Object
100
AcDbCircle
 10
49.50626785569395
 20
46.7770557557069
 30
0.0
 40
47.78999999999999
100
AcDbArc
 50
233.794089850635
 51
241.1644797598706
  0
LINE
  5
108D
330
1044
100
AcDbEntity
  8
Object
100
AcDbLine
 10
159.5062678556941
 20
64.19205575570686
 30
0.0
 11
159.5062678556941
 21
44.34705575570704
 31
0.0
  0
LINE
  5
108E
330
1044
100
AcDbEntity
  8
Object
100
AcDbLine
 10
165.986267855694
 20
96.99705575570623
 30
0.0
 11
165.9862678556941
 21
-0.0000005599249562
 31
0.0
  0
LINE
  5
108F
330
1044
100
AcDbEntity
  8
Object
100
AcDbLine
 10
182.1862678556941
 20
96.99705575570623
 30
0.0
 11
182.1862678556941
 21
-0.0000005599249562
 31
0.0
  0
LINE
  5
1090
330
1044
100
AcDbEntity
  8
Object
100
AcDbLine
 10
165.9862678556941
 20
96.99705575570623
 30
0.0
 11
182.186267855694
 21
96.99705575570623
 31
0.0
  0
LINE
  5
1091
330
1044
100
AcDbEntity
  8
Object
100
AcDbLine
 10
165.9862678556941
 20
-0.0000005599249562
 30
0.0
 11
182.1862678556941
 21
-0.0000005599249562
 31
0.0
  0
LINE
  5
1092
330
1044
100
AcDbEntity
  8
Object
100
AcDbLine
 10
165.9862678556941
 20
64.19205575570686
 30
0.0
 11
182.1862678556941
 21
64.19205575570686
 31
0.0
  0
LINE
  5
1093
330
1044
100
AcDbEntity
  8
Object
100
AcDbLine
 10
159.5062678556941
 20
44.34705575570704
 30
0.0
 11
188.6662678556941
 21
44.34705575570704
 31
0.0
  0
LINE
  5
1094
330
1044
100
AcDbEntity
  8
Object
100
AcDbLine
 10
165.9862678556941
 20
87.2770557557069
 30
0.0
 11
182.1862678556939
 21
87.2770557557069
 31
0.0
  0
LINE
  5
1095
330
1044
100
AcDbEntity
  8
Object
100
AcDbLine
 10
165.9862678556941
 20
87.2770557557069
 30
0.0
 11
159.5062678556941
 21
64.19205575570686
 31
0.0
  0
LINE
  5
1096
330
1044
100
AcDbEntity
  8
Object
100
AcDbLine
 10
165.986267855694
 20
94.46231437639651
 30
0.0
 11
182.186267855694
 21
94.46231437639651
 31
0.0
  0
LINE
  5
1097
330
1044
100
AcDbEntity
  8
Object
100
AcDbLine
 10
165.9862678556941
 20
94.16381508022869
 30
0.0
 11
182.186267855694
 21
94.16381508022869
 31
0.0
  0
LINE
  5
1098
330
1044
100
AcDbEntity
  8
Object
100
AcDbLine
 10
165.9862678556941
 20
90.50496737189131
 30
0.0
 11
182.186267855694
 21
90.50496737189131
 31
0.0
  0
LINE
  5
1099
330
1044
100
AcDbEntity
  8
Object
100
AcDbLine
 10
165.9862678556941
 20
86.00582369343646
 30
0.0
 11
182.1862678556941
 21
86.00582369343646
 31
0.0
  0
LINE
  5
109A
330
1044
100
AcDbEntity
  8
Object
100
AcDbLine
 10
165.986267855694
 20
81.27338887123142
 30
0.0
 11
182.1862678556941
 21
81.27338887123142
 31
0.0
  0
LINE
  5
109B
330
1044
100
AcDbEntity
  8
Object
100
AcDbLine
 10
165.9862678556941
 20
73.50705575570692
 30
0.0
 11
182.186267855694
 21
73.50705575570692
 31
0.0
  0
LINE
  5
109C
330
1044
100
AcDbEntity
  8
Object
100
AcDbLine
 10
165.9862678556941
 20
67.88104348518435
 30
0.0
 11
182.1862678556941
 21
67.88104348518435
 31
0.0
  0
LINE
  5
109D
330
1044
100
AcDbEntity
  8
Object
100
AcDbLine
 10
165.9862678556941
 20
58.17178231625711
 30
0.0
 11
182.1862678556941
 21
58.17178231625711
 31
0.0
  0
LINE
  5
109E
330
1044
100
AcDbEntity
  8
Object
100
AcDbLine
 10
165.9862678556941
 20
51.94324571727475
 30
0.0
 11
182.186267855694
 21
51.94324571727475
 31
0.0
  0
LINE
  5
109F
330
1044
100
AcDbEntity
  8
Object
100
AcDbLine
 10
165.9862678556941
 20
41.61086579413903
 30
0.0
 11
182.1862678556941
 21
41.61086579413903
 31
0.0
  0
LINE
  5
10A0
330
1044
100
AcDbEntity
  8
Object
100
AcDbLine
 10
165.9862678556941
 20
35.38232919515667
 30
0.0
 11
182.186267855694
 21
35.38232919515667
 31
0.0
  0
LINE
  5
10A1
330
1044
100
AcDbEntity
  8
Object
100
AcDbLine
 10
165.986267855694
 20
25.67306802622943
 30
0.0
 11
182.186267855694
 21
25.67306802622943
 31
0.0
  0
LINE
  5
10A2
330
1044
100
AcDbEntity
  8
Object
100
AcDbLine
 10
165.9862678556941
 20
20.04705575570688
 30
0.0
 11
182.186267855694
 21
20.04705575570688
 31
0.0
  0
LINE
  5
10A3
330
1044
100
AcDbEntity
  8
Object
100
AcDbLine
 10
165.9862678556941
 20
12.28072264018237
 30
0.0
 11
182.1862678556941
 21
12.28072264018237
 31
0.0
  0
LINE
  5
10A4
330
1044
100
AcDbEntity
  8
Object
100
AcDbLine
 10
165.9862678556941
 20
7.54828781797687
 30
0.0
 11
182.186267855694
 21
7.54828781797687
 31
0.0
  0
LINE
  5
10A5
330
1044
100
AcDbEntity
  8
Object
100
AcDbLine
 10
165.9862678556941
 20
4.912640565160471
 30
0.0
 11
182.1862678556942
 21
4.912640565160471
 31
0.0
  0
LINE
  5
10A6
330
1044
100
AcDbEntity
  8
Object
100
AcDbLine
 10
159.5062678556941
 20
41.49654361339026
 30
0.0
 11
165.9862678556941
 21
41.49654361339026
 31
0.0
  0
LINE
  5
10A7
330
1044
100
AcDbEntity
  8
Object
100
AcDbLine
 10
159.5062678556941
 20
41.49654361339026
 30
0.0
 11
165.9862678556941
 21
11.76196045479173
 31
0.0
  0
LINE
  5
10A8
330
1044
100
AcDbEntity
  8
Object
100
AcDbLine
 10
159.5062678556941
 20
36.98638308494492
 30
0.0
 11
165.9862678556941
 21
8.676137701225798
 31
0.0
  0
LINE
  5
10A9
330
1044
100
AcDbEntity
  8
Object
100
AcDbLine
 10
159.5062678556941
 20
41.4965436133898
 30
0.0
 11
159.5062678556941
 21
36.98638308494537
 31
0.0
  0
LINE
  5
10AA
330
1044
100
AcDbEntity
  8
Object
100
AcDbLine
 10
159.5062678556943
 20
51.63705575570657
 30
0.0
 11
165.9862678556941
 21
51.63705575570657
 31
0.0
  0
LINE
  5
10AB
330
1044
100
AcDbEntity
  8
Object
100
AcDbLine
 10
188.6662678556939
 20
64.19205575570686
 30
0.0
 11
188.6662678556939
 21
44.34705575570704
 31
0.0
  0
LINE
  5
10AC
330
1044
100
AcDbEntity
  8
Object
100
AcDbLine
 10
188.6662678556939
 20
36.98638308494492
 30
0.0
 11
182.186267855694
 21
8.676137701225798
 31
0.0
  0
LINE
  5
10AD
330
1044
100
AcDbEntity
  8
Object
100
AcDbLine
 10
188.6662678556939
 20
41.49654361339026
 30
0.0
 11
182.186267855694
 21
11.76196045479173
 31
0.0
  0
LINE
  5
10AE
330
1044
100
AcDbEntity
  8
Object
100
AcDbLine
 10
188.6662678556938
 20
41.49654361339026
 30
0.0
 11
182.1862678556939
 21
41.49654361339026
 31
0.0
  0
LINE
  5
10AF
330
1044
100
AcDbEntity
  8
Object
100
AcDbLine
 10
188.6662678556939
 20
41.49654361339026
 30
0.0
 11
188.6662678556939
 21
36.98638308494537
 31
0.0
  0
LINE
  5
10B0
330
1044
100
AcDbEntity
  8
Object
100
AcDbLine
 10
182.1862678556938
 20
87.2770557557069
 30
0.0
 11
188.6662678556939
 21
64.19205575570686
 31
0.0
  0
LINE
  5
10B1
330
1044
100
AcDbEntity
  8
Object
100
AcDbLine
 10
188.6662678556937
 20
51.63705575570657
 30
0.0
 11
182.1862678556939
 21
51.63705575570657
 31
0.0
  0
ARC
  5
10B2
330
1044
100
AcDbEntity
  8
Object
100
AcDbCircle
 10
69.35435835715228
 20
19.67079977716048
 30
0.0
 40
2.43
100
AcDbArc
 50
201.4999999999982
 51
14.00000000000317
  0
ARC
  5
10B3
330
1044
100
AcDbEntity
  8
Object
100
AcDbCircle
 10
29.65817735423588
 20
19.67079977715957
 30
0.0
 40
2.43
100
AcDbArc
 50
165.9999999999968
 51
338.5000000000018
  0
DIMENSION
  5
10B4
330
1044
100
AcDbEntity
  8
Object
100
AcDbDimension
  2
*D6
 10
99.01253609220757
 20
156.7770557557071
 30
0.0
 11
49.50626785569401
 21
163.1350103011616
 31
0.0
 12
236.0678233452791
 22
-1445.324144199385
 32
0.0
  1
{\fＭＳ Ｐゴシック|b0|i0|c128|p50;外径（ｄ）}
 71
     5
 42
99.01253647302715
  3
JIS
100
AcDbAlignedDimension
 13
-0.0000003808195572
 23
54.93504714249912
 33
0.0
 14
99.01253609220757
 24
54.93504714249912
 34
0.0
100
AcDbRotatedDimension
1001
ACAD
1000
DSTYLE
1002
{
1070
   147
1040
1.5
1070
   140
1040
7.5
1002
}
  0
DIMENSION
  5
10B5
330
1044
100
AcDbEntity
  8
Object
100
AcDbDimension
  2
*D7
 10
99.01253609220757
 20
126.7770557557071
 30
0.0
 11
79.32190197395084
 21
139.5767716647981
 31
0.0
 12
236.0678233452791
 22
-1445.324144199385
 32
0.0
  1
\P{\fＭＳ Ｐゴシック|b0|i0|c128|p50;カブリ}
 71
     5
 42
39.38126823651342
  3
JIS
100
AcDbAlignedDimension
 13
59.63126785569414
 23
46.7770557557069
 33
0.0
 14
99.01253609220757
 24
54.93504714249912
 34
0.0
100
AcDbRotatedDimension
1001
ACAD
1000
DSTYLE
1002
{
1070
   147
1040
1.5
1070
   140
1040
7.5
1002
}
  0
DIMENSION
  5
10B6
330
1044
100
AcDbEntity
  8
Object
100
AcDbDimension
  2
*D8
 10
188.6662678556939
 20
156.7770557557071
 30
0.0
 11
129.3751410175356
 21
156.7770557557071
 31
0.0
 12
236.0678233452791
 22
-1445.324144199385
 32
0.0
 70
   128
  1
{\fＭＳ Ｐゴシック|b0|i0|c128|p50;厚さ（ａ）}
 71
     5
 42
29.15999999999981
  3
JIS
100
AcDbAlignedDimension
 13
159.5062678556941
 23
64.19205575570686
 33
0.0
 14
188.6662678556939
 24
64.19205575570686
 34
0.0
100
AcDbRotatedDimension
1001
ACAD
1000
DSTYLE
1002
{
1070
   147
1040
1.5
1070
   140
1040
7.5
1002
}
  0
DIMENSION
  5
10B7
330
1044
100
AcDbEntity
  8
Object
100
AcDbDimension
  2
*D9
 10
182.1862678556941
 20
126.7770557557071
 30
0.0
 11
129.7254068909123
 21
126.7770557557071
 31
0.0
 12
236.0678233452791
 22
-1445.324144199385
 32
0.0
 70
   128
  1
{\fＭＳ Ｐゴシック|b0|i0|c128|p50;厚さ（ｂ）}
 71
     5
 42
16.19999999999991
  3
JIS
100
AcDbAlignedDimension
 13
165.9862678556941
 23
96.99705575570623
 33
0.0
 14
182.1862678556941
 24
96.99705575570623
 34
0.0
100
AcDbRotatedDimension
1001
ACAD
1000
DSTYLE
1002
{
1070
   147
1040
1.5
1070
   140
1040
7.5
1002
}
  0
ARC
  5
10B8
330
1044
100
AcDbEntity
  8
Object
100
AcDbCircle
 10
509.5062678556941
 20
46.7770557557069
 30
0.0
 40
48.20399999999999
100
AcDbArc
 50
91.95892547816134
 51
106.0410745218389
  0
ARC
  5
10B9
330
1044
100
AcDbEntity
  8
Object
100
AcDbCircle
 10
509.5062678556941
 20
46.7770557557069
 30
0.0
 40
42.22999999999999
100
AcDbArc
 50
93.49581363239023
 51
131.5041863676056
  0
ARC
  5
10BA
330
1044
100
AcDbEntity
  8
Object
100
AcDbCircle
 10
509.5062678556941
 20
46.7770557557069
 30
0.0
 40
19.57
100
AcDbArc
 50
292.4391568233262
 51
307.5608431766769
  0
ARC
  5
10BB
330
1044
100
AcDbEntity
  8
Object
100
AcDbCircle
 10
509.5062678556941
 20
46.7770557557069
 30
0.0
 40
26.265
100
AcDbArc
 50
95.62627094610391
 51
129.3737290538868
  0
ARC
  5
10BC
330
1044
100
AcDbEntity
  8
Object
100
AcDbCircle
 10
509.5062678556941
 20
94.98105575570708
 30
0.0
 40
1.647999999999994
100
AcDbArc
 50
359.0205372609195
 51
180.9794627390805
  0
ARC
  5
10BD
330
1044
100
AcDbEntity
  8
Object
100
AcDbCircle
 10
494.6104126588442
 20
92.6217840671984
 30
0.0
 40
1.647999999999994
100
AcDbArc
 50
17.02053726092254
 51
198.9794627390777
  0
ARC
  5
10BE
330
1044
100
AcDbEntity
  8
Object
100
AcDbCircle
 10
481.1726675541875
 20
85.77491095255664
 30
0.0
 40
1.647999999999994
100
AcDbArc
 50
35.02053726091162
 51
216.9794627390771
  0
ARC
  5
10BF
330
1044
100
AcDbEntity
  8
Object
100
AcDbCircle
 10
470.5084126588441
 20
75.11065605721319
 30
0.0
 40
1.647999999999994
100
AcDbArc
 50
53.02053726091415
 51
234.9794627390775
  0
ARC
  5
10C0
330
1044
100
AcDbEntity
  8
Object
100
AcDbCircle
 10
463.6615395442026
 20
61.672910952557
 30
0.0
 40
1.647999999999994
100
AcDbArc
 50
71.02053726092022
 51
252.9794627390776
  0
ARC
  5
10C1
330
1044
100
AcDbEntity
  8
Object
100
AcDbCircle
 10
461.3022678556942
 20
46.7770557557069
 30
0.0
 40
1.647999999999994
100
AcDbArc
 50
89.02053726091628
 51
270.9794627390837
  0
ARC
  5
10C2
330
1044
100
AcDbEntity
  8
Object
100
AcDbCircle
 10
463.6615395442026
 20
31.88120055885702
 30
0.0
 40
1.647999999999994
100
AcDbArc
 50
107.0205372609208
 51
288.9794627390798
  0
ARC
  5
10C3
330
1044
100
AcDbEntity
  8
Object
100
AcDbCircle
 10
470.5084126588443
 20
18.4434554542006
 30
0.0
 40
1.647999999999994
100
AcDbArc
 50
125.0205372609252
 51
306.9794627390897
  0
ARC
  5
10C4
330
1044
100
AcDbEntity
  8
Object
100
AcDbCircle
 10
548.5041230525442
 20
18.4434554542006
 30
0.0
 40
1.647999999999994
100
AcDbArc
 50
233.0205372609142
 51
54.97946273907743
  0
ARC
  5
10C5
330
1044
100
AcDbEntity
  8
Object
100
AcDbCircle
 10
555.3509961671855
 20
31.88120055885702
 30
0.0
 40
1.647999999999994
100
AcDbArc
 50
251.0205372609202
 51
72.97946273907759
  0
ARC
  5
10C6
330
1044
100
AcDbEntity
  8
Object
100
AcDbCircle
 10
557.7102678556941
 20
46.7770557557069
 30
0.0
 40
1.647999999999994
100
AcDbArc
 50
269.0205372609162
 51
90.97946273908048
  0
ARC
  5
10C7
330
1044
100
AcDbEntity
  8
Object
100
AcDbCircle
 10
555.3509961671855
 20
61.672910952557
 30
0.0
 40
1.647999999999994
100
AcDbArc
 50
287.0205372609209
 51
108.9794627390797
  0
ARC
  5
10C8
330
1044
100
AcDbEntity
  8
Object
100
AcDbCircle
 10
548.5041230525442
 20
75.11065605721319
 30
0.0
 40
1.647999999999994
100
AcDbArc
 50
305.0205372609253
 51
126.9794627390897
  0
ARC
  5
10C9
330
1044
100
AcDbEntity
  8
Object
100
AcDbCircle
 10
537.8398681572003
 20
85.77491095255709
 30
0.0
 40
1.647999999999994
100
AcDbArc
 50
323.0205372609229
 51
144.9794627390883
  0
ARC
  5
10CA
330
1044
100
AcDbEntity
  8
Object
100
AcDbCircle
 10
524.4021230525439
 20
92.6217840671984
 30
0.0
 40
1.647999999999994
100
AcDbArc
 50
341.0205372609222
 51
162.9794627390774
  0
LINE
  5
10CB
330
1044
100
AcDbEntity
  8
Object
100
AcDbLine
 10
512.0812678556941
 20
88.92847655026617
 30
0.0
 11
512.0812678556942
 21
72.91552548903315
 31
0.0
  0
LINE
  5
10CC
330
1044
100
AcDbEntity
  8
Object
100
AcDbLine
 10
506.9312678556941
 20
88.92847655026617
 30
0.0
 11
506.9312678556942
 21
72.91552548903315
 31
0.0
  0
LINE
  5
10CD
330
1044
100
AcDbEntity
  8
Object
100
AcDbLine
 10
481.5215123367691
 20
78.40341119774301
 30
0.0
 11
492.8443786189752
 21
67.08054491553662
 31
0.0
  0
LINE
  5
10CE
330
1044
100
AcDbEntity
  8
Object
100
AcDbLine
 10
477.8799124136583
 20
74.76181127463224
 30
0.0
 11
489.2027786958646
 21
63.43894499242583
 31
0.0
  0
LINE
  5
10CF
330
1044
100
AcDbEntity
  8
Object
100
AcDbLine
 10
529.8015025485121
 20
63.4489984668437
 30
0.0
 11
541.11875967272
 21
74.7774711297411
 31
0.0
  0
ARC
  5
10D0
330
1044
100
AcDbEntity
  8
Object
100
AcDbCircle
 10
509.5062678556941
 20
46.7770557557069
 30
0.0
 40
42.22999999999999
100
AcDbArc
 50
138.4958136323956
 51
191.5041863676053
  0
ARC
  5
10D1
330
1044
100
AcDbEntity
  8
Object
100
AcDbCircle
 10
509.5062678556941
 20
46.7770557557069
 30
0.0
 40
26.265
100
AcDbArc
 50
140.626270946104
 51
189.3737290538951
  0
LINE
  5
10D2
330
1044
100
AcDbEntity
  8
Object
100
AcDbLine
 10
526.1580995311154
 20
67.08879440244571
 30
0.0
 11
537.4753566553236
 21
78.41726706534314
 31
0.0
  0
ARC
  5
10D3
330
1044
100
AcDbEntity
  8
Object
100
AcDbCircle
 10
509.5062678556941
 20
46.7770557557069
 30
0.0
 40
26.265
100
AcDbArc
 50
50.65464728837042
 51
84.37372905389285
  0
ARC
  5
10D4
330
1044
100
AcDbEntity
  8
Object
100
AcDbCircle
 10
509.5062678556941
 20
46.7770557557069
 30
0.0
 40
42.22999999999999
100
AcDbArc
 50
48.52418997465528
 51
86.5041863676098
  0
LINE
  5
10D5
330
1044
100
AcDbEntity
  8
Object
100
AcDbLine
 10
535.4205498719278
 20
42.49918098158082
 30
0.0
 11
550.887872857076
 21
38.35472427863897
 31
0.0
  0
LINE
  5
10D6
330
1044
100
AcDbEntity
  8
Object
100
AcDbLine
 10
533.5861460278961
 20
37.65903568106955
 30
0.0
 11
549.5549547747978
 21
33.38020627325
 31
0.0
  0
ARC
  5
10D7
330
1044
100
AcDbEntity
  8
Object
100
AcDbCircle
 10
509.5062678556941
 20
46.7770557557069
 30
0.0
 40
26.265
100
AcDbArc
 50
350.6262709461048
 51
39.40210539616846
  0
ARC
  5
10D8
330
1044
100
AcDbEntity
  8
Object
100
AcDbCircle
 10
509.5062678556941
 20
46.7770557557069
 30
0.0
 40
42.22999999999999
100
AcDbArc
 50
348.4958136323947
 51
41.53256270987899
  0
LINE
  5
10D9
330
1044
100
AcDbEntity
  8
Object
100
AcDbLine
 10
483.5919858394606
 20
42.49918098158082
 30
0.0
 11
468.1246628543124
 21
38.35472427863897
 31
0.0
  0
LINE
  5
10DA
330
1044
100
AcDbEntity
  8
Object
100
AcDbLine
 10
484.9249039217387
 20
37.52466297619208
 30
0.0
 11
469.4575809365903
 21
33.38020627325
 31
0.0
  0
ARC
  5
10DB
330
1044
100
AcDbEntity
  8
Object
100
AcDbCircle
 10
509.5062678556941
 20
46.7770557557069
 30
0.0
 40
42.22999999999999
100
AcDbArc
 50
198.4958136323836
 51
222.9839841825378
  0
LINE
  5
10DC
330
1044
100
AcDbEntity
  8
Object
100
AcDbLine
 10
511.5662678556942
 20
64.16545706232523
 30
0.0
 11
511.5662678556942
 21
66.23833269222861
 31
0.0
  0
LINE
  5
10DD
330
1044
100
AcDbEntity
  8
Object
100
AcDbLine
 10
507.4462678556941
 20
64.16545706232523
 30
0.0
 11
507.4462678556941
 21
66.23833269222905
 31
0.0
  0
ARC
  5
10DE
330
1044
100
AcDbEntity
  8
Object
100
AcDbCircle
 10
509.5062678556941
 20
46.7770557557069
 30
0.0
 40
17.51
100
AcDbArc
 50
83.24367296941122
 51
96.75632703058877
  0
LINE
  5
10DF
330
1044
100
AcDbEntity
  8
Object
100
AcDbLine
 10
495.7541714085472
 20
57.61587226436541
 30
0.0
 11
494.288426994086
 21
59.08161667882655
 31
0.0
  0
LINE
  5
10E0
330
1044
100
AcDbEntity
  8
Object
100
AcDbLine
 10
498.6674513470358
 20
60.52915220285399
 30
0.0
 11
497.2017069325744
 21
61.99489661731512
 31
0.0
  0
ARC
  5
10E1
330
1044
100
AcDbEntity
  8
Object
100
AcDbCircle
 10
509.5062678556941
 20
46.7770557557069
 30
0.0
 40
17.51
100
AcDbArc
 50
128.2436729694154
 51
141.7563270305914
  0
LINE
  5
10E2
330
1044
100
AcDbEntity
  8
Object
100
AcDbLine
 10
520.3450843643527
 20
60.52915220285399
 30
0.0
 11
521.8108287788139
 21
61.99489661731512
 31
0.0
  0
LINE
  5
10E3
330
1044
100
AcDbEntity
  8
Object
100
AcDbLine
 10
523.2583643028411
 20
57.61587226436496
 30
0.0
 11
524.7241087173024
 21
59.08161667882655
 31
0.0
  0
ARC
  5
10E4
330
1044
100
AcDbEntity
  8
Object
100
AcDbCircle
 10
509.5062678556941
 20
46.7770557557069
 30
0.0
 40
17.51
100
AcDbArc
 50
38.24367296940856
 51
51.75632703058457
  0
ARC
  5
10E5
330
1044
100
AcDbEntity
  8
Object
100
AcDbCircle
 10
509.5062678556941
 20
46.7770557557069
 30
0.0
 40
17.50999999999991
100
AcDbArc
 50
338.2436729694074
 51
351.7563270305829
  0
LINE
  5
10E6
330
1044
100
AcDbEntity
  8
Object
100
AcDbLine
 10
526.8353409885463
 20
44.2664135358243
 30
0.0
 11
528.8375850941556
 21
43.72991384467582
 31
0.0
  0
LINE
  5
10E7
330
1044
100
AcDbEntity
  8
Object
100
AcDbLine
 10
525.7690065227238
 20
40.28679913151335
 30
0.0
 11
527.7712506283331
 21
39.75029944036533
 31
0.0
  0
ARC
  5
10E8
330
1044
100
AcDbEntity
  8
Object
100
AcDbCircle
 10
509.5062678556939
 20
46.7770557557069
 30
0.0
 40
17.50999999999991
100
AcDbArc
 50
188.2436729694171
 51
201.7563270305926
  0
LINE
  5
10E9
330
1044
100
AcDbEntity
  8
Object
100
AcDbLine
 10
492.1771947228418
 20
44.26641353582385
 30
0.0
 11
490.1749506172325
 21
43.72991384467582
 31
0.0
  0
LINE
  5
10EA
330
1044
100
AcDbEntity
  8
Object
100
AcDbLine
 10
493.2435291886644
 20
40.2867991315129
 30
0.0
 11
491.2412850830548
 21
39.75029944036486
 31
0.0
  0
LINE
  5
10EB
330
1044
100
AcDbEntity
  8
Object
100
AcDbLine
 10
516.9761786648954
 20
28.68879070616231
 30
0.0
 11
530.9147524409493
 21
4.546472740990111
 31
0.0
  0
LINE
  5
10EC
330
1044
100
AcDbEntity
  8
Object
100
AcDbLine
 10
521.4362094943854
 20
31.26379070616235
 30
0.0
 11
532.8119936677186
 21
11.56035454201128
 31
0.0
  0
ARC
  5
10ED
330
1044
100
AcDbEntity
  8
Object
100
AcDbCircle
 10
509.5062678556941
 20
46.7770557557069
 30
0.0
 40
17.51000000000003
100
AcDbArc
 50
293.2436729694142
 51
306.7563270305868
  0
LINE
  5
10EE
330
1044
100
AcDbEntity
  8
Object
100
AcDbLine
 10
519.9844808407991
 20
32.74825849297713
 30
0.0
 11
521.0209186557512
 21
30.95309553859488
 31
0.0
  0
LINE
  5
10EF
330
1044
100
AcDbEntity
  8
Object
100
AcDbLine
 10
516.4164561772074
 20
30.68825849297719
 30
0.0
 11
517.4528939921591
 21
28.89309553859494
 31
0.0
  0
LINE
  5
10F0
330
1044
100
AcDbEntity
  8
Object
100
AcDbLine
 10
502.5960795341811
 20
30.68825849297719
 30
0.0
 11
501.5596417192291
 21
28.89309553859494
 31
0.0
  0
LINE
  5
10F1
330
1044
100
AcDbEntity
  8
Object
100
AcDbLine
 10
499.0280548705891
 20
32.74825849297713
 30
0.0
 11
497.9916170556372
 21
30.95309553859488
 31
0.0
  0
ARC
  5
10F2
330
1044
100
AcDbEntity
  8
Object
100
AcDbCircle
 10
509.5062678556941
 20
46.7770557557069
 30
0.0
 40
48.20399999999999
100
AcDbArc
 50
302.8836241215808
 51
322.041074521829
  0
ARC
  5
10F3
330
1044
100
AcDbEntity
  8
Object
100
AcDbCircle
 10
533.1447678556942
 20
5.833972740990019
 30
0.0
 40
2.574999999999964
100
AcDbArc
 50
209.9999999999997
 51
10.34861565867802
  0
ARC
  5
10F4
330
1044
100
AcDbEntity
  8
Object
100
AcDbCircle
 10
509.5062678556941
 20
46.7770557557069
 30
0.0
 40
42.22999999999999
100
AcDbArc
 50
303.495813632387
 51
309.3566989272629
  0
ARC
  5
10F5
330
1044
100
AcDbEntity
  8
Object
100
AcDbCircle
 10
509.5062678556941
 20
46.7770557557069
 30
0.0
 40
19.57
100
AcDbArc
 50
337.4391568233284
 51
202.5608431766717
  0
LINE
  5
10F6
330
1044
100
AcDbEntity
  8
Object
100
AcDbLine
 10
536.2862678556941
 20
14.1242687383633
 30
0.0
 11
527.5786273201718
 21
39.26874546731961
 31
0.0
  0
LINE
  5
10F7
330
1044
100
AcDbEntity
  8
Object
100
AcDbLine
 10
540.3993841172981
 20
17.98489939938281
 30
0.0
 11
533.5861460278961
 21
37.65903568106955
 31
0.0
  0
ARC
  5
10F8
330
1044
100
AcDbEntity
  8
Object
100
AcDbCircle
 10
509.5062678556941
 20
46.7770557557069
 30
0.0
 40
42.22999999999999
100
AcDbArc
 50
317.0160158174622
 51
341.5041863676163
  0
LINE
  5
10F9
330
1044
100
AcDbEntity
  8
Object
100
AcDbLine
 10
497.576326217003
 20
31.26379070616235
 30
0.0
 11
486.2005420436696
 21
11.56035454201128
 31
0.0
  0
LINE
  5
10FA
330
1044
100
AcDbEntity
  8
Object
100
AcDbLine
 10
502.0363570464929
 20
28.68879070616231
 30
0.0
 11
488.0977832704391
 21
4.546472740990111
 31
0.0
  0
ARC
  5
10FB
330
1044
100
AcDbEntity
  8
Object
100
AcDbCircle
 10
509.5062678556941
 20
46.7770557557069
 30
0.0
 40
19.57
100
AcDbArc
 50
232.4391568233231
 51
247.5608431766739
  0
LINE
  5
10FC
330
1044
100
AcDbEntity
  8
Object
100
AcDbLine
 10
502.5960795341811
 20
30.68825849297719
 30
0.0
 11
501.5596417192291
 21
28.89309553859494
 31
0.0
  0
LINE
  5
10FD
330
1044
100
AcDbEntity
  8
Object
100
AcDbLine
 10
499.0280548705891
 20
32.74825849297713
 30
0.0
 11
497.9916170556372
 21
30.95309553859488
 31
0.0
  0
ARC
  5
10FE
330
1044
100
AcDbEntity
  8
Object
100
AcDbCircle
 10
509.5062678556942
 20
46.7770557557069
 30
0.0
 40
17.51000000000003
100
AcDbArc
 50
233.2436729694133
 51
246.7563270305858
  0
ARC
  5
10FF
330
1044
100
AcDbEntity
  8
Object
100
AcDbCircle
 10
485.8677678556942
 20
5.833972740990019
 30
0.0
 40
2.574999999999964
100
AcDbArc
 50
169.6513843413219
 51
330.0000000000003
  0
ARC
  5
1100
330
1044
100
AcDbEntity
  8
Object
100
AcDbCircle
 10
509.5062678556941
 20
46.7770557557069
 30
0.0
 40
42.22999999999999
100
AcDbArc
 50
230.6433010727371
 51
236.504186367613
  0
LINE
  5
1101
330
1044
100
AcDbEntity
  8
Object
100
AcDbLine
 10
482.7262678556941
 20
14.1242687383633
 30
0.0
 11
491.4339083912167
 21
39.26874546731961
 31
0.0
  0
LINE
  5
1102
330
1044
100
AcDbEntity
  8
Object
100
AcDbLine
 10
478.6131515940901
 20
17.98489939938281
 30
0.0
 11
485.4263896834923
 21
37.65903568106955
 31
0.0
  0
ARC
  5
1103
330
1044
100
AcDbEntity
  8
Object
100
AcDbCircle
 10
509.5062678556941
 20
46.7770557557069
 30
0.0
 40
48.20399999999999
100
AcDbArc
 50
181.9589254781611
 51
196.0410745218322
  0
ARC
  5
1104
330
1044
100
AcDbEntity
  8
Object
100
AcDbCircle
 10
509.5062678556941
 20
46.7770557557069
 30
0.0
 40
48.20399999999999
100
AcDbArc
 50
199.9589254781644
 51
214.0410745218443
  0
ARC
  5
1105
330
1044
100
AcDbEntity
  8
Object
100
AcDbCircle
 10
509.5062678556941
 20
46.7770557557069
 30
0.0
 40
48.20399999999999
100
AcDbArc
 50
217.9589254781709
 51
237.1163758784192
  0
ARC
  5
1106
330
1044
100
AcDbEntity
  8
Object
100
AcDbCircle
 10
509.5062678556941
 20
46.7770557557069
 30
0.0
 40
48.20399999999999
100
AcDbArc
 50
1.958925478161123
 51
16.04107452183221
  0
ARC
  5
1107
330
1044
100
AcDbEntity
  8
Object
100
AcDbCircle
 10
509.5062678556941
 20
46.7770557557069
 30
0.0
 40
48.20399999999999
100
AcDbArc
 50
343.9589254781678
 51
358.0410745218389
  0
ARC
  5
1108
330
1044
100
AcDbEntity
  8
Object
100
AcDbCircle
 10
509.5062678556941
 20
46.7770557557069
 30
0.0
 40
48.20399999999999
100
AcDbArc
 50
325.9589254781557
 51
340.0410745218354
  0
ARC
  5
1109
330
1044
100
AcDbEntity
  8
Object
100
AcDbCircle
 10
509.5062678556941
 20
46.7770557557069
 30
0.0
 40
48.20399999999999
100
AcDbArc
 50
19.95892547816454
 51
34.04107452184431
  0
ARC
  5
110A
330
1044
100
AcDbEntity
  8
Object
100
AcDbCircle
 10
509.5062678556941
 20
46.7770557557069
 30
0.0
 40
48.20399999999999
100
AcDbArc
 50
73.95892547816107
 51
88.04107452183867
  0
ARC
  5
110B
330
1044
100
AcDbEntity
  8
Object
100
AcDbCircle
 10
509.5062678556941
 20
46.7770557557069
 30
0.0
 40
48.20399999999999
100
AcDbArc
 50
55.95892547816383
 51
70.0410745218349
  0
ARC
  5
110C
330
1044
100
AcDbEntity
  8
Object
100
AcDbCircle
 10
509.5062678556941
 20
46.7770557557069
 30
0.0
 40
48.20399999999999
100
AcDbArc
 50
37.95892547817093
 51
52.04107452184049
  0
ARC
  5
110D
330
1044
100
AcDbEntity
  8
Object
100
AcDbCircle
 10
509.5062678556941
 20
46.7770557557069
 30
0.0
 40
48.20399999999999
100
AcDbArc
 50
163.9589254781677
 51
178.0410745218388
  0
ARC
  5
110E
330
1044
100
AcDbEntity
  8
Object
100
AcDbCircle
 10
509.5062678556941
 20
46.7770557557069
 30
0.0
 40
48.20399999999999
100
AcDbArc
 50
145.9589254781557
 51
160.0410745218354
  0
ARC
  5
110F
330
1044
100
AcDbEntity
  8
Object
100
AcDbCircle
 10
509.5062678556941
 20
46.7770557557069
 30
0.0
 40
48.20399999999999
100
AcDbArc
 50
127.9589254781595
 51
142.0410745218291
  0
ARC
  5
1110
330
1044
100
AcDbEntity
  8
Object
100
AcDbCircle
 10
509.5062678556941
 20
46.7770557557069
 30
0.0
 40
48.20399999999999
100
AcDbArc
 50
109.9589254781651
 51
124.0410745218361
  0
LINE
  5
1111
330
1044
100
AcDbEntity
  8
Object
100
AcDbLine
 10
619.5062678556943
 20
96.62905575570697
 30
0.0
 11
619.5062678556943
 21
3.258972740990201
 31
0.0
  0
LINE
  5
1112
330
1044
100
AcDbEntity
  8
Object
100
AcDbLine
 10
650.4062678556939
 20
96.62905575570697
 30
0.0
 11
650.4062678556939
 21
3.258972740990201
 31
0.0
  0
LINE
  5
1113
330
1044
100
AcDbEntity
  8
Object
100
AcDbLine
 10
619.5062678556943
 20
96.62905575570697
 30
0.0
 11
650.4062678556939
 21
96.62905575570697
 31
0.0
  0
LINE
  5
1114
330
1044
100
AcDbEntity
  8
Object
100
AcDbLine
 10
619.5062678556943
 20
94.952884815536
 30
0.0
 11
650.4062678556939
 21
94.952884815536
 31
0.0
  0
LINE
  5
1115
330
1044
100
AcDbEntity
  8
Object
100
AcDbLine
 10
619.5062678556943
 20
94.26978406719877
 30
0.0
 11
650.4062678556939
 21
94.26978406719877
 31
0.0
  0
LINE
  5
1116
330
1044
100
AcDbEntity
  8
Object
100
AcDbLine
 10
619.5062678556943
 20
92.08580631395216
 30
0.0
 11
650.4062678556939
 21
92.08580631395216
 31
0.0
  0
LINE
  5
1117
330
1044
100
AcDbEntity
  8
Object
100
AcDbLine
 10
619.5062678556943
 20
87.422910952557
 30
0.0
 11
650.4062678556939
 21
87.422910952557
 31
0.0
  0
LINE
  5
1118
330
1044
100
AcDbEntity
  8
Object
100
AcDbLine
 10
619.5062678556943
 20
84.78359162309969
 30
0.0
 11
650.4062678556939
 21
84.78359162309969
 31
0.0
  0
LINE
  5
1119
330
1044
100
AcDbEntity
  8
Object
100
AcDbLine
 10
619.5062678556943
 20
76.7586560572131
 30
0.0
 11
650.4062678556939
 21
76.75865605721354
 31
0.0
  0
LINE
  5
111A
330
1044
100
AcDbEntity
  8
Object
100
AcDbLine
 10
619.5062678556943
 20
73.76103239443978
 30
0.0
 11
650.4062678556939
 21
73.76103239443978
 31
0.0
  0
LINE
  5
111B
330
1044
100
AcDbEntity
  8
Object
100
AcDbLine
 10
619.5062678556943
 20
63.23131778263199
 30
0.0
 11
650.4062678556939
 21
63.23131778263199
 31
0.0
  0
LINE
  5
111C
330
1044
100
AcDbEntity
  8
Object
100
AcDbLine
 10
619.5062678556943
 20
60.09709352396111
 30
0.0
 11
650.4062678556939
 21
60.09709352396111
 31
0.0
  0
LINE
  5
111D
330
1044
100
AcDbEntity
  8
Object
100
AcDbLine
 10
619.5062678556943
 20
48.42481496084907
 30
0.0
 11
650.4062678556939
 21
48.42481496084907
 31
0.0
  0
LINE
  5
111E
330
1044
100
AcDbEntity
  8
Object
100
AcDbLine
 10
619.5062678556943
 20
45.12929655056518
 30
0.0
 11
650.4062678556939
 21
45.12929655056518
 31
0.0
  0
LINE
  5
111F
330
1044
100
AcDbEntity
  8
Object
100
AcDbLine
 10
619.5062678556943
 20
33.45701798745267
 30
0.0
 11
650.4062678556939
 21
33.45701798745267
 31
0.0
  0
LINE
  5
1120
330
1044
100
AcDbEntity
  8
Object
100
AcDbLine
 10
619.5062678556943
 20
30.23320055885665
 30
0.0
 11
650.4062678556939
 21
30.23320055885665
 31
0.0
  0
LINE
  5
1121
330
1044
100
AcDbEntity
  8
Object
100
AcDbLine
 10
619.5062678556943
 20
19.79307911697378
 30
0.0
 11
650.4062678556939
 21
19.79307911697378
 31
0.0
  0
LINE
  5
1122
330
1044
100
AcDbEntity
  8
Object
100
AcDbLine
 10
619.5062678556943
 20
16.79545545420069
 30
0.0
 11
650.4062678556939
 21
16.79545545420069
 31
0.0
  0
LINE
  5
1123
330
1044
100
AcDbEntity
  8
Object
100
AcDbLine
 10
619.5062678556943
 20
6.296537965428798
 30
0.0
 11
650.4062678556939
 21
6.296537965428798
 31
0.0
  0
LINE
  5
1124
330
1044
100
AcDbEntity
  8
Object
100
AcDbLine
 10
619.5062678556938
 20
3.258972740990201
 30
0.0
 11
650.4062678556939
 21
3.258972740990201
 31
0.0
  0
DIMENSION
  5
1125
330
1044
100
AcDbEntity
  8
Object
100
AcDbDimension
  2
*D10
 10
559.3582678556941
 20
156.7770557557069
 30
0.0
 11
509.5062678556941
 21
163.1350103011614
 31
0.0
 12
236.0678233452791
 22
-1445.324144199385
 32
0.0
  1
{\fＭＳ Ｐゴシック|b0|i0|c128|p50;外径（ｄ）}
 71
     5
 42
99.70400000000005
  3
JIS
100
AcDbAlignedDimension
 13
459.6542678556941
 23
46.7770557557069
 33
0.0
 14
559.3582678556941
 24
46.7770557557069
 34
0.0
100
AcDbRotatedDimension
1001
ACAD
1000
DSTYLE
1002
{
1070
   147
1040
1.5
1070
   140
1040
7.5
1002
}
  0
DIMENSION
  5
1126
330
1044
100
AcDbEntity
  8
Object
100
AcDbDimension
  2
*D11
 10
650.4062678556939
 20
156.4857003626075
 30
0.0
 11
597.0460405829668
 21
156.4857003626075
 31
0.0
 12
236.0678233452791
 22
-1445.324144199385
 32
0.0
 70
   128
  1
{\fＭＳ Ｐゴシック|b0|i0|c128|p50;厚さ（ａ）}
 71
     5
 42
30.89999999999998
  3
JIS
100
AcDbAlignedDimension
 13
619.5062678556943
 23
96.62905575570697
 33
0.0
 14
650.4062678556939
 24
96.62905575570697
 34
0.0
100
AcDbRotatedDimension
1001
ACAD
1000
DSTYLE
1002
{
1070
   147
1040
1.5
1070
   140
1040
7.5
1002
}
  0
DIMENSION
  5
1127
330
1044
100
AcDbEntity
  8
Object
100
AcDbDimension
  2
*D12
 10
559.3582678556941
 20
107.2924658231595
 30
0.0
 11
543.1872678556942
 21
113.8421817322505
 31
0.0
 12
236.0678233452791
 22
-1445.324144199385
 32
0.0
  1
{\fＭＳ Ｐゴシック|b0|i0|c128|p50;カブリ}
 71
     5
 42
32.34199999999993
  3
JIS
100
AcDbAlignedDimension
 13
527.0162678556943
 23
46.7770557557069
 33
0.0
 14
559.3582678556941
 24
46.7770557557069
 34
0.0
 50
180.0
100
AcDbRotatedDimension
1001
ACAD
1000
DSTYLE
1002
{
1070
   147
1040
1.5
1070
   140
1040
7.5
1002
}
  0
ENDBLK
  5
112B
330
1044
100
AcDbEntity
  8
0
100
AcDbBlockEnd
  0
BLOCK
  5
5E70
330
5E67
100
AcDbEntity
  8
0
100
AcDbBlockBegin
  2
*D14
 70
     1
 10
0.0
 20
0.0
 30
0.0
  3
*D14
  1

  0
LINE
  5
5EC5
330
5E67
100
AcDbEntity
  8
Object
 62
     0
370
    -2
100
AcDbLine
 10
-701.8023831275877
 20
1714.567122691662
 30
0.0
 11
-719.9436751263617
 21
1733.043866465084
 31
0.0
  0
LINE
  5
5EC6
330
5E67
100
AcDbEntity
  8
Object
 62
     0
370
    -2
100
AcDbLine
 10
-728.3291528872195
 20
1741.584400624149
 30
0.0
 11
-731.1315516710302
 21
1744.438618740639
 31
0.0
  0
MTEXT
  5
5EC7
330
5E67
100
AcDbEntity
  8
Object
 62
     0
100
AcDbMText
 10
-701.1435100810864
 20
1719.605460809626
 30
0.0
 40
5.0
 41
0.0
 71
     5
 72
     1
  1
\A1;{\fＭＳ Ｐゴシック|b0|i0|c128|p50;F}
 11
0.7005996959526973
 21
-0.7135545291223288
 31
0.0
 73
     1
 44
1.0
1001
ACAD
1000
MTEXTBEGIN
1070
    73
1070
     1
1070
    44
1040
1.0
1070
    74
1070
     0
1000
MTEXTEND
  0
LINE
  5
5EC8
330
5E67
100
AcDbEntity
  8
Object
 62
     0
370
    -2
100
AcDbLine
 10
-725.5267541034088
 20
1738.73018250766
 30
0.0
 11
-722.7460739101724
 21
1735.898084581573
 31
0.0
  0
INSERT
  5
5EC9
330
5E67
100
AcDbEntity
  8
Object
 62
     0
370
    -2
100
AcDbBlockReference
  2
_Open30
 10
-725.5267541034088
 20
1738.73018250766
 30
0.0
 41
4.0
 42
4.0
 43
4.0
 50
314.4751375138796
  0
INSERT
  5
5ECA
330
5E67
100
AcDbEntity
  8
Object
 62
     0
370
    -2
100
AcDbBlockReference
  2
_Open30
 10
-722.7460739101724
 20
1735.898084581573
 30
0.0
 41
4.0
 42
4.0
 43
4.0
 50
134.4751375138796
  0
POINT
  5
5ECB
330
5E67
100
AcDbEntity
  8
Defpoints
 62
     0
100
AcDbPoint
 10
-722.7460739101724
 20
1735.898084581573
 30
0.0
  0
POINT
  5
5ECC
330
5E67
100
AcDbEntity
  8
Defpoints
 62
     0
100
AcDbPoint
 10
-725.5267541034088
 20
1738.73018250766
 30
0.0
  0
ENDBLK
  5
5E71
330
5E67
100
AcDbEntity
  8
0
100
AcDbBlockEnd
  0
BLOCK
  5
5E7B
330
5E72
100
AcDbEntity
  8
0
100
AcDbBlockBegin
  2
*D15
 70
     1
 10
0.0
 20
0.0
 30
0.0
  3
*D15
  1

  0
LINE
  5
5ECD
330
5E72
100
AcDbEntity
  8
Object
 62
     0
370
    -2
100
AcDbLine
 10
-789.3419745150662
 20
1715.364870644883
 30
0.0
 11
-814.5096737242592
 21
1737.346393380714
 31
0.0
  0
LINE
  5
5ECE
330
5E72
100
AcDbEntity
  8
Object
 62
     0
370
    -2
100
AcDbLine
 10
-823.5243988186585
 20
1745.219873708524
 30
0.0
 11
-826.5370899689298
 21
1747.851164652733
 31
0.0
  0
MTEXT
  5
5ECF
330
5E72
100
AcDbEntity
  8
Object
 62
     0
100
AcDbMText
 10
-789.0707676182643
 20
1720.438864289091
 30
0.0
 40
5.0
 41
0.0
 71
     5
 72
     1
  1
\A1;{\fＭＳ Ｐゴシック|b0|i0|c128|p50;E}
 11
0.7531727875678375
 21
-0.6578227360522692
 31
0.0
 73
     1
 44
1.0
1001
ACAD
1000
MTEXTBEGIN
1070
    73
1070
     1
1070
    44
1040
1.0
1070
    74
1070
     0
1000
MTEXTEND
  0
LINE
  5
5ED0
330
5E72
100
AcDbEntity
  8
Object
 62
     0
370
    -2
100
AcDbLine
 10
-820.5117076683873
 20
1742.588582764314
 30
0.0
 11
-817.5223648745305
 21
1739.977684324923
 31
0.0
  0
INSERT
  5
5ED1
330
5E72
100
AcDbEntity
  8
Object
 62
     0
370
    -2
100
AcDbBlockReference
  2
_Open30
 10
-820.5117076683873
 20
1742.588582764314
 30
0.0
 41
4.0
 42
4.0
 43
4.0
 50
318.8659670979494
  0
INSERT
  5
5ED2
330
5E72
100
AcDbEntity
  8
Object
 62
     0
370
    -2
100
AcDbBlockReference
  2
_Open30
 10
-817.5223648745305
 20
1739.977684324923
 30
0.0
 41
4.0
 42
4.0
 43
4.0
 50
138.8659670979495
  0
POINT
  5
5ED3
330
5E72
100
AcDbEntity
  8
Defpoints
 62
     0
100
AcDbPoint
 10
-817.5223648745305
 20
1739.977684324923
 30
0.0
  0
POINT
  5
5ED4
330
5E72
100
AcDbEntity
  8
Defpoints
 62
     0
100
AcDbPoint
 10
-820.5117076683873
 20
1742.588582764314
 30
0.0
  0
ENDBLK
  5
5E7C
330
5E72
100
AcDbEntity
  8
0
100
AcDbBlockEnd
  0
BLOCK
  5
5E87
330
5E7D
100
AcDbEntity
  8
0
100
AcDbBlockBegin
  2
*D16
 70
     1
 10
0.0
 20
0.0
 30
0.0
  3
*D16
  1

  0
LINE
  5
5ED5
330
5E7D
100
AcDbEntity
  8
Object
 62
     0
370
    -2
100
AcDbLine
 10
-819.0170362714589
 20
1759.073914309488
 30
0.0
 11
-819.0170362714589
 21
1762.875712703693
 31
0.0
  0
LINE
  5
5ED6
330
5E7D
100
AcDbEntity
  8
Object
 62
     0
370
    -2
100
AcDbLine
 10
-794.0170362714584
 20
1740.314133544618
 30
0.0
 11
-794.0170362714584
 21
1762.875712703693
 31
0.0
  0
LINE
  5
5ED7
330
5E7D
100
AcDbEntity
  8
Object
 62
     0
370
    -2
100
AcDbLine
 10
-815.0170362714588
 20
1761.875712703693
 30
0.0
 11
-798.0170362714584
 21
1761.875712703693
 31
0.0
  0
INSERT
  5
5ED8
330
5E7D
100
AcDbEntity
  8
Object
 62
     0
370
    -2
100
AcDbBlockReference
  2
_Open30
 10
-819.0170362714589
 20
1761.875712703693
 30
0.0
 41
4.0
 42
4.0
 43
4.0
 50
180.0
  0
INSERT
  5
5ED9
330
5E7D
100
AcDbEntity
  8
Object
 62
     0
370
    -2
100
AcDbBlockReference
  2
_Open30
 10
-794.0170362714584
 20
1761.875712703693
 30
0.0
 41
4.0
 42
4.0
 43
4.0
  0
MTEXT
  5
5EDA
330
5E7D
100
AcDbEntity
  8
Object
 62
     0
100
AcDbMText
 10
-806.5170362714587
 20
1765.875712703692
 30
0.0
 40
5.0
 41
0.0
 71
     5
 72
     1
  1
\A1;{\fＭＳ Ｐゴシック|b0|i0|c128|p50;G}
 73
     1
 44
1.0
1001
ACAD
1000
MTEXTBEGIN
1070
    73
1070
     1
1070
    44
1040
1.0
1070
    74
1070
     0
1000
MTEXTEND
  0
POINT
  5
5EDB
330
5E7D
100
AcDbEntity
  8
Defpoints
 62
     0
100
AcDbPoint
 10
-819.0170362714589
 20
1758.073914309488
 30
0.0
  0
POINT
  5
5EDC
330
5E7D
100
AcDbEntity
  8
Defpoints
 62
     0
100
AcDbPoint
 10
-794.0170362714584
 20
1739.314133544618
 30
0.0
  0
POINT
  5
5EDD
330
5E7D
100
AcDbEntity
  8
Defpoints
 62
     0
100
AcDbPoint
 10
-794.0170362714584
 20
1761.875712703693
 30
0.0
  0
ENDBLK
  5
5E88
330
5E7D
100
AcDbEntity
  8
0
100
AcDbBlockEnd
  0
BLOCK
  5
5E93
330
5E89
100
AcDbEntity
  8
0
100
AcDbBlockBegin
  2
*D17
 70
     1
 10
0.0
 20
0.0
 30
0.0
  3
*D17
  1

  0
LINE
  5
5EDE
330
5E89
100
AcDbEntity
  8
Object
 62
     0
370
    -2
100
AcDbLine
 10
-844.017036271459
 20
1736.314133544619
 30
0.0
 11
-844.017036271459
 21
1762.875712703693
 31
0.0
  0
LINE
  5
5EDF
330
5E89
100
AcDbEntity
  8
Object
 62
     0
370
    -2
100
AcDbLine
 10
-819.0170362714589
 20
1742.283133544618
 30
0.0
 11
-819.0170362714589
 21
1762.875712703693
 31
0.0
  0
LINE
  5
5EE0
330
5E89
100
AcDbEntity
  8
Object
 62
     0
370
    -2
100
AcDbLine
 10
-840.0170362714591
 20
1761.875712703693
 30
0.0
 11
-823.0170362714588
 21
1761.875712703693
 31
0.0
  0
INSERT
  5
5EE1
330
5E89
100
AcDbEntity
  8
Object
 62
     0
370
    -2
100
AcDbBlockReference
  2
_Open30
 10
-844.017036271459
 20
1761.875712703693
 30
0.0
 41
4.0
 42
4.0
 43
4.0
 50
180.0
  0
INSERT
  5
5EE2
330
5E89
100
AcDbEntity
  8
Object
 62
     0
370
    -2
100
AcDbBlockReference
  2
_Open30
 10
-819.0170362714589
 20
1761.875712703693
 30
0.0
 41
4.0
 42
4.0
 43
4.0
  0
MTEXT
  5
5EE3
330
5E89
100
AcDbEntity
  8
Object
 62
     0
100
AcDbMText
 10
-831.517036271459
 20
1765.875712703692
 30
0.0
 40
5.0
 41
0.0
 71
     5
 72
     1
  1
\A1;{\fＭＳ Ｐゴシック|b0|i0|c128|p50;G}
 73
     1
 44
1.0
1001
ACAD
1000
MTEXTBEGIN
1070
    73
1070
     1
1070
    44
1040
1.0
1070
    74
1070
     0
1000
MTEXTEND
  0
POINT
  5
5EE4
330
5E89
100
AcDbEntity
  8
Defpoints
 62
     0
100
AcDbPoint
 10
-844.017036271459
 20
1735.314133544619
 30
0.0
  0
POINT
  5
5EE5
330
5E89
100
AcDbEntity
  8
Defpoints
 62
     0
100
AcDbPoint
 10
-819.0170362714589
 20
1741.283133544618
 30
0.0
  0
POINT
  5
5EE6
330
5E89
100
AcDbEntity
  8
Defpoints
 62
     0
100
AcDbPoint
 10
-819.0170362714589
 20
1761.875712703693
 30
0.0
  0
ENDBLK
  5
5E94
330
5E89
100
AcDbEntity
  8
0
100
AcDbBlockEnd
  0
BLOCK
  5
5E9F
330
5E95
100
AcDbEntity
  8
0
100
AcDbBlockBegin
  2
*D18
 70
     1
 10
0.0
 20
0.0
 30
0.0
  3
*D18
  1

  0
LINE
  5
5EE7
330
5E95
100
AcDbEntity
  8
Object
 62
     0
370
    -2
100
AcDbLine
 10
-823.9860362714589
 20
1752.197883544619
 30
0.0
 11
-857.3413033304316
 21
1752.197883544619
 31
0.0
  0
LINE
  5
5EE8
330
5E95
100
AcDbEntity
  8
Object
 62
     0
370
    -2
100
AcDbLine
 10
-820.0170362714587
 20
1741.283133544618
 30
0.0
 11
-857.3413033304316
 21
1741.283133544618
 31
0.0
  0
LINE
  5
5EE9
330
5E95
100
AcDbEntity
  8
Object
 62
     0
370
    -2
100
AcDbLine
 10
-856.3413033304316
 20
1748.197883544619
 30
0.0
 11
-856.3413033304316
 21
1745.283133544617
 31
0.0
  0
MTEXT
  5
5EEA
330
5E95
100
AcDbEntity
  8
Object
 62
     0
100
AcDbMText
 10
-861.5648231344787
 20
1747.049465510889
 30
0.0
 40
5.0
 41
0.0
 71
     5
 72
     1
  1
\A1;{\fＭＳ Ｐゴシック|b0|i0|c128|p50;C}
 11
0.9999999998476914
 21
-0.000017453292519
 31
0.0
 73
     1
 44
1.0
1001
ACAD
1000
MTEXTBEGIN
1070
    73
1070
     1
1070
    44
1040
1.0
1070
    74
1070
     0
1000
MTEXTEND
  0
INSERT
  5
5EEB
330
5E95
100
AcDbEntity
  8
Object
 62
     0
370
    -2
100
AcDbBlockReference
  2
_Open30
 10
-856.3413033304316
 20
1752.197883544619
 30
0.0
 41
4.0
 42
4.0
 43
4.0
 50
90.0
  0
INSERT
  5
5EEC
330
5E95
100
AcDbEntity
  8
Object
 62
     0
370
    -2
100
AcDbBlockReference
  2
_Open30
 10
-856.3413033304316
 20
1741.283133544618
 30
0.0
 41
4.0
 42
4.0
 43
4.0
 50
270.0
  0
POINT
  5
5EED
330
5E95
100
AcDbEntity
  8
Defpoints
 62
     0
100
AcDbPoint
 10
-822.9860362714587
 20
1752.197883544619
 30
0.0
  0
POINT
  5
5EEE
330
5E95
100
AcDbEntity
  8
Defpoints
 62
     0
100
AcDbPoint
 10
-819.0170362714589
 20
1741.283133544618
 30
0.0
  0
POINT
  5
5EEF
330
5E95
100
AcDbEntity
  8
Defpoints
 62
     0
100
AcDbPoint
 10
-856.3413033304316
 20
1741.283133544618
 30
0.0
  0
ENDBLK
  5
5EA0
330
5E95
100
AcDbEntity
  8
0
100
AcDbBlockEnd
  0
BLOCK
  5
5EAB
330
5EA1
100
AcDbEntity
  8
0
100
AcDbBlockBegin
  2
*D19
 70
     1
 10
0.0
 20
0.0
 30
0.0
  3
*D19
  1

  0
LINE
  5
5EF0
330
5EA1
100
AcDbEntity
  8
Object
 62
     0
370
    -2
100
AcDbLine
 10
-823.9860362714589
 20
1752.197883544619
 30
0.0
 11
-870.4481712837916
 21
1752.197883544619
 31
0.0
  0
LINE
  5
5EF1
330
5EA1
100
AcDbEntity
  8
Object
 62
     0
370
    -2
100
AcDbLine
 10
-820.0170362714587
 20
1678.197883544618
 30
0.0
 11
-870.4481712837916
 21
1678.197883544618
 31
0.0
  0
LINE
  5
5EF2
330
5EA1
100
AcDbEntity
  8
Object
 62
     0
370
    -2
100
AcDbLine
 10
-869.4481712837916
 20
1748.197883544619
 30
0.0
 11
-869.4481712837916
 21
1682.197883544619
 31
0.0
  0
MTEXT
  5
5EF3
330
5EA1
100
AcDbEntity
  8
Object
 62
     0
100
AcDbMText
 10
-872.9820854983971
 20
1714.980213616856
 30
0.0
 40
5.0
 41
0.0
 71
     5
 72
     1
  1
\A1;{\fＭＳ Ｐゴシック|b0|i0|c128|p50;A}
 11
0.9999999998476914
 21
-0.000017453292519
 31
0.0
 73
     1
 44
1.0
1001
ACAD
1000
MTEXTBEGIN
1070
    73
1070
     1
1070
    44
1040
1.0
1070
    74
1070
     0
1000
MTEXTEND
  0
INSERT
  5
5EF4
330
5EA1
100
AcDbEntity
  8
Object
 62
     0
370
    -2
100
AcDbBlockReference
  2
_Open30
 10
-869.4481712837916
 20
1752.197883544619
 30
0.0
 41
4.0
 42
4.0
 43
4.0
 50
90.0
  0
INSERT
  5
5EF5
330
5EA1
100
AcDbEntity
  8
Object
 62
     0
370
    -2
100
AcDbBlockReference
  2
_Open30
 10
-869.4481712837916
 20
1678.197883544618
 30
0.0
 41
4.0
 42
4.0
 43
4.0
 50
270.0
  0
POINT
  5
5EF6
330
5EA1
100
AcDbEntity
  8
Defpoints
 62
     0
100
AcDbPoint
 10
-822.9860362714587
 20
1752.197883544619
 30
0.0
  0
POINT
  5
5EF7
330
5EA1
100
AcDbEntity
  8
Defpoints
 62
     0
100
AcDbPoint
 10
-819.0170362714589
 20
1678.197883544618
 30
0.0
  0
POINT
  5
5EF8
330
5EA1
100
AcDbEntity
  8
Defpoints
 62
     0
100
AcDbPoint
 10
-869.4481712837916
 20
1678.197883544618
 30
0.0
  0
ENDBLK
  5
5EAC
330
5EA1
100
AcDbEntity
  8
0
100
AcDbBlockEnd
  0
BLOCK
  5
5EB7
330
5EAD
100
AcDbEntity
  8
0
100
AcDbBlockBegin
  2
*D20
 70
     1
 10
0.0
 20
0.0
 30
0.0
  3
*D20
  1

  0
LINE
  5
5EF9
330
5EAD
100
AcDbEntity
  8
Object
 62
     0
370
    -2
100
AcDbLine
 10
-820.0170362714587
 20
1741.283133544618
 30
0.0
 11
-857.3413033304316
 21
1741.283133544618
 31
0.0
  0
LINE
  5
5EFA
330
5EAD
100
AcDbEntity
  8
Object
 62
     0
370
    -2
100
AcDbLine
 10
-820.0170362714587
 20
1678.197883544618
 30
0.0
 11
-857.3413033304316
 21
1678.197883544618
 31
0.0
  0
LINE
  5
5EFB
330
5EAD
100
AcDbEntity
  8
Object
 62
     0
370
    -2
100
AcDbLine
 10
-856.3413033304316
 20
1737.283133544618
 30
0.0
 11
-856.3413033304316
 21
1682.197883544619
 31
0.0
  0
MTEXT
  5
5EFC
330
5EAD
100
AcDbEntity
  8
Object
 62
     0
100
AcDbMText
 10
-860.2056251251431
 20
1709.272973904568
 30
0.0
 40
5.0
 41
0.0
 71
     5
 72
     1
  1
\A1;{\fＭＳ Ｐゴシック|b0|i0|c128|p50;B}
 11
0.9999999998476914
 21
-0.000017453292519
 31
0.0
 73
     1
 44
1.0
1001
ACAD
1000
MTEXTBEGIN
1070
    73
1070
     1
1070
    44
1040
1.0
1070
    74
1070
     0
1000
MTEXTEND
  0
INSERT
  5
5EFD
330
5EAD
100
AcDbEntity
  8
Object
 62
     0
370
    -2
100
AcDbBlockReference
  2
_Open30
 10
-856.3413033304316
 20
1741.283133544618
 30
0.0
 41
4.0
 42
4.0
 43
4.0
 50
90.0
  0
INSERT
  5
5EFE
330
5EAD
100
AcDbEntity
  8
Object
 62
     0
370
    -2
100
AcDbBlockReference
  2
_Open30
 10
-856.3413033304316
 20
1678.197883544618
 30
0.0
 41
4.0
 42
4.0
 43
4.0
 50
270.0
  0
POINT
  5
5EFF
330
5EAD
100
AcDbEntity
  8
Defpoints
 62
     0
100
AcDbPoint
 10
-819.0170362714589
 20
1741.283133544618
 30
0.0
  0
POINT
  5
5F00
330
5EAD
100
AcDbEntity
  8
Defpoints
 62
     0
100
AcDbPoint
 10
-819.0170362714589
 20
1678.197883544618
 30
0.0
  0
POINT
  5
5F01
330
5EAD
100
AcDbEntity
  8
Defpoints
 62
     0
100
AcDbPoint
 10
-856.3413033304316
 20
1678.197883544618
 30
0.0
  0
ENDBLK
  5
5EB8
330
5EAD
100
AcDbEntity
  8
0
100
AcDbBlockEnd
  0
BLOCK
  5
5EC3
330
5EB9
100
AcDbEntity
  8
0
100
AcDbBlockBegin
  2
*D21
 70
     1
 10
0.0
 20
0.0
 30
0.0
  3
*D21
  1

  0
LINE
  5
5F02
330
5EB9
100
AcDbEntity
  8
Object
 62
     0
370
    -2
100
AcDbLine
 10
-726.1209140067908
 20
1740.695533544618
 30
0.0
 11
-726.1209140067908
 21
1757.972965663148
 31
0.0
  0
LINE
  5
5F03
330
5EB9
100
AcDbEntity
  8
Object
 62
     0
370
    -2
100
AcDbLine
 10
-754.1209140067905
 20
1739.302508544618
 30
0.0
 11
-754.1209140067905
 21
1757.972965663148
 31
0.0
  0
LINE
  5
5F04
330
5EB9
100
AcDbEntity
  8
Object
 62
     0
370
    -2
100
AcDbLine
 10
-730.1209140067908
 20
1756.972965663148
 30
0.0
 11
-750.1209140067905
 21
1756.972965663148
 31
0.0
  0
INSERT
  5
5F05
330
5EB9
100
AcDbEntity
  8
Object
 62
     0
370
    -2
100
AcDbBlockReference
  2
_Open30
 10
-726.1209140067908
 20
1756.972965663148
 30
0.0
 41
4.0
 42
4.0
 43
4.0
  0
INSERT
  5
5F06
330
5EB9
100
AcDbEntity
  8
Object
 62
     0
370
    -2
100
AcDbBlockReference
  2
_Open30
 10
-754.1209140067905
 20
1756.972965663148
 30
0.0
 41
4.0
 42
4.0
 43
4.0
 50
180.0
  0
MTEXT
  5
5F07
330
5EB9
100
AcDbEntity
  8
Object
 62
     0
100
AcDbMText
 10
-740.1209140067908
 20
1760.972965663148
 30
0.0
 40
5.0
 41
0.0
 71
     5
 72
     1
  1
\A1;{\fＭＳ Ｐゴシック|b0|i0|c128|p50;D}
 73
     1
 44
1.0
1001
ACAD
1000
MTEXTBEGIN
1070
    73
1070
     1
1070
    44
1040
1.0
1070
    74
1070
     0
1000
MTEXTEND
  0
POINT
  5
5F08
330
5EB9
100
AcDbEntity
  8
Defpoints
 62
     0
100
AcDbPoint
 10
-726.1209140067908
 20
1739.695533544618
 30
0.0
  0
POINT
  5
5F09
330
5EB9
100
AcDbEntity
  8
Defpoints
 62
     0
100
AcDbPoint
 10
-754.1209140067905
 20
1738.302508544618
 30
0.0
  0
POINT
  5
5F0A
330
5EB9
100
AcDbEntity
  8
Defpoints
 62
     0
100
AcDbPoint
 10
-754.1209140067905
 20
1756.972965663148
 30
0.0
  0
ENDBLK
  5
5EC4
330
5EB9
100
AcDbEntity
  8
0
100
AcDbBlockEnd
  0
BLOCK
  5
5F17
330
5F0B
100
AcDbEntity
  8
0
100
AcDbBlockBegin
  2
*D22
 70
     1
 10
0.0
 20
0.0
 30
0.0
  3
*D22
  1

  0
LINE
  5
5F0C
330
5F0B
100
AcDbEntity
  8
Object
 62
     0
370
    -2
100
AcDbLine
 10
-784.2398432185228
 20
1735.329633544619
 30
0.0
 11
-776.8000398680181
 21
1735.329633544619
 31
0.0
  0
LINE
  5
5F0D
330
5F0B
100
AcDbEntity
  8
Object
 62
     0
370
    -2
100
AcDbLine
 10
-781.8254666077046
 20
1739.298633544619
 30
0.0
 11
-776.8000398680181
 21
1739.298633544619
 31
0.0
  0
LINE
  5
5F0E
330
5F0B
100
AcDbEntity
  8
Object
 62
     0
370
    -2
100
AcDbLine
 10
-777.800039868018
 20
1731.329633544618
 30
0.0
 11
-777.800039868018
 21
1727.329633544618
 31
0.0
  0
LINE
  5
5F0F
330
5F0B
100
AcDbEntity
  8
Object
 62
     0
370
    -2
100
AcDbLine
 10
-777.800039868018
 20
1743.298633544618
 30
0.0
 11
-777.800039868018
 21
1747.298633544619
 31
0.0
  0
MTEXT
  5
5F10
330
5F0B
100
AcDbEntity
  8
Object
 62
     0
100
AcDbMText
 10
-777.8382416107504
 20
1761.1816775997
 30
0.0
 40
5.0
 41
0.0
 71
     5
 72
     1
  1
\A1;F
 11
0.9999999998476914
 21
-0.000017453292519
 31
0.0
 73
     1
 44
1.0
1001
ACAD
1000
MTEXTBEGIN
1070
    73
1070
     1
1070
    44
1040
1.0
1070
    74
1070
     0
1000
MTEXTEND
  0
LINE
  5
5F11
330
5F0B
100
AcDbEntity
  8
Object
 62
     0
370
    -2
100
AcDbLine
 10
-777.800039868018
 20
1735.329633544619
 30
0.0
 11
-777.800039868018
 21
1739.298633544619
 31
0.0
  0
INSERT
  5
5F12
330
5F0B
100
AcDbEntity
  8
Object
 62
     0
370
    -2
100
AcDbBlockReference
  2
_Open30
 10
-777.800039868018
 20
1735.329633544619
 30
0.0
 41
4.0
 42
4.0
 43
4.0
 50
90.0
  0
INSERT
  5
5F13
330
5F0B
100
AcDbEntity
  8
Object
 62
     0
370
    -2
100
AcDbBlockReference
  2
_Open30
 10
-777.800039868018
 20
1739.298633544619
 30
0.0
 41
4.0
 42
4.0
 43
4.0
 50
270.0
  0
POINT
  5
5F14
330
5F0B
100
AcDbEntity
  8
Defpoints
 62
     0
100
AcDbPoint
 10
-785.2398432185228
 20
1735.329633544619
 30
0.0
  0
POINT
  5
5F15
330
5F0B
100
AcDbEntity
  8
Defpoints
 62
     0
100
AcDbPoint
 10
-782.8254666077046
 20
1739.298633544619
 30
0.0
  0
POINT
  5
5F16
330
5F0B
100
AcDbEntity
  8
Defpoints
 62
     0
100
AcDbPoint
 10
-777.800039868018
 20
1739.298633544619
 30
0.0
  0
ENDBLK
  5
5F18
330
5F0B
100
AcDbEntity
  8
0
100
AcDbBlockEnd
  0
BLOCK
  5
5F25
330
5F19
100
AcDbEntity
  8
0
100
AcDbBlockBegin
  2
*D23
 70
     1
 10
0.0
 20
0.0
 30
0.0
  3
*D23
  1

  0
LINE
  5
5F1A
330
5F19
100
AcDbEntity
  8
Object
 62
     0
370
    -2
100
AcDbLine
 10
-704.7187112853094
 20
1739.298633544619
 30
0.0
 11
-696.3699864662093
 21
1739.298633544619
 31
0.0
  0
LINE
  5
5F1B
330
5F19
100
AcDbEntity
  8
Object
 62
     0
370
    -2
100
AcDbLine
 10
-702.3043346744913
 20
1743.267633544619
 30
0.0
 11
-696.3699864662093
 21
1743.267633544619
 31
0.0
  0
LINE
  5
5F1C
330
5F19
100
AcDbEntity
  8
Object
 62
     0
370
    -2
100
AcDbLine
 10
-697.3699864662092
 20
1735.298633544619
 30
0.0
 11
-697.3699864662092
 21
1731.298633544619
 31
0.0
  0
LINE
  5
5F1D
330
5F19
100
AcDbEntity
  8
Object
 62
     0
370
    -2
100
AcDbLine
 10
-697.3699864662092
 20
1747.267633544619
 30
0.0
 11
-697.3699864662092
 21
1751.267633544619
 31
0.0
  0
MTEXT
  5
5F1E
330
5F19
100
AcDbEntity
  8
Object
 62
     0
100
AcDbMText
 10
-697.9174126841603
 20
1763.08409083713
 30
0.0
 40
5.0
 41
0.0
 71
     5
 72
     1
  1
\A1;E
 11
0.9999999998476914
 21
-0.000017453292519
 31
0.0
 73
     1
 44
1.0
1001
ACAD
1000
MTEXTBEGIN
1070
    73
1070
     1
1070
    44
1040
1.0
1070
    74
1070
     0
1000
MTEXTEND
  0
LINE
  5
5F1F
330
5F19
100
AcDbEntity
  8
Object
 62
     0
370
    -2
100
AcDbLine
 10
-697.3699864662092
 20
1739.298633544619
 30
0.0
 11
-697.3699864662092
 21
1743.267633544619
 31
0.0
  0
INSERT
  5
5F20
330
5F19
100
AcDbEntity
  8
Object
 62
     0
370
    -2
100
AcDbBlockReference
  2
_Open30
 10
-697.3699864662092
 20
1739.298633544619
 30
0.0
 41
4.0
 42
4.0
 43
4.0
 50
90.0
  0
INSERT
  5
5F21
330
5F19
100
AcDbEntity
  8
Object
 62
     0
370
    -2
100
AcDbBlockReference
  2
_Open30
 10
-697.3699864662092
 20
1743.267633544619
 30
0.0
 41
4.0
 42
4.0
 43
4.0
 50
270.0
  0
POINT
  5
5F22
330
5F19
100
AcDbEntity
  8
Defpoints
 62
     0
100
AcDbPoint
 10
-705.7187112853094
 20
1739.298633544619
 30
0.0
  0
POINT
  5
5F23
330
5F19
100
AcDbEntity
  8
Defpoints
 62
     0
100
AcDbPoint
 10
-703.3043346744912
 20
1743.267633544619
 30
0.0
  0
POINT
  5
5F24
330
5F19
100
AcDbEntity
  8
Defpoints
 62
     0
100
AcDbPoint
 10
-697.3699864662092
 20
1743.267633544619
 30
0.0
  0
ENDBLK
  5
5F26
330
5F19
100
AcDbEntity
  8
0
100
AcDbBlockEnd
  0
BLOCK
  5
5FAD
330
5FA4
100
AcDbEntity
  8
0
100
AcDbBlockBegin
  2
*D24
 70
     1
 10
0.0
 20
0.0
 30
0.0
  3
*D24
  1

  0
LINE
  5
6320
330
5FA4
100
AcDbEntity
  8
Object
 62
     0
370
    -2
100
AcDbLine
 10
-360.4622047579096
 20
1917.390364083399
 30
0.0
 11
-356.4622047579094
 21
1917.390364083399
 31
0.0
  0
LINE
  5
6321
330
5FA4
100
AcDbEntity
  8
Object
 62
     0
370
    -2
100
AcDbLine
 10
-356.4622047579094
 20
1917.390364083399
 30
0.0
 11
-346.1002983135097
 21
1935.955394349121
 31
0.0
  0
LINE
  5
6322
330
5FA4
100
AcDbEntity
  8
Object
 62
     0
370
    -2
100
AcDbLine
 10
-339.5899741188814
 20
1947.619692455023
 30
0.0
 11
-337.6405053093147
 21
1951.112480934236
 31
0.0
  0
MTEXT
  5
6323
330
5FA4
100
AcDbEntity
  8
Object
 62
     0
100
AcDbMText
 10
-364.4124888488187
 20
1917.390364083399
 30
0.0
 40
7.5
 41
0.0
 71
     5
 72
     1
  1
\A1;{\fＭＳ Ｐゴシック|b0|i0|c128|p50;F}
 11
0.9999999998476914
 21
-0.000017453292519
 31
0.0
 73
     1
 44
1.0
1001
ACAD
1000
MTEXTBEGIN
1070
    73
1070
     1
1070
    44
1040
1.0
1070
    74
1070
     0
1000
MTEXTEND
  0
LINE
  5
6324
330
5FA4
100
AcDbEntity
  8
Object
 62
     0
370
    -2
100
AcDbLine
 10
-341.539442928448
 20
1944.126903975809
 30
0.0
 11
-344.1508295039431
 21
1939.448182828335
 31
0.0
  0
INSERT
  5
6325
330
5FA4
100
AcDbEntity
  8
Object
 62
     0
370
    -2
100
AcDbBlockReference
  2
_Open30
 10
-341.539442928448
 20
1944.126903975809
 30
0.0
 41
4.0
 42
4.0
 43
4.0
 50
240.8323181744966
  0
INSERT
  5
6326
330
5FA4
100
AcDbEntity
  8
Object
 62
     0
370
    -2
100
AcDbBlockReference
  2
_Open30
 10
-344.1508295039431
 20
1939.448182828335
 30
0.0
 41
4.0
 42
4.0
 43
4.0
 50
60.83231817449663
  0
POINT
  5
6327
330
5FA4
100
AcDbEntity
  8
Defpoints
 62
     0
100
AcDbPoint
 10
-344.1508295039431
 20
1939.448182828335
 30
0.0
  0
POINT
  5
6328
330
5FA4
100
AcDbEntity
  8
Defpoints
 62
     0
100
AcDbPoint
 10
-341.539442928448
 20
1944.126903975809
 30
0.0
  0
ENDBLK
  5
5FAE
330
5FA4
100
AcDbEntity
  8
0
100
AcDbBlockEnd
  0
BLOCK
  5
5FB8
330
5FAF
100
AcDbEntity
  8
0
100
AcDbBlockBegin
  2
*D25
 70
     1
 10
0.0
 20
0.0
 30
0.0
  3
*D25
  1

  0
LINE
  5
62E0
330
5FAF
100
AcDbEntity
  8
Object
 62
     0
370
    -2
100
AcDbLine
 10
-448.9880257572955
 20
1917.643700354165
 30
0.0
 11
-452.9880257572953
 21
1917.643700354165
 31
0.0
  0
LINE
  5
62E1
330
5FAF
100
AcDbEntity
  8
Object
 62
     0
370
    -2
100
AcDbLine
 10
-452.9880257572953
 20
1917.643700354165
 30
0.0
 11
-467.1984887760311
 21
1941.413001906494
 31
0.0
  0
LINE
  5
62E2
330
5FAF
100
AcDbEntity
  8
Object
 62
     0
370
    -2
100
AcDbLine
 10
-474.0530612855697
 20
1952.878384897655
 30
0.0
 11
-476.1056127270606
 21
1956.31160970533
 31
0.0
  0
MTEXT
  5
62E3
330
5FAF
100
AcDbEntity
  8
Object
 62
     0
100
AcDbMText
 10
-445.0377416663862
 20
1917.643700354165
 30
0.0
 40
7.5
 41
0.0
 71
     5
 72
     1
  1
\A1;{\fＭＳ Ｐゴシック|b0|i0|c128|p50;E}
 11
0.9999999998476914
 21
-0.000017453292519
 31
0.0
 73
     1
 44
1.0
1001
ACAD
1000
MTEXTBEGIN
1070
    73
1070
     1
1070
    44
1040
1.0
1070
    74
1070
     0
1000
MTEXTEND
  0
LINE
  5
62E4
330
5FAF
100
AcDbEntity
  8
Object
 62
     0
370
    -2
100
AcDbLine
 10
-472.0005098440786
 20
1949.44516008998
 30
0.0
 11
-469.2510402175221
 21
1944.846226714169
 31
0.0
  0
INSERT
  5
62E5
330
5FAF
100
AcDbEntity
  8
Object
 62
     0
370
    -2
100
AcDbBlockReference
  2
_Open30
 10
-472.0005098440786
 20
1949.44516008998
 30
0.0
 41
4.0
 42
4.0
 43
4.0
 50
300.8730680147936
  0
INSERT
  5
62E6
330
5FAF
100
AcDbEntity
  8
Object
 62
     0
370
    -2
100
AcDbBlockReference
  2
_Open30
 10
-469.2510402175221
 20
1944.846226714169
 30
0.0
 41
4.0
 42
4.0
 43
4.0
 50
120.8730680147936
  0
POINT
  5
62E7
330
5FAF
100
AcDbEntity
  8
Defpoints
 62
     0
100
AcDbPoint
 10
-469.2510402175221
 20
1944.846226714169
 30
0.0
  0
POINT
  5
62E8
330
5FAF
100
AcDbEntity
  8
Defpoints
 62
     0
100
AcDbPoint
 10
-472.0005098440786
 20
1949.44516008998
 30
0.0
  0
ENDBLK
  5
5FB9
330
5FAF
100
AcDbEntity
  8
0
100
AcDbBlockEnd
  0
BLOCK
  5
5FC4
330
5FBA
100
AcDbEntity
  8
0
100
AcDbBlockBegin
  2
*D26
 70
     1
 10
0.0
 20
0.0
 30
0.0
  3
*D26
  1

  0
LINE
  5
630D
330
5FBA
100
AcDbEntity
  8
Object
 62
     0
370
    -2
100
AcDbLine
 10
-470.6257750308004
 20
1970.813247434647
 30
0.0
 11
-470.6257750308004
 21
1972.980605902074
 31
0.0
  0
LINE
  5
630E
330
5FBA
100
AcDbEntity
  8
Object
 62
     0
370
    -2
100
AcDbLine
 10
-436.8757750307997
 20
1945.487543402073
 30
0.0
 11
-436.8757750307997
 21
1972.980605902074
 31
0.0
  0
LINE
  5
630F
330
5FBA
100
AcDbEntity
  8
Object
 62
     0
370
    -2
100
AcDbLine
 10
-466.6257750308004
 20
1971.980605902073
 30
0.0
 11
-440.8757750307997
 21
1971.980605902073
 31
0.0
  0
INSERT
  5
6310
330
5FBA
100
AcDbEntity
  8
Object
 62
     0
370
    -2
100
AcDbBlockReference
  2
_Open30
 10
-470.6257750308004
 20
1971.980605902073
 30
0.0
 41
4.0
 42
4.0
 43
4.0
 50
180.0
  0
INSERT
  5
6311
330
5FBA
100
AcDbEntity
  8
Object
 62
     0
370
    -2
100
AcDbBlockReference
  2
_Open30
 10
-436.8757750307997
 20
1971.980605902073
 30
0.0
 41
4.0
 42
4.0
 43
4.0
  0
MTEXT
  5
6312
330
5FBA
100
AcDbEntity
  8
Object
 62
     0
100
AcDbMText
 10
-453.7507750308001
 20
1977.230605902073
 30
0.0
 40
7.5
 41
0.0
 71
     5
 72
     1
  1
\A1;{\fＭＳ Ｐゴシック|b0|i0|c128|p50;G}
 73
     1
 44
1.0
1001
ACAD
1000
MTEXTBEGIN
1070
    73
1070
     1
1070
    44
1040
1.0
1070
    74
1070
     0
1000
MTEXTEND
  0
POINT
  5
6313
330
5FBA
100
AcDbEntity
  8
Defpoints
 62
     0
100
AcDbPoint
 10
-470.6257750308004
 20
1969.813247434647
 30
0.0
  0
POINT
  5
6314
330
5FBA
100
AcDbEntity
  8
Defpoints
 62
     0
100
AcDbPoint
 10
-436.8757750307997
 20
1944.487543402073
 30
0.0
  0
POINT
  5
6315
330
5FBA
100
AcDbEntity
  8
Defpoints
 62
     0
100
AcDbPoint
 10
-436.8757750307997
 20
1971.980605902073
 30
0.0
  0
ENDBLK
  5
5FC5
330
5FBA
100
AcDbEntity
  8
0
100
AcDbBlockEnd
  0
BLOCK
  5
5FD0
330
5FC6
100
AcDbEntity
  8
0
100
AcDbBlockBegin
  2
*D27
 70
     1
 10
0.0
 20
0.0
 30
0.0
  3
*D27
  1

  0
LINE
  5
6316
330
5FC6
100
AcDbEntity
  8
Object
 62
     0
370
    -2
100
AcDbLine
 10
-504.3757750308006
 20
1940.087543402074
 30
0.0
 11
-504.3757750308006
 21
1972.980605902074
 31
0.0
  0
LINE
  5
6317
330
5FC6
100
AcDbEntity
  8
Object
 62
     0
370
    -2
100
AcDbLine
 10
-470.6257750308004
 20
1948.145693402073
 30
0.0
 11
-470.6257750308004
 21
1972.980605902074
 31
0.0
  0
LINE
  5
6318
330
5FC6
100
AcDbEntity
  8
Object
 62
     0
370
    -2
100
AcDbLine
 10
-500.3757750308006
 20
1971.980605902073
 30
0.0
 11
-474.6257750308004
 21
1971.980605902073
 31
0.0
  0
INSERT
  5
6319
330
5FC6
100
AcDbEntity
  8
Object
 62
     0
370
    -2
100
AcDbBlockReference
  2
_Open30
 10
-504.3757750308006
 20
1971.980605902073
 30
0.0
 41
4.0
 42
4.0
 43
4.0
 50
180.0
  0
INSERT
  5
631A
330
5FC6
100
AcDbEntity
  8
Object
 62
     0
370
    -2
100
AcDbBlockReference
  2
_Open30
 10
-470.6257750308004
 20
1971.980605902073
 30
0.0
 41
4.0
 42
4.0
 43
4.0
  0
MTEXT
  5
631B
330
5FC6
100
AcDbEntity
  8
Object
 62
     0
100
AcDbMText
 10
-487.5007750308005
 20
1977.230605902073
 30
0.0
 40
7.5
 41
0.0
 71
     5
 72
     1
  1
\A1;{\fＭＳ Ｐゴシック|b0|i0|c128|p50;G}
 73
     1
 44
1.0
1001
ACAD
1000
MTEXTBEGIN
1070
    73
1070
     1
1070
    44
1040
1.0
1070
    74
1070
     0
1000
MTEXTEND
  0
POINT
  5
631C
330
5FC6
100
AcDbEntity
  8
Defpoints
 62
     0
100
AcDbPoint
 10
-504.3757750308006
 20
1939.087543402074
 30
0.0
  0
POINT
  5
631D
330
5FC6
100
AcDbEntity
  8
Defpoints
 62
     0
100
AcDbPoint
 10
-470.6257750308004
 20
1947.145693402073
 30
0.0
  0
POINT
  5
631E
330
5FC6
100
AcDbEntity
  8
Defpoints
 62
     0
100
AcDbPoint
 10
-470.6257750308004
 20
1971.980605902073
 30
0.0
  0
ENDBLK
  5
5FD1
330
5FC6
100
AcDbEntity
  8
0
100
AcDbBlockEnd
  0
BLOCK
  5
5FDC
330
5FD2
100
AcDbEntity
  8
0
100
AcDbBlockBegin
  2
*D28
 70
     1
 10
0.0
 20
0.0
 30
0.0
  3
*D28
  1

  0
LINE
  5
618D
330
5FD2
100
AcDbEntity
  8
Object
 62
     0
370
    -2
100
AcDbLine
 10
-476.9839250308002
 20
1961.880605902074
 30
0.0
 11
-522.0135355604136
 21
1961.880605902074
 31
0.0
  0
LINE
  5
618E
330
5FD2
100
AcDbEntity
  8
Object
 62
     0
370
    -2
100
AcDbLine
 10
-471.6257750308002
 20
1947.145693402073
 30
0.0
 11
-522.0135355604136
 21
1947.145693402074
 31
0.0
  0
LINE
  5
618F
330
5FD2
100
AcDbEntity
  8
Object
 62
     0
370
    -2
100
AcDbLine
 10
-521.0135355604136
 20
1957.880605902074
 30
0.0
 11
-521.0135355604136
 21
1951.145693402074
 31
0.0
  0
MTEXT
  5
6190
330
5FD2
100
AcDbEntity
  8
Object
 62
     0
100
AcDbMText
 10
-528.0652872958771
 20
1954.930241556539
 30
0.0
 40
7.5
 41
0.0
 71
     5
 72
     1
  1
\A1;{\fＭＳ Ｐゴシック|b0|i0|c128|p50;C}
 11
0.9999999998476914
 21
-0.000017453292519
 31
0.0
 73
     1
 44
1.0
1001
ACAD
1000
MTEXTBEGIN
1070
    73
1070
     1
1070
    44
1040
1.0
1070
    74
1070
     0
1000
MTEXTEND
  0
INSERT
  5
6191
330
5FD2
100
AcDbEntity
  8
Object
 62
     0
370
    -2
100
AcDbBlockReference
  2
_Open30
 10
-521.0135355604136
 20
1961.880605902074
 30
0.0
 41
4.0
 42
4.0
 43
4.0
 50
90.0
  0
INSERT
  5
6192
330
5FD2
100
AcDbEntity
  8
Object
 62
     0
370
    -2
100
AcDbBlockReference
  2
_Open30
 10
-521.0135355604136
 20
1947.145693402074
 30
0.0
 41
4.0
 42
4.0
 43
4.0
 50
270.0
  0
POINT
  5
6193
330
5FD2
100
AcDbEntity
  8
Defpoints
 62
     0
100
AcDbPoint
 10
-475.9839250308003
 20
1961.880605902074
 30
0.0
  0
POINT
  5
6194
330
5FD2
100
AcDbEntity
  8
Defpoints
 62
     0
100
AcDbPoint
 10
-470.6257750308004
 20
1947.145693402073
 30
0.0
  0
POINT
  5
6195
330
5FD2
100
AcDbEntity
  8
Defpoints
 62
     0
100
AcDbPoint
 10
-521.0135355604136
 20
1947.145693402074
 30
0.0
  0
ENDBLK
  5
5FDD
330
5FD2
100
AcDbEntity
  8
0
100
AcDbBlockEnd
  0
BLOCK
  5
5FE8
330
5FDE
100
AcDbEntity
  8
0
100
AcDbBlockBegin
  2
*D29
 70
     1
 10
0.0
 20
0.0
 30
0.0
  3
*D29
  1

  0
LINE
  5
6359
330
5FDE
100
AcDbEntity
  8
Object
 62
     0
370
    -2
100
AcDbLine
 10
-476.9839250308002
 20
1961.880605902074
 30
0.0
 11
-539.7078072974494
 21
1961.880605902074
 31
0.0
  0
LINE
  5
635A
330
5FDE
100
AcDbEntity
  8
Object
 62
     0
370
    -2
100
AcDbLine
 10
-471.6257750308002
 20
1861.980605902073
 30
0.0
 11
-539.7078072974494
 21
1861.980605902074
 31
0.0
  0
LINE
  5
635B
330
5FDE
100
AcDbEntity
  8
Object
 62
     0
370
    -2
100
AcDbLine
 10
-538.7078072974494
 20
1957.880605902074
 30
0.0
 11
-538.7078072974494
 21
1865.980605902073
 31
0.0
  0
MTEXT
  5
635C
330
5FDE
100
AcDbEntity
  8
Object
 62
     0
100
AcDbMText
 10
-545.8562159372913
 20
1913.516622148291
 30
0.0
 40
7.5
 41
0.0
 71
     5
 72
     1
  1
\A1;{\fＭＳ Ｐゴシック|b0|i0|c128|p50;A}
 11
0.9999999998476914
 21
-0.000017453292519
 31
0.0
 73
     1
 44
1.0
1001
ACAD
1000
MTEXTBEGIN
1070
    73
1070
     1
1070
    44
1040
1.0
1070
    74
1070
     0
1000
MTEXTEND
  0
INSERT
  5
635D
330
5FDE
100
AcDbEntity
  8
Object
 62
     0
370
    -2
100
AcDbBlockReference
  2
_Open30
 10
-538.7078072974494
 20
1961.880605902074
 30
0.0
 41
4.0
 42
4.0
 43
4.0
 50
90.0
  0
INSERT
  5
635E
330
5FDE
100
AcDbEntity
  8
Object
 62
     0
370
    -2
100
AcDbBlockReference
  2
_Open30
 10
-538.7078072974494
 20
1861.980605902074
 30
0.0
 41
4.0
 42
4.0
 43
4.0
 50
270.0
  0
POINT
  5
635F
330
5FDE
100
AcDbEntity
  8
Defpoints
 62
     0
100
AcDbPoint
 10
-475.9839250308003
 20
1961.880605902074
 30
0.0
  0
POINT
  5
6360
330
5FDE
100
AcDbEntity
  8
Defpoints
 62
     0
100
AcDbPoint
 10
-470.6257750308004
 20
1861.980605902073
 30
0.0
  0
POINT
  5
6361
330
5FDE
100
AcDbEntity
  8
Defpoints
 62
     0
100
AcDbPoint
 10
-538.7078072974494
 20
1861.980605902074
 30
0.0
  0
ENDBLK
  5
5FE9
330
5FDE
100
AcDbEntity
  8
0
100
AcDbBlockEnd
  0
BLOCK
  5
5FF4
330
5FEA
100
AcDbEntity
  8
0
100
AcDbBlockBegin
  2
*D30
 70
     1
 10
0.0
 20
0.0
 30
0.0
  3
*D30
  1

  0
LINE
  5
617A
330
5FEA
100
AcDbEntity
  8
Object
 62
     0
370
    -2
100
AcDbLine
 10
-471.6257750308002
 20
1947.145693402073
 30
0.0
 11
-522.0135355604136
 21
1947.145693402074
 31
0.0
  0
LINE
  5
617B
330
5FEA
100
AcDbEntity
  8
Object
 62
     0
370
    -2
100
AcDbLine
 10
-471.6257750308002
 20
1861.980605902073
 30
0.0
 11
-522.0135355604136
 21
1861.980605902074
 31
0.0
  0
LINE
  5
617C
330
5FEA
100
AcDbEntity
  8
Object
 62
     0
370
    -2
100
AcDbLine
 10
-521.0135355604136
 20
1943.145693402074
 30
0.0
 11
-521.0135355604136
 21
1865.980605902073
 31
0.0
  0
MTEXT
  5
617D
330
5FEA
100
AcDbEntity
  8
Object
 62
     0
100
AcDbMText
 10
-526.2303699832741
 20
1903.931977888004
 30
0.0
 40
7.5
 41
0.0
 71
     5
 72
     1
  1
\A1;{\fＭＳ Ｐゴシック|b0|i0|c128|p50;B}
 11
0.9999999998476914
 21
-0.000017453292519
 31
0.0
 73
     1
 44
1.0
1001
ACAD
1000
MTEXTBEGIN
1070
    73
1070
     1
1070
    44
1040
1.0
1070
    74
1070
     0
1000
MTEXTEND
  0
INSERT
  5
617E
330
5FEA
100
AcDbEntity
  8
Object
 62
     0
370
    -2
100
AcDbBlockReference
  2
_Open30
 10
-521.0135355604136
 20
1947.145693402074
 30
0.0
 41
4.0
 42
4.0
 43
4.0
 50
90.0
  0
INSERT
  5
617F
330
5FEA
100
AcDbEntity
  8
Object
 62
     0
370
    -2
100
AcDbBlockReference
  2
_Open30
 10
-521.0135355604136
 20
1861.980605902074
 30
0.0
 41
4.0
 42
4.0
 43
4.0
 50
270.0
  0
POINT
  5
6180
330
5FEA
100
AcDbEntity
  8
Defpoints
 62
     0
100
AcDbPoint
 10
-470.6257750308004
 20
1947.145693402073
 30
0.0
  0
POINT
  5
6181
330
5FEA
100
AcDbEntity
  8
Defpoints
 62
     0
100
AcDbPoint
 10
-470.6257750308004
 20
1861.980605902073
 30
0.0
  0
POINT
  5
6182
330
5FEA
100
AcDbEntity
  8
Defpoints
 62
     0
100
AcDbPoint
 10
-521.0135355604136
 20
1861.980605902074
 30
0.0
  0
ENDBLK
  5
5FF5
330
5FEA
100
AcDbEntity
  8
0
100
AcDbBlockEnd
  0
BLOCK
  5
6000
330
5FF6
100
AcDbEntity
  8
0
100
AcDbBlockBegin
  2
*D31
 70
     1
 10
0.0
 20
0.0
 30
0.0
  3
*D31
  1

  0
LINE
  5
6329
330
5FF6
100
AcDbEntity
  8
Object
 62
     0
370
    -2
100
AcDbLine
 10
-340.1660612161957
 20
1946.002433402074
 30
0.0
 11
-340.1660612161957
 21
1972.980605902074
 31
0.0
  0
LINE
  5
632A
330
5FF6
100
AcDbEntity
  8
Object
 62
     0
370
    -2
100
AcDbLine
 10
-302.3660612161957
 20
1944.121849652072
 30
0.0
 11
-302.3660612161957
 21
1972.980605902074
 31
0.0
  0
LINE
  5
632B
330
5FF6
100
AcDbEntity
  8
Object
 62
     0
370
    -2
100
AcDbLine
 10
-336.1660612161957
 20
1971.980605902073
 30
0.0
 11
-306.3660612161957
 21
1971.980605902073
 31
0.0
  0
INSERT
  5
632C
330
5FF6
100
AcDbEntity
  8
Object
 62
     0
370
    -2
100
AcDbBlockReference
  2
_Open30
 10
-340.1660612161957
 20
1971.980605902073
 30
0.0
 41
4.0
 42
4.0
 43
4.0
 50
180.0
  0
INSERT
  5
632D
330
5FF6
100
AcDbEntity
  8
Object
 62
     0
370
    -2
100
AcDbBlockReference
  2
_Open30
 10
-302.3660612161957
 20
1971.980605902073
 30
0.0
 41
4.0
 42
4.0
 43
4.0
  0
MTEXT
  5
632E
330
5FF6
100
AcDbEntity
  8
Object
 62
     0
100
AcDbMText
 10
-321.2660612161956
 20
1975.980605902073
 30
0.0
 40
5.0
 41
0.0
 71
     5
 72
     1
  1
\A1;{\fＭＳ Ｐゴシック|b0|i0|c128|p50;D}
 73
     1
 44
1.0
1001
ACAD
1000
MTEXTBEGIN
1070
    73
1070
     1
1070
    44
1040
1.0
1070
    74
1070
     0
1000
MTEXTEND
  0
POINT
  5
632F
330
5FF6
100
AcDbEntity
  8
Defpoints
 62
     0
100
AcDbPoint
 10
-340.1660612161957
 20
1945.002433402074
 30
0.0
  0
POINT
  5
6330
330
5FF6
100
AcDbEntity
  8
Defpoints
 62
     0
100
AcDbPoint
 10
-302.3660612161957
 20
1943.121849652072
 30
0.0
  0
POINT
  5
6331
330
5FF6
100
AcDbEntity
  8
Defpoints
 62
     0
100
AcDbPoint
 10
-302.3660612161957
 20
1971.980605902073
 30
0.0
  0
ENDBLK
  5
6001
330
5FF6
100
AcDbEntity
  8
0
100
AcDbBlockEnd
  0
BLOCK
  5
6054
330
6048
100
AcDbEntity
  8
0
100
AcDbBlockBegin
  2
*D32
 70
     1
 10
0.0
 20
0.0
 30
0.0
  3
*D32
  1

  0
LINE
  5
62D5
330
6048
100
AcDbEntity
  8
Object
 62
     0
370
    -2
100
AcDbLine
 10
-424.0265644093366
 20
1939.108468402073
 30
0.0
 11
-416.0056832990761
 21
1939.108468402073
 31
0.0
  0
LINE
  5
62D6
330
6048
100
AcDbEntity
  8
Object
 62
     0
370
    -2
100
AcDbLine
 10
-420.7671559847319
 20
1944.466618402073
 30
0.0
 11
-416.0056832990761
 21
1944.466618402073
 31
0.0
  0
LINE
  5
62D7
330
6048
100
AcDbEntity
  8
Object
 62
     0
370
    -2
100
AcDbLine
 10
-417.0056832990763
 20
1935.108468402074
 30
0.0
 11
-417.0056832990763
 21
1931.108468402074
 31
0.0
  0
LINE
  5
62D8
330
6048
100
AcDbEntity
  8
Object
 62
     0
370
    -2
100
AcDbLine
 10
-417.0056832990763
 20
1948.466618402073
 30
0.0
 11
-417.0056832990763
 21
1952.466618402073
 31
0.0
  0
MTEXT
  5
62D9
330
6048
100
AcDbEntity
  8
Object
 62
     0
100
AcDbMText
 10
-416.4988904009706
 20
1968.057368293561
 30
0.0
 40
7.5
 41
0.0
 71
     5
 72
     1
  1
\A1;F
 11
0.9999999998476914
 21
-0.000017453292519
 31
0.0
 73
     1
 44
1.0
1001
ACAD
1000
MTEXTBEGIN
1070
    73
1070
     1
1070
    44
1040
1.0
1070
    74
1070
     0
1000
MTEXTEND
  0
LINE
  5
62DA
330
6048
100
AcDbEntity
  8
Object
 62
     0
370
    -2
100
AcDbLine
 10
-417.0056832990763
 20
1939.108468402073
 30
0.0
 11
-417.0056832990763
 21
1944.466618402073
 31
0.0
  0
INSERT
  5
62DB
330
6048
100
AcDbEntity
  8
Object
 62
     0
370
    -2
100
AcDbBlockReference
  2
_Open30
 10
-417.0056832990763
 20
1939.108468402073
 30
0.0
 41
4.0
 42
4.0
 43
4.0
 50
90.0
  0
INSERT
  5
62DC
330
6048
100
AcDbEntity
  8
Object
 62
     0
370
    -2
100
AcDbBlockReference
  2
_Open30
 10
-417.0056832990763
 20
1944.466618402073
 30
0.0
 41
4.0
 42
4.0
 43
4.0
 50
270.0
  0
POINT
  5
62DD
330
6048
100
AcDbEntity
  8
Defpoints
 62
     0
100
AcDbPoint
 10
-425.0265644093365
 20
1939.108468402073
 30
0.0
  0
POINT
  5
62DE
330
6048
100
AcDbEntity
  8
Defpoints
 62
     0
100
AcDbPoint
 10
-421.7671559847319
 20
1944.466618402073
 30
0.0
  0
POINT
  5
62DF
330
6048
100
AcDbEntity
  8
Defpoints
 62
     0
100
AcDbPoint
 10
-417.0056832990763
 20
1944.466618402073
 30
0.0
  0
ENDBLK
  5
6055
330
6048
100
AcDbEntity
  8
0
100
AcDbBlockEnd
  0
BLOCK
  5
6062
330
6056
100
AcDbEntity
  8
0
100
AcDbBlockBegin
  2
*D33
 70
     1
 10
0.0
 20
0.0
 30
0.0
  3
*D33
  1

  0
LINE
  5
6332
330
6056
100
AcDbEntity
  8
Object
 62
     0
370
    -2
100
AcDbLine
 10
-366.7090348901953
 20
1944.466618402074
 30
0.0
 11
-362.3039172203203
 21
1944.466618402074
 31
0.0
  0
LINE
  5
6333
330
6056
100
AcDbEntity
  8
Object
 62
     0
370
    -2
100
AcDbLine
 10
-369.9684433147999
 20
1949.824768402073
 30
0.0
 11
-362.3039172203203
 21
1949.824768402073
 31
0.0
  0
LINE
  5
6334
330
6056
100
AcDbEntity
  8
Object
 62
     0
370
    -2
100
AcDbLine
 10
-363.3039172203203
 20
1940.466618402074
 30
0.0
 11
-363.3039172203203
 21
1936.466618402073
 31
0.0
  0
LINE
  5
6335
330
6056
100
AcDbEntity
  8
Object
 62
     0
370
    -2
100
AcDbLine
 10
-363.3039172203203
 20
1953.824768402074
 30
0.0
 11
-363.3039172203203
 21
1957.824768402074
 31
0.0
  0
MTEXT
  5
6336
330
6056
100
AcDbEntity
  8
Object
 62
     0
100
AcDbMText
 10
-361.7835351908088
 20
1977.177427856011
 30
0.0
 40
7.5
 41
0.0
 71
     5
 72
     1
  1
\A1;E
 11
0.9999999998476914
 21
-0.000017453292519
 31
0.0
 73
     1
 44
1.0
1001
ACAD
1000
MTEXTBEGIN
1070
    73
1070
     1
1070
    44
1040
1.0
1070
    74
1070
     0
1000
MTEXTEND
  0
LINE
  5
6337
330
6056
100
AcDbEntity
  8
Object
 62
     0
370
    -2
100
AcDbLine
 10
-363.3039172203203
 20
1944.466618402074
 30
0.0
 11
-363.3039172203203
 21
1949.824768402073
 31
0.0
  0
INSERT
  5
6338
330
6056
100
AcDbEntity
  8
Object
 62
     0
370
    -2
100
AcDbBlockReference
  2
_Open30
 10
-363.3039172203203
 20
1944.466618402074
 30
0.0
 41
4.0
 42
4.0
 43
4.0
 50
90.0
  0
INSERT
  5
6339
330
6056
100
AcDbEntity
  8
Object
 62
     0
370
    -2
100
AcDbBlockReference
  2
_Open30
 10
-363.3039172203203
 20
1949.824768402073
 30
0.0
 41
4.0
 42
4.0
 43
4.0
 50
270.0
  0
POINT
  5
633A
330
6056
100
AcDbEntity
  8
Defpoints
 62
     0
100
AcDbPoint
 10
-367.7090348901953
 20
1944.466618402074
 30
0.0
  0
POINT
  5
633B
330
6056
100
AcDbEntity
  8
Defpoints
 62
     0
100
AcDbPoint
 10
-370.9684433147999
 20
1949.824768402073
 30
0.0
  0
POINT
  5
633C
330
6056
100
AcDbEntity
  8
Defpoints
 62
     0
100
AcDbPoint
 10
-363.3039172203203
 20
1949.824768402073
 30
0.0
  0
ENDBLK
  5
6063
330
6056
100
AcDbEntity
  8
0
100
AcDbBlockEnd
  0
BLOCK
  5
64F2
330
64E8
100
AcDbEntity
  8
0
100
AcDbBlockBegin
  2
*D34
 70
     1
 10
0.0
 20
0.0
 30
0.0
  3
*D34
  1

  0
LINE
  5
6794
330
64E8
100
AcDbEntity
  8
Object
  6
HIDDEN
 62
     0
370
    -2
100
AcDbLine
 10
176.0221443340693
 20
1824.059797158961
 30
0.0
 11
168.0221443340693
 21
1824.059797158961
 31
0.0
  0
LINE
  5
6795
330
64E8
100
AcDbEntity
  8
Object
  6
HIDDEN
 62
     0
370
    -2
100
AcDbLine
 10
168.0221443340693
 20
1824.059797158961
 30
0.0
 11
148.9232273726234
 21
1878.024605552758
 31
0.0
  0
LINE
  5
6796
330
64E8
100
AcDbEntity
  8
Object
  6
HIDDEN
 62
     0
370
    -2
100
AcDbLine
 10
141.7973852718173
 20
1898.158977799662
 30
0.0
 11
139.1282993815857
 21
1905.700594371099
 31
0.0
  0
MTEXT
  5
6797
330
64E8
100
AcDbEntity
  8
Object
  6
HIDDEN
 62
     0
100
AcDbMText
 10
181.7835656538658
 20
1824.059797158961
 30
0.0
 40
8.0
 41
0.0
 71
     5
 72
     1
  1
\A1;Ｆ
 11
0.9999999998476914
 21
-0.000017453292519
 31
0.0
 73
     1
 44
1.0
1001
ACAD
1000
MTEXTBEGIN
1070
    73
1070
     1
1070
    44
1040
1.0
1070
    74
1070
     0
1000
MTEXTEND
  0
LINE
  5
6798
330
64E8
100
AcDbEntity
  8
Object
  6
HIDDEN
 62
     0
370
    -2
100
AcDbLine
 10
144.4664711620488
 20
1890.617361228226
 30
0.0
 11
146.2541414823919
 21
1885.566222124195
 31
0.0
  0
INSERT
  5
6799
330
64E8
100
AcDbEntity
  8
Object
  6
HIDDEN
 62
     0
370
    -2
100
AcDbBlockReference
  2
_Open30
 10
144.4664711620488
 20
1890.617361228226
 30
0.0
 41
8.0
 42
8.0
 43
8.0
 50
289.4895991125888
  0
INSERT
  5
679A
330
64E8
100
AcDbEntity
  8
Object
  6
HIDDEN
 62
     0
370
    -2
100
AcDbBlockReference
  2
_Open30
 10
146.2541414823919
 20
1885.566222124195
 30
0.0
 41
8.0
 42
8.0
 43
8.0
 50
109.4895991125887
  0
POINT
  5
679B
330
64E8
100
AcDbEntity
  8
Defpoints
  6
HIDDEN
 62
     0
100
AcDbPoint
 10
146.2541414823919
 20
1885.566222124195
 30
0.0
  0
POINT
  5
679C
330
64E8
100
AcDbEntity
  8
Defpoints
  6
HIDDEN
 62
     0
100
AcDbPoint
 10
144.4664711620488
 20
1890.617361228226
 30
0.0
  0
ENDBLK
  5
64F3
330
64E8
100
AcDbEntity
  8
0
100
AcDbBlockEnd
  0
BLOCK
  5
64FE
330
64F4
100
AcDbEntity
  8
0
100
AcDbBlockBegin
  2
*D35
 70
     1
 10
0.0
 20
0.0
 30
0.0
  3
*D35
  1

  0
LINE
  5
675F
330
64F4
100
AcDbEntity
  8
Object
  6
HIDDEN
 62
     0
370
    -2
100
AcDbLine
 10
20.19070167999899
 20
1823.793595017453
 30
0.0
 11
12.19070167999894
 21
1823.793595017453
 31
0.0
  0
LINE
  5
6760
330
64F4
100
AcDbEntity
  8
Object
  6
HIDDEN
 62
     0
370
    -2
100
AcDbLine
 10
12.19070167999894
 20
1823.793595017453
 30
0.0
 11
-5.961164815838174
 21
1883.236452493704
 31
0.0
  0
LINE
  5
6761
330
64F4
100
AcDbEntity
  8
Object
  6
HIDDEN
 62
     0
370
    -2
100
AcDbLine
 10
-12.19888285190871
 20
1903.663430858723
 30
0.0
 11
-14.53530919447894
 21
1911.314647229063
 31
0.0
  0
MTEXT
  5
6762
330
64F4
100
AcDbEntity
  8
Object
  6
HIDDEN
 62
     0
100
AcDbMText
 10
26.23638695918646
 20
1823.793595017453
 30
0.0
 40
8.0
 41
0.0
 71
     5
 72
     1
  1
\A1;Ｅ
 11
0.9999999998476914
 21
-0.000017453292519
 31
0.0
 73
     1
 44
1.0
1001
ACAD
1000
MTEXTBEGIN
1070
    73
1070
     1
1070
    44
1040
1.0
1070
    74
1070
     0
1000
MTEXTEND
  0
LINE
  5
6763
330
64F4
100
AcDbEntity
  8
Object
  6
HIDDEN
 62
     0
370
    -2
100
AcDbLine
 10
-9.862456509338583
 20
1896.012214488384
 30
0.0
 11
-8.297591158408295
 21
1890.887668864043
 31
0.0
  0
INSERT
  5
6764
330
64F4
100
AcDbEntity
  8
Object
  6
HIDDEN
 62
     0
370
    -2
100
AcDbBlockReference
  2
_Open30
 10
-9.862456509338583
 20
1896.012214488384
 30
0.0
 41
8.0
 42
8.0
 43
8.0
 50
286.9809237276612
  0
INSERT
  5
6765
330
64F4
100
AcDbEntity
  8
Object
  6
HIDDEN
 62
     0
370
    -2
100
AcDbBlockReference
  2
_Open30
 10
-8.297591158408295
 20
1890.887668864043
 30
0.0
 41
8.0
 42
8.0
 43
8.0
 50
106.9809237276611
  0
POINT
  5
6766
330
64F4
100
AcDbEntity
  8
Defpoints
  6
HIDDEN
 62
     0
100
AcDbPoint
 10
-8.297591158408295
 20
1890.887668864043
 30
0.0
  0
POINT
  5
6767
330
64F4
100
AcDbEntity
  8
Defpoints
  6
HIDDEN
 62
     0
100
AcDbPoint
 10
-9.862456509338583
 20
1896.012214488384
 30
0.0
  0
ENDBLK
  5
64FF
330
64F4
100
AcDbEntity
  8
0
100
AcDbBlockEnd
  0
BLOCK
  5
650A
330
6500
100
AcDbEntity
  8
0
100
AcDbBlockBegin
  2
*D36
 70
     1
 10
0.0
 20
0.0
 30
0.0
  3
*D36
  1

  0
LINE
  5
6708
330
6500
100
AcDbEntity
  8
Object
  6
HIDDEN
 62
     0
370
    -2
100
AcDbLine
 10
-9.080023833873324
 20
1917.117495708786
 30
0.0
 11
-9.080023833873324
 21
1937.45078542183
 31
0.0
  0
LINE
  5
6709
330
6500
100
AcDbEntity
  8
Object
  6
HIDDEN
 62
     0
370
    -2
100
AcDbLine
 10
24.66997616612736
 20
1891.791791676212
 30
0.0
 11
24.66997616612736
 21
1937.45078542183
 31
0.0
  0
LINE
  5
670A
330
6500
100
AcDbEntity
  8
Object
  6
HIDDEN
 62
     0
370
    -2
100
AcDbLine
 10
-1.080023833873324
 20
1936.450785421831
 30
0.0
 11
16.66997616612736
 21
1936.450785421831
 31
0.0
  0
INSERT
  5
670B
330
6500
100
AcDbEntity
  8
Object
  6
HIDDEN
 62
     0
370
    -2
100
AcDbBlockReference
  2
_Open30
 10
-9.080023833873324
 20
1936.450785421831
 30
0.0
 41
8.0
 42
8.0
 43
8.0
 50
180.0
  0
INSERT
  5
670C
330
6500
100
AcDbEntity
  8
Object
  6
HIDDEN
 62
     0
370
    -2
100
AcDbBlockReference
  2
_Open30
 10
24.66997616612736
 20
1936.450785421831
 30
0.0
 41
8.0
 42
8.0
 43
8.0
  0
MTEXT
  5
670D
330
6500
100
AcDbEntity
  8
Object
  6
HIDDEN
 62
     0
100
AcDbMText
 10
7.794976166127018
 20
1943.450785421831
 30
0.0
 40
8.0
 41
0.0
 71
     5
 72
     1
  1
\A1;Ｇ
 73
     1
 44
1.0
1001
ACAD
1000
MTEXTBEGIN
1070
    73
1070
     1
1070
    44
1040
1.0
1070
    74
1070
     0
1000
MTEXTEND
  0
POINT
  5
670E
330
6500
100
AcDbEntity
  8
Defpoints
  6
HIDDEN
 62
     0
100
AcDbPoint
 10
-9.080023833873324
 20
1916.117495708786
 30
0.0
  0
POINT
  5
670F
330
6500
100
AcDbEntity
  8
Defpoints
  6
HIDDEN
 62
     0
100
AcDbPoint
 10
24.66997616612736
 20
1890.791791676212
 30
0.0
  0
POINT
  5
6710
330
6500
100
AcDbEntity
  8
Defpoints
  6
HIDDEN
 62
     0
100
AcDbPoint
 10
24.66997616612736
 20
1936.450785421831
 30
0.0
  0
ENDBLK
  5
650B
330
6500
100
AcDbEntity
  8
0
100
AcDbBlockEnd
  0
BLOCK
  5
6516
330
650C
100
AcDbEntity
  8
0
100
AcDbBlockBegin
  2
*D37
 70
     1
 10
0.0
 20
0.0
 30
0.0
  3
*D37
  1

  0
LINE
  5
66FF
330
650C
100
AcDbEntity
  8
Object
  6
HIDDEN
 62
     0
370
    -2
100
AcDbLine
 10
-42.83002383387354
 20
1886.391791676213
 30
0.0
 11
-42.83002383387354
 21
1937.45078542183
 31
0.0
  0
LINE
  5
6700
330
650C
100
AcDbEntity
  8
Object
  6
HIDDEN
 62
     0
370
    -2
100
AcDbLine
 10
-9.080023833873324
 20
1894.449941676212
 30
0.0
 11
-9.080023833873324
 21
1937.45078542183
 31
0.0
  0
LINE
  5
6701
330
650C
100
AcDbEntity
  8
Object
  6
HIDDEN
 62
     0
370
    -2
100
AcDbLine
 10
-34.83002383387356
 20
1936.450785421831
 30
0.0
 11
-17.08002383387333
 21
1936.450785421831
 31
0.0
  0
INSERT
  5
6702
330
650C
100
AcDbEntity
  8
Object
  6
HIDDEN
 62
     0
370
    -2
100
AcDbBlockReference
  2
_Open30
 10
-42.83002383387354
 20
1936.450785421831
 30
0.0
 41
8.0
 42
8.0
 43
8.0
 50
180.0
  0
INSERT
  5
6703
330
650C
100
AcDbEntity
  8
Object
  6
HIDDEN
 62
     0
370
    -2
100
AcDbBlockReference
  2
_Open30
 10
-9.080023833873324
 20
1936.450785421831
 30
0.0
 41
8.0
 42
8.0
 43
8.0
  0
MTEXT
  5
6704
330
650C
100
AcDbEntity
  8
Object
  6
HIDDEN
 62
     0
100
AcDbMText
 10
-25.95502383387345
 20
1943.450785421831
 30
0.0
 40
8.0
 41
0.0
 71
     5
 72
     1
  1
\A1;Ｇ
 73
     1
 44
1.0
1001
ACAD
1000
MTEXTBEGIN
1070
    73
1070
     1
1070
    44
1040
1.0
1070
    74
1070
     0
1000
MTEXTEND
  0
POINT
  5
6705
330
650C
100
AcDbEntity
  8
Defpoints
  6
HIDDEN
 62
     0
100
AcDbPoint
 10
-42.83002383387354
 20
1885.391791676212
 30
0.0
  0
POINT
  5
6706
330
650C
100
AcDbEntity
  8
Defpoints
  6
HIDDEN
 62
     0
100
AcDbPoint
 10
-9.080023833873324
 20
1893.449941676212
 30
0.0
  0
POINT
  5
6707
330
650C
100
AcDbEntity
  8
Defpoints
  6
HIDDEN
 62
     0
100
AcDbPoint
 10
-9.080023833873324
 20
1936.450785421831
 30
0.0
  0
ENDBLK
  5
6517
330
650C
100
AcDbEntity
  8
0
100
AcDbBlockEnd
  0
BLOCK
  5
6522
330
6518
100
AcDbEntity
  8
0
100
AcDbBlockBegin
  2
*D38
 70
     1
 10
0.0
 20
0.0
 30
0.0
  3
*D38
  1

  0
LINE
  5
66F4
330
6518
100
AcDbEntity
  8
Object
  6
HIDDEN
 62
     0
370
    -2
100
AcDbLine
 10
-15.43817383387323
 20
1908.184854176212
 30
0.0
 11
-60.46778436348652
 21
1908.184854176212
 31
0.0
  0
LINE
  5
66F5
330
6518
100
AcDbEntity
  8
Object
  6
HIDDEN
 62
     0
370
    -2
100
AcDbLine
 10
-10.08002383387332
 20
1893.449941676212
 30
0.0
 11
-60.46778436348653
 21
1893.449941676212
 31
0.0
  0
LINE
  5
66F6
330
6518
100
AcDbEntity
  8
Object
  6
HIDDEN
 62
     0
370
    -2
100
AcDbLine
 10
-59.46778436348654
 20
1916.184854176212
 30
0.0
 11
-59.46778436348654
 21
1924.184854176212
 31
0.0
  0
LINE
  5
66F7
330
6518
100
AcDbEntity
  8
Object
  6
HIDDEN
 62
     0
370
    -2
100
AcDbLine
 10
-59.46778436348655
 20
1885.449941676212
 30
0.0
 11
-59.46778436348655
 21
1877.449941676212
 31
0.0
  0
MTEXT
  5
66F8
330
6518
100
AcDbEntity
  8
Object
  6
HIDDEN
 62
     0
100
AcDbMText
 10
-66.51953609895008
 20
1901.234489830677
 30
0.0
 40
8.0
 41
0.0
 71
     5
 72
     1
  1
\A1;Ｃ
 11
0.9999999998476914
 21
-0.000017453292519
 31
0.0
 73
     1
 44
1.0
1001
ACAD
1000
MTEXTBEGIN
1070
    73
1070
     1
1070
    44
1040
1.0
1070
    74
1070
     0
1000
MTEXTEND
  0
LINE
  5
66F9
330
6518
100
AcDbEntity
  8
Object
  6
HIDDEN
 62
     0
370
    -2
100
AcDbLine
 10
-59.46778436348654
 20
1908.184854176212
 30
0.0
 11
-59.46778436348655
 21
1893.449941676212
 31
0.0
  0
INSERT
  5
66FA
330
6518
100
AcDbEntity
  8
Object
  6
HIDDEN
 62
     0
370
    -2
100
AcDbBlockReference
  2
_Open30
 10
-59.46778436348654
 20
1908.184854176212
 30
0.0
 41
8.0
 42
8.0
 43
8.0
 50
270.0
  0
INSERT
  5
66FB
330
6518
100
AcDbEntity
  8
Object
  6
HIDDEN
 62
     0
370
    -2
100
AcDbBlockReference
  2
_Open30
 10
-59.46778436348655
 20
1893.449941676212
 30
0.0
 41
8.0
 42
8.0
 43
8.0
 50
90.0
  0
POINT
  5
66FC
330
6518
100
AcDbEntity
  8
Defpoints
  6
HIDDEN
 62
     0
100
AcDbPoint
 10
-14.43817383387323
 20
1908.184854176212
 30
0.0
  0
POINT
  5
66FD
330
6518
100
AcDbEntity
  8
Defpoints
  6
HIDDEN
 62
     0
100
AcDbPoint
 10
-9.080023833873324
 20
1893.449941676212
 30
0.0
  0
POINT
  5
66FE
330
6518
100
AcDbEntity
  8
Defpoints
  6
HIDDEN
 62
     0
100
AcDbPoint
 10
-59.46778436348655
 20
1893.449941676212
 30
0.0
  0
ENDBLK
  5
6523
330
6518
100
AcDbEntity
  8
0
100
AcDbBlockEnd
  0
BLOCK
  5
652E
330
6524
100
AcDbEntity
  8
0
100
AcDbBlockBegin
  2
*D39
 70
     1
 10
0.0
 20
0.0
 30
0.0
  3
*D39
  1

  0
LINE
  5
66EB
330
6524
100
AcDbEntity
  8
Object
  6
HIDDEN
 62
     0
370
    -2
100
AcDbLine
 10
-15.43817383387323
 20
1908.184854176212
 30
0.0
 11
-78.16205610052245
 21
1908.184854176212
 31
0.0
  0
LINE
  5
66EC
330
6524
100
AcDbEntity
  8
Object
  6
HIDDEN
 62
     0
370
    -2
100
AcDbLine
 10
-10.08002383387332
 20
1808.284854176212
 30
0.0
 11
-78.16205610052247
 21
1808.284854176212
 31
0.0
  0
LINE
  5
66ED
330
6524
100
AcDbEntity
  8
Object
  6
HIDDEN
 62
     0
370
    -2
100
AcDbLine
 10
-77.16205610052245
 20
1900.184854176212
 30
0.0
 11
-77.16205610052248
 21
1816.284854176212
 31
0.0
  0
MTEXT
  5
66EE
330
6524
100
AcDbEntity
  8
Object
  6
HIDDEN
 62
     0
100
AcDbMText
 10
-84.31046474036429
 20
1859.82087042243
 30
0.0
 40
8.0
 41
0.0
 71
     5
 72
     1
  1
\A1;Ａ
 11
0.9999999998476914
 21
-0.000017453292519
 31
0.0
 73
     1
 44
1.0
1001
ACAD
1000
MTEXTBEGIN
1070
    73
1070
     1
1070
    44
1040
1.0
1070
    74
1070
     0
1000
MTEXTEND
  0
INSERT
  5
66EF
330
6524
100
AcDbEntity
  8
Object
  6
HIDDEN
 62
     0
370
    -2
100
AcDbBlockReference
  2
_Open30
 10
-77.16205610052245
 20
1908.184854176212
 30
0.0
 41
8.0
 42
8.0
 43
8.0
 50
90.0
  0
INSERT
  5
66F0
330
6524
100
AcDbEntity
  8
Object
  6
HIDDEN
 62
     0
370
    -2
100
AcDbBlockReference
  2
_Open30
 10
-77.16205610052248
 20
1808.284854176212
 30
0.0
 41
8.0
 42
8.0
 43
8.0
 50
270.0
  0
POINT
  5
66F1
330
6524
100
AcDbEntity
  8
Defpoints
  6
HIDDEN
 62
     0
100
AcDbPoint
 10
-14.43817383387323
 20
1908.184854176212
 30
0.0
  0
POINT
  5
66F2
330
6524
100
AcDbEntity
  8
Defpoints
  6
HIDDEN
 62
     0
100
AcDbPoint
 10
-9.080023833873324
 20
1808.284854176212
 30
0.0
  0
POINT
  5
66F3
330
6524
100
AcDbEntity
  8
Defpoints
  6
HIDDEN
 62
     0
100
AcDbPoint
 10
-77.16205610052248
 20
1808.284854176212
 30
0.0
  0
ENDBLK
  5
652F
330
6524
100
AcDbEntity
  8
0
100
AcDbBlockEnd
  0
BLOCK
  5
653A
330
6530
100
AcDbEntity
  8
0
100
AcDbBlockBegin
  2
*D40
 70
     1
 10
0.0
 20
0.0
 30
0.0
  3
*D40
  1

  0
LINE
  5
67D9
330
6530
100
AcDbEntity
  8
Object
  6
HIDDEN
 62
     0
370
    -2
100
AcDbLine
 10
-10.08002383387332
 20
1893.449941676212
 30
0.0
 11
-60.46778436348652
 21
1893.449941676212
 31
0.0
  0
LINE
  5
67DA
330
6530
100
AcDbEntity
  8
Object
  6
HIDDEN
 62
     0
370
    -2
100
AcDbLine
 10
-10.08002383387332
 20
1808.284854176212
 30
0.0
 11
-60.46778436348652
 21
1808.284854176212
 31
0.0
  0
LINE
  5
67DB
330
6530
100
AcDbEntity
  8
Object
  6
HIDDEN
 62
     0
370
    -2
100
AcDbLine
 10
-59.46778436348653
 20
1885.449941676212
 30
0.0
 11
-59.46778436348655
 21
1816.284854176212
 31
0.0
  0
MTEXT
  5
67DC
330
6530
100
AcDbEntity
  8
Object
  6
HIDDEN
 62
     0
100
AcDbMText
 10
-65.84912244979022
 20
1852.338670606947
 30
0.0
 40
8.0
 41
0.0
 71
     5
 72
     1
  1
\A1;Ｂ
 11
0.9999999998476914
 21
-0.000017453292519
 31
0.0
 73
     1
 44
1.0
1001
ACAD
1000
MTEXTBEGIN
1070
    73
1070
     1
1070
    44
1040
1.0
1070
    74
1070
     0
1000
MTEXTEND
  0
INSERT
  5
67DD
330
6530
100
AcDbEntity
  8
Object
  6
HIDDEN
 62
     0
370
    -2
100
AcDbBlockReference
  2
_Open30
 10
-59.46778436348653
 20
1893.449941676212
 30
0.0
 41
8.0
 42
8.0
 43
8.0
 50
90.0
  0
INSERT
  5
67DE
330
6530
100
AcDbEntity
  8
Object
  6
HIDDEN
 62
     0
370
    -2
100
AcDbBlockReference
  2
_Open30
 10
-59.46778436348655
 20
1808.284854176212
 30
0.0
 41
8.0
 42
8.0
 43
8.0
 50
270.0
  0
POINT
  5
67DF
330
6530
100
AcDbEntity
  8
Defpoints
  6
HIDDEN
 62
     0
100
AcDbPoint
 10
-9.080023833873324
 20
1893.449941676212
 30
0.0
  0
POINT
  5
67E0
330
6530
100
AcDbEntity
  8
Defpoints
  6
HIDDEN
 62
     0
100
AcDbPoint
 10
-9.080023833873324
 20
1808.284854176212
 30
0.0
  0
POINT
  5
67E1
330
6530
100
AcDbEntity
  8
Defpoints
  6
HIDDEN
 62
     0
100
AcDbPoint
 10
-59.46778436348655
 20
1808.284854176212
 30
0.0
  0
ENDBLK
  5
653B
330
6530
100
AcDbEntity
  8
0
100
AcDbBlockEnd
  0
BLOCK
  5
6546
330
653C
100
AcDbEntity
  8
0
100
AcDbBlockBegin
  2
*D41
 70
     1
 10
0.0
 20
0.0
 30
0.0
  3
*D41
  1

  0
LINE
  5
6725
330
653C
100
AcDbEntity
  8
Object
  6
HIDDEN
 62
     0
370
    -2
100
AcDbLine
 10
148.0393813222206
 20
1892.306681676213
 30
0.0
 11
148.0393813222206
 21
1937.45078542183
 31
0.0
  0
LINE
  5
6726
330
653C
100
AcDbEntity
  8
Object
  6
HIDDEN
 62
     0
370
    -2
100
AcDbLine
 10
185.8393813222207
 20
1890.426097926211
 30
0.0
 11
185.8393813222207
 21
1937.45078542183
 31
0.0
  0
LINE
  5
6727
330
653C
100
AcDbEntity
  8
Object
  6
HIDDEN
 62
     0
370
    -2
100
AcDbLine
 10
156.0393813222206
 20
1936.450785421831
 30
0.0
 11
177.8393813222207
 21
1936.450785421831
 31
0.0
  0
INSERT
  5
6728
330
653C
100
AcDbEntity
  8
Object
  6
HIDDEN
 62
     0
370
    -2
100
AcDbBlockReference
  2
_Open30
 10
148.0393813222206
 20
1936.450785421831
 30
0.0
 41
8.0
 42
8.0
 43
8.0
 50
180.0
  0
INSERT
  5
6729
330
653C
100
AcDbEntity
  8
Object
  6
HIDDEN
 62
     0
370
    -2
100
AcDbBlockReference
  2
_Open30
 10
185.8393813222207
 20
1936.450785421831
 30
0.0
 41
8.0
 42
8.0
 43
8.0
  0
MTEXT
  5
672A
330
653C
100
AcDbEntity
  8
Object
  6
HIDDEN
 62
     0
100
AcDbMText
 10
166.9393813222206
 20
1943.450785421831
 30
0.0
 40
8.0
 41
0.0
 71
     5
 72
     1
  1
\A1;{\fＭＳ Ｐゴシック|b0|i0|c128|p50;D}
 73
     1
 44
1.0
1001
ACAD
1000
MTEXTBEGIN
1070
    73
1070
     1
1070
    44
1040
1.0
1070
    74
1070
     0
1000
MTEXTEND
  0
POINT
  5
672B
330
653C
100
AcDbEntity
  8
Defpoints
  6
HIDDEN
 62
     0
100
AcDbPoint
 10
148.0393813222206
 20
1891.306681676212
 30
0.0
  0
POINT
  5
672C
330
653C
100
AcDbEntity
  8
Defpoints
  6
HIDDEN
 62
     0
100
AcDbPoint
 10
185.8393813222207
 20
1889.426097926211
 30
0.0
  0
POINT
  5
672D
330
653C
100
AcDbEntity
  8
Defpoints
  6
HIDDEN
 62
     0
100
AcDbPoint
 10
185.8393813222207
 20
1936.450785421831
 30
0.0
  0
ENDBLK
  5
6547
330
653C
100
AcDbEntity
  8
0
100
AcDbBlockEnd
  0
BLOCK
  5
659C
330
6590
100
AcDbEntity
  8
0
100
AcDbBlockBegin
  2
*D42
 70
     1
 10
0.0
 20
0.0
 30
0.0
  3
*D42
  1

  0
LINE
  5
6787
330
6590
100
AcDbEntity
  8
Object
  6
HIDDEN
 62
     0
370
    -2
100
AcDbLine
 10
37.51918678759051
 20
1885.412716676212
 30
0.0
 11
45.5400678978508
 21
1885.412716676212
 31
0.0
  0
LINE
  5
6788
330
6590
100
AcDbEntity
  8
Object
  6
HIDDEN
 62
     0
370
    -2
100
AcDbLine
 10
40.77859521219505
 20
1890.770866676212
 30
0.0
 11
45.5400678978508
 21
1890.770866676212
 31
0.0
  0
LINE
  5
6789
330
6590
100
AcDbEntity
  8
Object
  6
HIDDEN
 62
     0
370
    -2
100
AcDbLine
 10
44.54006789785079
 20
1877.412716676212
 30
0.0
 11
44.54006789785078
 21
1869.412716676212
 31
0.0
  0
LINE
  5
678A
330
6590
100
AcDbEntity
  8
Object
  6
HIDDEN
 62
     0
370
    -2
100
AcDbLine
 10
44.54006789785079
 20
1898.770866676212
 30
0.0
 11
44.54006789785081
 21
1906.770866676212
 31
0.0
  0
LINE
  5
678B
330
6590
100
AcDbEntity
  8
Object
  6
HIDDEN
 62
     0
370
    -2
100
AcDbLine
 10
52.54006789785082
 20
1943.568481506718
 30
0.0
 11
44.54006789785082
 21
1943.568481506718
 31
0.0
  0
LINE
  5
678C
330
6590
100
AcDbEntity
  8
Object
  6
HIDDEN
 62
     0
370
    -2
100
AcDbLine
 10
44.54006789785082
 20
1943.568481506718
 30
0.0
 11
44.54006789785081
 21
1906.770866676212
 31
0.0
  0
MTEXT
  5
678D
330
6590
100
AcDbEntity
  8
Object
  6
HIDDEN
 62
     0
100
AcDbMText
 10
58.30148921764745
 20
1943.568481506718
 30
0.0
 40
8.0
 41
0.0
 71
     5
 72
     1
  1
\A1;Ｆ
 11
0.9999999998476914
 21
-0.000017453292519
 31
0.0
 73
     1
 44
1.0
1001
ACAD
1000
MTEXTBEGIN
1070
    73
1070
     1
1070
    44
1040
1.0
1070
    74
1070
     0
1000
MTEXTEND
  0
LINE
  5
678E
330
6590
100
AcDbEntity
  8
Object
  6
HIDDEN
 62
     0
370
    -2
100
AcDbLine
 10
44.54006789785079
 20
1885.412716676212
 30
0.0
 11
44.54006789785079
 21
1890.770866676212
 31
0.0
  0
INSERT
  5
678F
330
6590
100
AcDbEntity
  8
Object
  6
HIDDEN
 62
     0
370
    -2
100
AcDbBlockReference
  2
_Open30
 10
44.54006789785079
 20
1885.412716676212
 30
0.0
 41
8.0
 42
8.0
 43
8.0
 50
90.0
  0
INSERT
  5
6790
330
6590
100
AcDbEntity
  8
Object
  6
HIDDEN
 62
     0
370
    -2
100
AcDbBlockReference
  2
_Open30
 10
44.54006789785079
 20
1890.770866676212
 30
0.0
 41
8.0
 42
8.0
 43
8.0
 50
270.0
  0
POINT
  5
6791
330
6590
100
AcDbEntity
  8
Defpoints
  6
HIDDEN
 62
     0
100
AcDbPoint
 10
36.51918678759051
 20
1885.412716676212
 30
0.0
  0
POINT
  5
6792
330
6590
100
AcDbEntity
  8
Defpoints
  6
HIDDEN
 62
     0
100
AcDbPoint
 10
39.77859521219507
 20
1890.770866676212
 30
0.0
  0
POINT
  5
6793
330
6590
100
AcDbEntity
  8
Defpoints
  6
HIDDEN
 62
     0
100
AcDbPoint
 10
44.54006789785079
 20
1890.770866676212
 30
0.0
  0
ENDBLK
  5
659D
330
6590
100
AcDbEntity
  8
0
100
AcDbBlockEnd
  0
BLOCK
  5
65AA
330
659E
100
AcDbEntity
  8
0
100
AcDbBlockBegin
  2
*D43
 70
     1
 10
0.0
 20
0.0
 30
0.0
  3
*D43
  1

  0
LINE
  5
67C2
330
659E
100
AcDbEntity
  8
Object
  6
HIDDEN
 62
     0
370
    -2
100
AcDbLine
 10
121.4964076482209
 20
1890.770866676213
 30
0.0
 11
125.9015253180959
 21
1890.770866676213
 31
0.0
  0
LINE
  5
67C3
330
659E
100
AcDbEntity
  8
Object
  6
HIDDEN
 62
     0
370
    -2
100
AcDbLine
 10
118.2369992236164
 20
1896.129016676212
 30
0.0
 11
125.9015253180959
 21
1896.129016676212
 31
0.0
  0
LINE
  5
67C4
330
659E
100
AcDbEntity
  8
Object
  6
HIDDEN
 62
     0
370
    -2
100
AcDbLine
 10
124.9015253180959
 20
1882.770866676213
 30
0.0
 11
124.9015253180959
 21
1874.770866676213
 31
0.0
  0
LINE
  5
67C5
330
659E
100
AcDbEntity
  8
Object
  6
HIDDEN
 62
     0
370
    -2
100
AcDbLine
 10
124.9015253180959
 20
1904.129016676212
 30
0.0
 11
124.9015253180959
 21
1912.129016676212
 31
0.0
  0
LINE
  5
67C6
330
659E
100
AcDbEntity
  8
Object
  6
HIDDEN
 62
     0
370
    -2
100
AcDbLine
 10
116.9015253180959
 20
1822.357168685918
 30
0.0
 11
124.9015253180959
 21
1822.357168685918
 31
0.0
  0
LINE
  5
67C7
330
659E
100
AcDbEntity
  8
Object
  6
HIDDEN
 62
     0
370
    -2
100
AcDbLine
 10
124.9015253180959
 20
1822.357168685918
 30
0.0
 11
124.9015253180959
 21
1874.770866676213
 31
0.0
  0
MTEXT
  5
67C8
330
659E
100
AcDbEntity
  8
Object
  6
HIDDEN
 62
     0
100
AcDbMText
 10
110.8558400389078
 20
1822.357168685918
 30
0.0
 40
8.0
 41
0.0
 71
     5
 72
     1
  1
\A1;Ｅ
 11
0.9999999998476914
 21
-0.000017453292519
 31
0.0
 73
     1
 44
1.0
1001
ACAD
1000
MTEXTBEGIN
1070
    73
1070
     1
1070
    44
1040
1.0
1070
    74
1070
     0
1000
MTEXTEND
  0
LINE
  5
67C9
330
659E
100
AcDbEntity
  8
Object
  6
HIDDEN
 62
     0
370
    -2
100
AcDbLine
 10
124.9015253180959
 20
1890.770866676213
 30
0.0
 11
124.9015253180959
 21
1896.129016676212
 31
0.0
  0
INSERT
  5
67CA
330
659E
100
AcDbEntity
  8
Object
  6
HIDDEN
 62
     0
370
    -2
100
AcDbBlockReference
  2
_Open30
 10
124.9015253180959
 20
1890.770866676213
 30
0.0
 41
8.0
 42
8.0
 43
8.0
 50
90.0
  0
INSERT
  5
67CB
330
659E
100
AcDbEntity
  8
Object
  6
HIDDEN
 62
     0
370
    -2
100
AcDbBlockReference
  2
_Open30
 10
124.9015253180959
 20
1896.129016676212
 30
0.0
 41
8.0
 42
8.0
 43
8.0
 50
270.0
  0
POINT
  5
67CC
330
659E
100
AcDbEntity
  8
Defpoints
  6
HIDDEN
 62
     0
100
AcDbPoint
 10
120.4964076482209
 20
1890.770866676213
 30
0.0
  0
POINT
  5
67CD
330
659E
100
AcDbEntity
  8
Defpoints
  6
HIDDEN
 62
     0
100
AcDbPoint
 10
117.2369992236164
 20
1896.129016676212
 30
0.0
  0
POINT
  5
67CE
330
659E
100
AcDbEntity
  8
Defpoints
  6
HIDDEN
 62
     0
100
AcDbPoint
 10
124.9015253180959
 20
1896.129016676212
 30
0.0
  0
ENDBLK
  5
65AB
330
659E
100
AcDbEntity
  8
0
100
AcDbBlockEnd
  0
ENDSEC
  0
SECTION
  2
ENTITIES
  0
LINE
  5
1141
330
1F
100
AcDbEntity
  8
作図線
100
AcDbLine
 10
-470.6257750308004
 20
1751.980605902074
 30
0.0
 11
279.3742249691996
 21
1751.980605902073
 31
0.0
  0
LINE
  5
1142
330
1F
100
AcDbEntity
  8
一時線
100
AcDbLine
 10
-470.6257750308004
 20
1801.980605902073
 30
0.0
 11
279.3742249691996
 21
1801.980605902073
 31
0.0
  0
LINE
  5
1144
330
1F
100
AcDbEntity
  8
中心線
100
AcDbLine
 10
-470.6257750308004
 20
1861.980605902073
 30
0.0
 11
279.3742249691996
 21
1861.980605902073
 31
0.0
  0
LINE
  5
1145
330
1F
100
AcDbEntity
  8
作図線
100
AcDbLine
 10
-470.6257750308004
 20
1501.980605902074
 30
0.0
 11
279.3742249691995
 21
1501.980605902073
 31
0.0
  0
LINE
  5
1148
330
1F
100
AcDbEntity
  8
一時線
100
AcDbLine
 10
-470.6257750308004
 20
1611.980605902073
 30
0.0
 11
279.3742249691995
 21
1611.980605902073
 31
0.0
  0
LINE
  5
1149
330
1F
100
AcDbEntity
  8
中心線
100
AcDbLine
 10
-470.6257750308004
 20
1861.980605902073
 30
0.0
 11
-470.6257750308004
 21
1401.980605902074
 31
0.0
  0
LINE
  5
114F
330
1F
100
AcDbEntity
  8
作図線
100
AcDbLine
 10
279.3742249691996
 20
1861.980605902073
 30
0.0
 11
279.3742249691996
 21
1401.980605902073
 31
0.0
  0
LINE
  5
1CC6
330
1F
100
AcDbEntity
  8
一時線
100
AcDbLine
 10
-470.6257750308004
 20
1661.980605902073
 30
0.0
 11
279.3742249691995
 21
1661.980605902073
 31
0.0
  0
LINE
  5
1CC7
330
1F
100
AcDbEntity
  8
一時線
100
AcDbLine
 10
-470.6257750308004
 20
1691.980605902073
 30
0.0
 11
279.3742249691995
 21
1691.980605902073
 31
0.0
  0
LINE
  5
1CC8
330
1F
100
AcDbEntity
  8
一時線
100
AcDbLine
 10
-470.6257750308004
 20
1721.980605902073
 30
0.0
 11
279.3742249691995
 21
1721.980605902073
 31
0.0
  0
LINE
  5
1E05
330
1F
100
AcDbEntity
  8
一時線
100
AcDbLine
 10
-470.6257750308004
 20
1651.980605902074
 30
0.0
 11
279.3742249691995
 21
1651.980605902073
 31
0.0
  0
LINE
  5
31F6
330
1F
100
AcDbEntity
  8
中心線
100
AcDbLine
 10
-140.6257750308004
 20
1861.980605902073
 30
0.0
 11
-140.6257750308004
 21
1401.980605902074
 31
0.0
  0
LINE
  5
31F7
330
1F
100
AcDbEntity
  8
中心線
100
AcDbLine
 10
-40.62577503080047
 20
1861.980605902073
 30
0.0
 11
-40.62577503080047
 21
1401.980605902074
 31
0.0
  0
LINE
  5
34D4
330
1F
100
AcDbEntity
  8
中心線
100
AcDbLine
 10
59.3742249691995
 20
1861.980605902073
 30
0.0
 11
59.3742249691995
 21
1401.980605902074
 31
0.0
  0
LINE
  5
34F2
330
1F
100
AcDbEntity
  8
作図線
100
AcDbLine
 10
-470.6257750308004
 20
2001.980605902074
 30
0.0
 11
279.3742249691998
 21
2001.980605902073
 31
0.0
  0
LINE
  5
34F3
330
1F
100
AcDbEntity
  8
一時線
100
AcDbLine
 10
-470.6257750308002
 20
2051.980605902074
 30
0.0
 11
279.3742249691998
 21
2051.980605902073
 31
0.0
  0
LINE
  5
34F4
330
1F
100
AcDbEntity
  8
一時線
100
AcDbLine
 10
-470.6257750308002
 20
2081.980605902074
 30
0.0
 11
279.3742249691998
 21
2081.980605902073
 31
0.0
  0
LINE
  5
34F5
330
1F
100
AcDbEntity
  8
一時線
100
AcDbLine
 10
-470.6257750308002
 20
2111.980605902074
 30
0.0
 11
279.3742249691998
 21
2111.980605902073
 31
0.0
  0
LINE
  5
34FA
330
1F
100
AcDbEntity
  8
一時線
100
AcDbLine
 10
-470.6257750308004
 20
1911.980605902073
 30
0.0
 11
279.3742249691996
 21
1911.980605902073
 31
0.0
  0
LINE
  5
34FB
330
1F
100
AcDbEntity
  8
一時線
100
AcDbLine
 10
-470.6257750308004
 20
1901.980605902074
 30
0.0
 11
279.3742249691996
 21
1901.980605902073
 31
0.0
  0
LINE
  5
34FE
330
1F
100
AcDbEntity
  8
一時線
100
AcDbLine
 10
-470.6257750308004
 20
1941.980605902073
 30
0.0
 11
279.3742249691996
 21
1941.980605902073
 31
0.0
  0
LINE
  5
34FF
330
1F
100
AcDbEntity
  8
一時線
100
AcDbLine
 10
-470.6257750308004
 20
1971.980605902073
 30
0.0
 11
279.3742249691996
 21
1971.980605902073
 31
0.0
  0
LINE
  5
3500
330
1F
100
AcDbEntity
  8
中心線
100
AcDbLine
 10
-470.6257750308004
 20
2321.980605902073
 30
0.0
 11
-470.6257750308004
 21
1861.980605902073
 31
0.0
  0
LINE
  5
3501
330
1F
100
AcDbEntity
  8
中心線
100
AcDbLine
 10
-360.166061216197
 20
2213.714789256929
 30
0.0
 11
-360.1660612161968
 21
1753.714789256928
 31
0.0
  0
LINE
  5
3503
330
1F
100
AcDbEntity
  8
中心線
100
AcDbLine
 10
-140.6257750308004
 20
2321.980605902073
 30
0.0
 11
-140.6257750308004
 21
1861.980605902073
 31
0.0
  0
LINE
  5
3504
330
1F
100
AcDbEntity
  8
中心線
100
AcDbLine
 10
-40.62577503080047
 20
2321.980605902073
 30
0.0
 11
-40.62577503080047
 21
1861.980605902073
 31
0.0
  0
LINE
  5
3505
330
1F
100
AcDbEntity
  8
中心線
100
AcDbLine
 10
59.3742249691995
 20
2321.980605902073
 30
0.0
 11
59.3742249691995
 21
1861.980605902073
 31
0.0
  0
LINE
  5
3506
330
1F
100
AcDbEntity
  8
作図線
100
AcDbLine
 10
279.3742249691996
 20
2321.980605902073
 30
0.0
 11
279.3742249691996
 21
1861.980605902073
 31
0.0
  0
LINE
  5
383F
330
1F
100
AcDbEntity
  8
一時線
100
AcDbLine
 10
-505.3177750308004
 20
1686.781484241527
 30
0.0
 11
244.6822249691994
 21
1686.781484241526
 31
0.0
  0
LINE
  5
385D
330
1F
100
AcDbEntity
  8
中心線
100
AcDbLine
 10
9.374224969199508
 20
1861.980605902073
 30
0.0
 11
9.374224969199508
 21
1401.980605902074
 31
0.0
  0
LINE
  5
4B01
330
1F
100
AcDbEntity
  8
中心線
100
AcDbLine
 10
-90.62577503080047
 20
2321.980605902073
 30
0.0
 11
-90.62577503080047
 21
1861.980605902073
 31
0.0
  0
LINE
  5
4BA5
330
1F
100
AcDbEntity
  8
中心線
100
AcDbLine
 10
-313.5063698747077
 20
1922.843453902074
 30
0.0
 11
-313.5063698747075
 21
1462.843453902074
 31
0.0
  0
LINE
  5
581C
330
1F
100
AcDbEntity
  8
中心線
100
AcDbLine
 10
-125.0507750308005
 20
2284.960605902074
 30
0.0
 11
-125.0507750308005
 21
1824.960605902074
 31
0.0
  0
LINE
  5
5AAE
330
1F
100
AcDbEntity
  8
作図線
100
AcDbLine
 10
-470.6257750308004
 20
1759.76148424153
 30
0.0
 11
279.3742249691996
 21
1759.76148424153
 31
0.0
  0
LINE
  5
5AB1
330
1F
100
AcDbEntity
  8
作図線
100
AcDbLine
 10
-470.6257750308004
 20
1834.76148424153
 30
0.0
 11
279.3742249691996
 21
1834.76148424153
 31
0.0
  0
LINE
  5
5AB2
330
1F
100
AcDbEntity
  8
作図線
100
AcDbLine
 10
-470.6257750308002
 20
2022.756891539394
 30
0.0
 11
279.3742249691999
 21
2022.756891539394
 31
0.0
  0
LINE
  5
5E63
330
1F
100
AcDbEntity
  8
作図線
100
AcDbLine
 10
-715.7022890067906
 20
1739.214133544618
 30
0.0
 11
-715.7022890067906
 21
1739.298633544619
 31
0.0
  0
LINE
  5
5FA0
330
1F
100
AcDbEntity
  8
作図線
100
AcDbLine
 10
-354.2312049661957
 20
1944.352543402074
 30
0.0
 11
-354.2312049661957
 21
1944.466618402073
 31
0.0
  0
LINE
  5
631F
330
1F
100
AcDbEntity
  8
中心線
100
AcDbLine
 10
-340.166061216197
 20
2213.714789256929
 30
0.0
 11
-340.1660612161968
 21
1753.714789256928
 31
0.0
  0
DIMENSION
  5
646C
330
1F
100
AcDbEntity
  8
Object
  6
HIDDEN
100
AcDbDimension
  2
*D34
 10
144.4664711620488
 20
1890.617361228226
 30
0.0
 11
181.7835656538658
 21
1824.059797158961
 31
0.0
 70
   163
  1
Ｆ
 71
     5
 42
5.358150000000478
 53
359.999
  3
JIS
100
AcDbDiametricDimension
 15
146.2541414823919
 25
1885.566222124195
 35
0.0
 40
0.0
1001
ACAD
1000
DSTYLE
1002
{
1070
    41
1040
8.0
1070
   140
1040
8.0
1070
   147
1040
3.0
1070
   288
1070
     1
1002
}
  0
LINE
  5
646D
102
{ACAD_REACTORS
330
64C4
102
}
330
1F
100
AcDbEntity
  8
Object
 62
     0
100
AcDbLine
 10
133.9742375722205
 20
1890.770866676212
 30
0.0
 11
120.496407648221
 21
1890.770866676213
 31
0.0
  0
HATCH
  5
646E
330
1F
100
AcDbEntity
  8
塗潰し
100
AcDbHatch
 10
0.0
 20
0.0
 30
0.0
210
0.0
220
0.0
230
1.0
  2
ANSI37
 70
     0
 71
     1
 91
        3
 92
        7
 72
     1
 73
     1
 93
        7
 10
133.9742375722205
 20
1890.770866676212
 42
0.0
 10
133.9742375722208
 20
1894.031791676212
 42
0.0
 10
151.3882250722206
 20
1894.789479176212
 42
0.0
 10
151.3882250722207
 20
1896.129016676212
 42
0.0
 10
117.2369992236165
 20
1896.129016676212
 42
0.1927288983583618
 10
118.8667034359186
 20
1893.449941676212
 42
-0.1927288983583563
 10
120.4964076482209
 20
1890.770866676213
 42
0.0
 97
        7
330
64BE
330
646F
330
64A4
330
64AE
330
64B2
330
64E5
330
64BD
 92
        7
 72
     1
 73
     1
 93
        6
 10
145.0248109506098
 20
1890.770866676212
 42
-0.0623704580458
 10
145.6958016938353
 20
1890.770866676212
 42
0.0
 10
151.3882250722205
 20
1890.770866676211
 42
0.0
 10
151.3882250722206
 20
1894.789479176212
 42
0.0
 10
133.9742375722208
 20
1894.031791676212
 42
0.0
 10
133.9742375722205
 20
1890.770866676212
 42
0.0
 97
        5
330
64AE
330
64A4
330
64E5
330
64E0
330
64B2
 92
        7
 72
     0
 73
     1
 93
        4
 10
173.7585013222207
 20
1890.770866676212
 10
173.7585013222207
 20
1896.129016676212
 10
160.3631263222206
 20
1896.129016676212
 10
160.3631263222206
 20
1890.770866676212
 97
        4
330
64B9
330
64A2
330
64A7
330
64A3
 75
     0
 76
     1
 52
0.0
 41
0.675
 77
     0
 78
     2
 53
135.0
 43
20.80009862292223
 44
-577.7459025514977
 45
1.515418220430418
 46
1.515418220430418
 79
     0
 53
45.0
 43
20.80009862292223
 44
-577.7459025514977
 45
1.515418220430418
 46
-1.515418220430418
 79
     0
 47
0.1216288206845579
 98
        3
 10
128.6760337826603
 20
1893.216860663978
 10
136.0940513317313
 20
1892.294844949115
 10
165.9690065701596
 20
1893.395554723284
1001
ACAD
1010
0.0
1020
0.0
1030
0.0
  0
LINE
  5
646F
102
{ACAD_REACTORS
330
64C4
330
646E
102
}
330
1F
100
AcDbEntity
  8
Object
 62
     0
100
AcDbLine
 10
151.3882250722206
 20
1896.129016676212
 30
0.0
 11
117.2369992236165
 21
1896.129016676212
 31
0.0
  0
DIMENSION
  5
6470
330
1F
100
AcDbEntity
  8
Object
  6
HIDDEN
100
AcDbDimension
  2
*D35
 10
-9.862456509338583
 20
1896.012214488384
 30
0.0
 11
26.23638695918646
 21
1823.793595017453
 31
0.0
 70
   163
  1
Ｅ
 71
     5
 42
5.358150000000249
 53
359.999
  3
JIS
100
AcDbDiametricDimension
 15
-8.297591158408295
 25
1890.887668864043
 35
0.0
 40
0.0
1001
ACAD
1000
DSTYLE
1002
{
1070
    41
1040
8.0
1070
   140
1040
8.0
1070
   147
1040
3.0
1070
   288
1070
     1
1002
}
  0
DIMENSION
  5
6471
330
1F
100
AcDbEntity
  8
Object
  6
HIDDEN
100
AcDbDimension
  2
*D36
 10
24.66997616612736
 20
1936.450785421831
 30
0.0
 11
7.794976166127018
 21
1943.450785421831
 31
0.0
 70
    32
  1
Ｇ
 71
     5
 42
33.75000000000068
  3
JIS
100
AcDbAlignedDimension
 13
-9.080023833873324
 23
1916.117495708786
 33
0.0
 14
24.66997616612736
 24
1890.791791676212
 34
0.0
100
AcDbRotatedDimension
1001
ACAD
1000
DSTYLE
1002
{
1070
    41
1040
8.0
1070
   140
1040
8.0
1070
   147
1040
3.0
1070
   279
1070
     1
1002
}
  0
DIMENSION
  5
6472
330
1F
100
AcDbEntity
  8
Object
  6
HIDDEN
100
AcDbDimension
  2
*D37
 10
-9.080023833873324
 20
1936.450785421831
 30
0.0
 11
-25.95502383387345
 21
1943.450785421831
 31
0.0
 70
    32
  1
Ｇ
 71
     5
 42
33.75000000000023
  3
JIS
100
AcDbAlignedDimension
 13
-42.83002383387354
 23
1885.391791676212
 33
0.0
 14
-9.080023833873324
 24
1893.449941676212
 34
0.0
100
AcDbRotatedDimension
1001
ACAD
1000
DSTYLE
1002
{
1070
    41
1040
8.0
1070
   140
1040
8.0
1070
   147
1040
3.0
1002
}
  0
DIMENSION
  5
6473
330
1F
100
AcDbEntity
  8
Object
  6
HIDDEN
100
AcDbDimension
  2
*D38
 10
-59.46778436348655
 20
1893.449941676212
 30
0.0
 11
-66.51953609895008
 21
1901.234489830677
 31
0.0
 70
   160
  1
Ｃ
 71
     5
 42
14.73491250000006
 53
359.999
  3
JIS
100
AcDbAlignedDimension
 13
-14.43817383387323
 23
1908.184854176212
 33
0.0
 14
-9.080023833873324
 24
1893.449941676212
 34
0.0
 50
90.0
100
AcDbRotatedDimension
1001
ACAD
1000
DSTYLE
1002
{
1070
    41
1040
8.0
1070
   147
1040
3.0
1070
   140
1040
8.0
1070
   279
1070
     2
1002
}
  0
DIMENSION
  5
6474
330
1F
100
AcDbEntity
  8
Object
  6
HIDDEN
100
AcDbDimension
  2
*D39
 10
-77.16205610052248
 20
1808.284854176212
 30
0.0
 11
-84.31046474036429
 21
1859.82087042243
 31
0.0
 70
   160
  1
Ａ
 71
     5
 42
99.90000000000009
 53
359.999
  3
JIS
100
AcDbAlignedDimension
 13
-14.43817383387323
 23
1908.184854176212
 33
0.0
 14
-9.080023833873324
 24
1808.284854176212
 34
0.0
 50
90.0
100
AcDbRotatedDimension
1001
ACAD
1000
DSTYLE
1002
{
1070
    41
1040
8.0
1070
   147
1040
3.0
1070
   140
1040
8.0
1070
   279
1070
     2
1002
}
  0
HATCH
  5
6475
330
1F
100
AcDbEntity
  8
塗潰し
100
AcDbHatch
 10
0.0
 20
0.0
 30
0.0
210
0.0
220
0.0
230
1.0
  2
ANSI37
 70
     0
 71
     0
 91
        1
 92
        7
 72
     1
 73
     1
 93
        6
 10
-6.429549479208559
 20
1893.059520684346
 42
0.0
 10
-6.409254408913398
 20
1893.197299042744
 42
0.4374753065337555
 10
-9.080023833873324
 20
1896.087166676213
 42
0.4374753065336405
 10
-11.75079325883325
 20
1893.197299042745
 42
0.0
 10
-11.73049818853798
 20
1893.059520684346
 42
0.3719982854787541
 10
-9.080023833873324
 20
1890.770866676212
 42
0.3719982854787454
 97
        0
 75
     0
 76
     1
 52
0.0
 41
0.675
 77
     0
 78
     2
 53
45.0
 43
243.5690239227272
 44
-577.7459025514977
 45
-1.515418220430418
 46
1.515418220430418
 79
     0
 53
135.0
 43
243.5690239227272
 44
-577.7459025514977
 45
-1.515418220430418
 46
-1.515418220430418
 79
     0
 47
0.1401275144761638
 98
        1
 10
-8.870674530458869
 20
1892.537442517721
1001
ACAD
1010
0.0
1020
0.0
1030
0.0
  0
ARC
  5
6476
330
1F
100
AcDbEntity
  8
Object
 62
     0
100
AcDbCircle
 10
-9.080023833873324
 20
1893.449941676212
 30
0.0
 40
2.679074999999999
100
AcDbArc
 50
270.0
 51
351.6204589912069
  0
LINE
  5
6477
330
1F
100
AcDbEntity
  8
Object
 62
     0
100
AcDbLine
 10
-6.429549479208559
 20
1893.059520684346
 30
0.0
 11
-4.874285419748217
 21
1903.617834889303
 31
0.0
  0
LINE
  5
6478
330
1F
100
AcDbEntity
  8
Object
 62
     0
100
AcDbLine
 10
-4.593402314898809
 20
1891.736791676212
 30
0.0
 11
-2.396636656540806
 21
1906.650106180279
 31
0.0
  0
LINE
  5
6479
330
1F
100
AcDbEntity
  8
Object
 62
     0
100
AcDbLine
 10
-11.73049818853798
 20
1893.059520684346
 30
0.0
 11
-13.28576224799832
 21
1903.617834889303
 31
0.0
  0
LINE
  5
647A
330
1F
100
AcDbEntity
  8
Object
 62
     0
100
AcDbLine
 10
-13.56664535284773
 20
1891.736791676212
 30
0.0
 11
-15.76341101120562
 21
1906.650106180279
 31
0.0
  0
ARC
  5
647B
330
1F
100
AcDbEntity
  8
Object
 62
     0
100
AcDbCircle
 10
-9.080023833873324
 20
1893.449941676212
 30
0.0
 40
2.679074999999999
100
AcDbArc
 50
188.3795410087931
 51
270.0
  0
DIMENSION
  5
647C
330
1F
100
AcDbEntity
  8
Object
  6
HIDDEN
100
AcDbDimension
  2
*D40
 10
-59.46778436348655
 20
1808.284854176212
 30
0.0
 11
-65.84912244979022
 21
1852.338670606947
 31
0.0
 70
   160
  1
Ｂ
 71
     5
 42
85.16508750000003
 53
359.999
  3
JIS
100
AcDbAlignedDimension
 13
-9.080023833873324
 23
1893.449941676212
 33
0.0
 14
-9.080023833873324
 24
1808.284854176212
 34
0.0
 50
90.0
100
AcDbRotatedDimension
1001
ACAD
1000
DSTYLE
1002
{
1070
    41
1040
8.0
1070
   147
1040
3.0
1070
   140
1040
8.0
1070
   279
1070
     2
1002
}
  0
HATCH
  5
647D
330
1F
100
AcDbEntity
  8
塗潰し
100
AcDbHatch
 10
0.0
 20
0.0
 30
0.0
210
0.0
220
0.0
230
1.0
  2
ANSI31
 70
     0
 71
     0
 91
        2
 92
        7
 72
     1
 73
     1
 93
        7
 10
39.77859521219507
 20
1890.770866676212
 42
0.0
 10
24.66989508053468
 20
1890.770866676212
 42
-0.3628195001302583
 10
22.42902718788281
 20
1888.131101510216
 42
0.0662272548651252
 10
19.71035993272193
 20
1887.280845482749
 42
-0.0977866747649231
 10
12.09031558415398
 20
1885.412716676212
 42
0.0
 10
36.51918678759051
 20
1885.412716676212
 42
-0.1927288983584033
 10
38.14889099989244
 20
1888.091791676213
 42
0.1927288983583866
 97
        0
 92
        7
 72
     1
 73
     1
 93
       25
 10
24.66989508053456
 20
1890.770866676212
 42
0.0
 10
4.315351166126731
 20
1890.770866676212
 42
0.0
 10
4.315351166126731
 20
1890.502959176212
 42
0.0
 10
0.2967386661268279
 20
1890.502959176212
 42
0.0
 10
0.2967386661267142
 20
1890.770866676212
 42
0.0
 10
-6.084726925463143
 20
1890.770866676212
 42
-0.2134217652833867
 10
-9.080023833873324
 20
1889.431329176212
 42
-0.2134217652834107
 10
-12.07532074228362
 20
1890.770866676212
 42
0.0
 10
-18.45678633387325
 20
1890.770866676213
 42
0.0
 10
-18.45678633387325
 20
1890.502959176212
 42
0.0
 10
-22.47539883387327
 20
1890.502959176212
 42
0.0
 10
-22.47539883387327
 20
1890.770866676212
 42
0.0
 10
-25.15447383387317
 20
1890.770866676212
 42
0.0
 10
-25.15447383387317
 20
1885.412716676212
 42
0.0
 10
-22.47539883387327
 20
1885.412716676212
 42
0.0
 10
-22.47539883387327
 20
1885.680624176212
 42
0.0
 10
-18.45678633387325
 20
1885.680624176211
 42
0.0
 10
-18.45678633387325
 20
1885.412716676212
 42
0.0
 10
0.2967386661268279
 20
1885.412716676212
 42
0.0
 10
0.2967386661268279
 20
1885.680624176212
 42
0.0
 10
4.315351166126731
 20
1885.680624176212
 42
0.0
 10
4.315351166126731
 20
1885.412716676213
 42
0.0
 10
12.0903155841583
 20
1885.412716676213
 42
0.0977866747648674
 10
19.71035993272193
 20
1887.280845482749
 42
-0.0662272548651263
 10
22.42902718788281
 20
1888.131101510216
 42
0.3628195001302608
 97
        0
 75
     0
 76
     1
 52
0.0
 41
0.675
 77
     0
 78
     1
 53
45.0
 43
243.5690239227272
 44
-577.7459025514977
 45
-1.515418220430418
 46
1.515418220430418
 79
     0
 47
0.1401275144761638
 98
        2
 10
29.89021982592595
 20
1888.497039853755
 10
14.14442930867364
 20
1888.208960754656
1001
ACAD
1010
0.0
1020
0.0
1030
0.0
  0
LINE
  5
647E
330
1F
100
AcDbEntity
  8
Object
 62
     0
100
AcDbLine
 10
4.315351166126731
 20
1890.502959176212
 30
0.0
 11
0.2967386661268279
 21
1890.502959176212
 31
0.0
  0
LINE
  5
647F
330
1F
100
AcDbEntity
  8
Object
 62
     0
100
AcDbLine
 10
4.315351166126731
 20
1885.680624176212
 30
0.0
 11
0.2967386661268279
 21
1885.680624176212
 31
0.0
  0
LINE
  5
6480
330
1F
100
AcDbEntity
  8
Object
 62
     0
100
AcDbLine
 10
4.315351166126731
 20
1881.394104176212
 30
0.0
 11
0.2967386661268279
 21
1881.394104176212
 31
0.0
  0
LINE
  5
6481
330
1F
100
AcDbEntity
  8
Object
 62
     0
100
AcDbLine
 10
4.315351166126731
 20
1894.789479176212
 30
0.0
 11
0.2967386661268279
 21
1894.789479176212
 31
0.0
  0
LINE
  5
6482
330
1F
100
AcDbEntity
  8
Object
 62
     0
100
AcDbLine
 10
-4.124337585037721
 20
1885.391791676212
 30
0.0
 11
-6.265773647286606
 21
1811.019238976179
 31
0.0
  0
LINE
  5
6483
330
1F
100
AcDbEntity
  8
Object
 62
     0
100
AcDbLine
 10
-14.03571008270882
 20
1885.391791676212
 30
0.0
 11
-11.89427402045993
 21
1811.019238976179
 31
0.0
  0
LINE
  5
6484
330
1F
100
AcDbEntity
  8
Object
 62
     0
100
AcDbLine
 10
-22.47539883387316
 20
1885.680624176212
 30
0.0
 11
-18.45678633387325
 21
1885.680624176212
 31
0.0
  0
LINE
  5
6485
330
1F
100
AcDbEntity
  8
Object
 62
     0
100
AcDbLine
 10
-22.47539883387316
 20
1890.502959176212
 30
0.0
 11
-18.45678633387325
 21
1890.502959176212
 31
0.0
  0
LINE
  5
6486
330
1F
100
AcDbEntity
  8
Object
 62
     0
100
AcDbLine
 10
-22.47539883387316
 20
1881.394104176212
 30
0.0
 11
-18.45678633387325
 21
1881.394104176212
 31
0.0
  0
LINE
  5
6487
330
1F
100
AcDbEntity
  8
Object
 62
     0
100
AcDbLine
 10
-22.47539883387316
 20
1894.789479176212
 30
0.0
 11
-18.45678633387325
 21
1894.789479176212
 31
0.0
  0
LINE
  5
6488
330
1F
100
AcDbEntity
  8
塗潰し
 62
     0
100
AcDbLine
 10
-25.15447383387317
 20
1890.770866676212
 30
0.0
 11
-25.15447383387317
 21
1885.412716676212
 31
0.0
  0
LINE
  5
6489
330
1F
100
AcDbEntity
  8
Object
 62
     0
100
AcDbLine
 10
-22.47539883387327
 20
1885.680624176212
 30
0.0
 11
-22.47539883387316
 21
1881.394104176212
 31
0.0
  0
LINE
  5
648A
330
1F
100
AcDbEntity
  8
塗潰し
 62
     0
100
AcDbLine
 10
-25.15447383387328
 20
1885.412716676212
 30
0.0
 11
-22.47539883387316
 21
1885.412716676212
 31
0.0
  0
LINE
  5
648B
330
1F
100
AcDbEntity
  8
Object
 62
     0
100
AcDbLine
 10
-22.47539883387316
 20
1894.789479176212
 30
0.0
 11
-22.47539883387316
 21
1890.502959176212
 31
0.0
  0
LINE
  5
648C
330
1F
100
AcDbEntity
  8
塗潰し
 62
     0
100
AcDbLine
 10
-25.15447383387328
 20
1890.770866676212
 30
0.0
 11
-22.47539883387316
 21
1890.770866676212
 31
0.0
  0
LINE
  5
648D
330
1F
100
AcDbEntity
  8
塗潰し
 62
     0
100
AcDbLine
 10
-18.45678633387325
 20
1890.770866676212
 30
0.0
 11
0.2967386661268279
 21
1890.770866676212
 31
0.0
  0
LINE
  5
648E
330
1F
100
AcDbEntity
  8
塗潰し
 62
     0
100
AcDbLine
 10
-18.45678633387325
 20
1885.412716676212
 30
0.0
 11
0.2967386661268279
 21
1885.412716676212
 31
0.0
  0
LINE
  5
648F
330
1F
100
AcDbEntity
  8
Object
 62
     0
100
AcDbLine
 10
-18.45678633387325
 20
1885.703778408673
 30
0.0
 11
-18.45678633387325
 21
1881.394104176212
 31
0.0
  0
LINE
  5
6490
330
1F
100
AcDbEntity
  8
Object
 62
     0
100
AcDbLine
 10
-18.45678633387325
 20
1894.789479176212
 30
0.0
 11
-18.45678633387325
 21
1890.502959176212
 31
0.0
  0
ARC
  5
6491
330
1F
100
AcDbEntity
  8
Object
 62
     0
100
AcDbCircle
 10
-9.080023833873324
 20
1893.449941676212
 30
0.0
 40
4.018612499999998
100
AcDbArc
 50
205.2332211180448
 51
270.0
  0
LINE
  5
6492
330
1F
100
AcDbEntity
  8
Object
 62
     0
100
AcDbLine
 10
0.2967386661268279
 20
1885.680624176212
 30
0.0
 11
0.2967386661268279
 21
1881.394104176212
 31
0.0
  0
ARC
  5
6493
330
1F
100
AcDbEntity
  8
Object
 62
     0
100
AcDbCircle
 10
-9.080023833873324
 20
1893.449941676212
 30
0.0
 40
4.018612499999998
100
AcDbArc
 50
270.0
 51
334.7667788819552
  0
LINE
  5
6494
330
1F
100
AcDbEntity
  8
Object
 62
     0
100
AcDbLine
 10
0.2967386661268279
 20
1894.789479176212
 30
0.0
 11
0.2967386661268279
 21
1890.502959176212
 31
0.0
  0
LINE
  5
6495
102
{ACAD_REACTORS
330
64C1
102
}
330
1F
100
AcDbEntity
  8
塗潰し
 62
     0
100
AcDbLine
 10
39.77859521219507
 20
1890.770866676212
 30
0.0
 11
4.315351166126731
 21
1890.770866676212
 31
0.0
  0
LINE
  5
6496
102
{ACAD_REACTORS
330
64C1
102
}
330
1F
100
AcDbEntity
  8
塗潰し
 62
     0
100
AcDbLine
 10
36.51918678759051
 20
1885.412716676212
 30
0.0
 11
4.315351166126731
 21
1885.412716676212
 31
0.0
  0
LINE
  5
6497
330
1F
100
AcDbEntity
  8
Object
 62
     0
100
AcDbLine
 10
4.315351166126731
 20
1885.680624176212
 30
0.0
 11
4.315351166126731
 21
1881.394104176212
 31
0.0
  0
LINE
  5
6498
330
1F
100
AcDbEntity
  8
Object
 62
     0
100
AcDbLine
 10
4.315351166126731
 20
1894.789479176212
 30
0.0
 11
4.315351166126731
 21
1890.502959176212
 31
0.0
  0
LINE
  5
6499
330
1F
100
AcDbEntity
  8
Object
 62
     0
100
AcDbLine
 10
-13.17664298224366
 20
1907.295761594369
 30
0.0
 11
-9.453911533058487
 21
1896.869757467836
 31
0.0
  0
ARC
  5
649A
330
1F
100
AcDbEntity
  8
Object
 62
     0
100
AcDbCircle
 10
-10.08467695887321
 20
1896.644535008757
 30
0.0
 40
0.6697687499999999
100
AcDbArc
 50
199.6497228709937
 51
19.64972287099367
  0
LINE
  5
649B
330
1F
100
AcDbEntity
  8
Object
 62
     0
100
AcDbLine
 10
-13.2857622479982
 20
1903.617834889303
 30
0.0
 11
-10.71544238468806
 21
1896.419312549679
 31
0.0
  0
ARC
  5
649C
330
1F
100
AcDbEntity
  8
Object
 62
     0
100
AcDbCircle
 10
-14.43817383387323
 20
1906.845316676212
 30
0.0
 40
1.339537499999998
100
AcDbArc
 50
9.824861435496284
 51
188.3795410087931
  0
LINE
  5
649D
330
1F
100
AcDbEntity
  8
Object
 62
     0
100
AcDbLine
 10
-4.983404685502761
 20
1907.295761594369
 30
0.0
 11
-8.706136134688049
 21
1896.869757467836
 31
0.0
  0
LINE
  5
649E
330
1F
100
AcDbEntity
  8
Object
 62
     0
100
AcDbLine
 10
-4.874285419748446
 20
1903.617834889303
 30
0.0
 11
-7.444605283058479
 21
1896.419312549679
 31
0.0
  0
ARC
  5
649F
330
1F
100
AcDbEntity
  8
Object
 62
     0
100
AcDbCircle
 10
-8.075370708873322
 20
1896.644535008757
 30
0.0
 40
0.6697687499999999
100
AcDbArc
 50
160.3502771290063
 51
340.3502771290064
  0
ARC
  5
64A0
330
1F
100
AcDbEntity
  8
Object
 62
     0
100
AcDbCircle
 10
-3.721873833873189
 20
1906.845316676212
 30
0.0
 40
1.339537499999998
100
AcDbArc
 50
351.6204589912069
 51
170.1751385645037
  0
DIMENSION
  5
64A1
330
1F
100
AcDbEntity
  8
Object
  6
HIDDEN
100
AcDbDimension
  2
*D41
 10
185.8393813222207
 20
1936.450785421831
 30
0.0
 11
166.9393813222206
 21
1943.450785421831
 31
0.0
 70
    32
  1
{\fＭＳ Ｐゴシック|b0|i0|c128|p50;D}
 71
     5
 42
37.80000000000007
  3
JIS
100
AcDbAlignedDimension
 13
148.0393813222206
 23
1891.306681676212
 33
0.0
 14
185.8393813222207
 24
1889.426097926211
 34
0.0
100
AcDbRotatedDimension
1001
ACAD
1000
DSTYLE
1002
{
1070
   140
1040
8.0
1070
    41
1040
8.0
1070
   147
1040
3.0
1002
}
  0
LINE
  5
64A2
102
{ACAD_REACTORS
330
646E
102
}
330
1F
100
AcDbEntity
  8
Object
 62
     0
100
AcDbLine
 10
173.7585013222207
 20
1890.770866676212
 30
0.0
 11
173.7585013222207
 21
1896.129016676212
 31
0.0
  0
LINE
  5
64A3
102
{ACAD_REACTORS
330
646E
102
}
330
1F
100
AcDbEntity
  8
Object
 62
     0
100
AcDbLine
 10
160.3631263222206
 20
1890.101097926212
 30
0.0
 11
160.3631263222207
 21
1902.809836358089
 31
0.0
  0
LINE
  5
64A4
102
{ACAD_REACTORS
330
646E
102
}
330
1F
100
AcDbEntity
  8
Object
 62
     0
100
AcDbLine
 10
151.3882250722191
 20
1808.284854176212
 30
0.0
 11
151.3882250722209
 21
1908.184854176212
 31
0.0
  0
LINE
  5
64A5
330
1F
100
AcDbEntity
  8
Object
 62
     0
100
AcDbLine
 10
148.0393813222194
 20
1808.284854176212
 30
0.0
 11
148.0393813222205
 21
1881.394104176212
 31
0.0
  0
LINE
  5
64A6
330
1F
100
AcDbEntity
  8
Object
 62
     0
100
AcDbLine
 10
157.3283419181116
 20
1885.412716676212
 30
0.0
 11
153.8716364917083
 21
1808.284854176212
 31
0.0
  0
LINE
  5
64A7
102
{ACAD_REACTORS
330
646E
102
}
330
1F
100
AcDbEntity
  8
Object
 62
     0
100
AcDbLine
 10
160.3631263222205
 20
1890.770866676212
 30
0.0
 11
173.7585013222207
 21
1890.770866676212
 31
0.0
  0
LINE
  5
64A8
330
1F
100
AcDbEntity
  8
Object
 62
     0
100
AcDbLine
 10
151.3882250722206
 20
1885.412716676212
 30
0.0
 11
175.0393813222205
 21
1885.412716676212
 31
0.0
  0
LINE
  5
64A9
330
1F
100
AcDbEntity
  8
Object
 62
     0
100
AcDbLine
 10
175.0393813222205
 20
1886.087716676212
 30
0.0
 11
185.8393813222204
 21
1886.087716676211
 31
0.0
  0
LINE
  5
64AA
330
1F
100
AcDbEntity
  8
Object
 62
     0
100
AcDbLine
 10
151.3882250722206
 20
1890.101097926212
 30
0.0
 11
175.0393813222206
 21
1890.101097926212
 31
0.0
  0
LINE
  5
64AB
330
1F
100
AcDbEntity
  8
Object
 62
     0
100
AcDbLine
 10
175.0393813222206
 20
1889.426097926212
 30
0.0
 11
185.8393813222207
 21
1889.426097926211
 31
0.0
  0
LINE
  5
64AC
330
1F
100
AcDbEntity
  8
Object
 62
     0
100
AcDbLine
 10
148.0112868736313
 20
1890.791791676212
 30
0.0
 11
151.3601306236312
 21
1890.791791676212
 31
0.0
  0
LINE
  5
64AD
330
1F
100
AcDbEntity
  8
Object
 62
     0
100
AcDbLine
 10
133.9742375722205
 20
1882.151791676212
 30
0.0
 11
151.3882250722204
 21
1881.394104176212
 31
0.0
  0
LINE
  5
64AE
102
{ACAD_REACTORS
330
646E
102
}
330
1F
100
AcDbEntity
  8
Object
 62
     0
100
AcDbLine
 10
133.9742375722208
 20
1894.031791676212
 30
0.0
 11
151.3882250722206
 21
1894.789479176212
 31
0.0
  0
LINE
  5
64AF
330
1F
100
AcDbEntity
  8
Object
 62
     0
100
AcDbLine
 10
133.9742375722205
 20
1885.526791676212
 30
0.0
 11
143.0443813222206
 21
1885.663339307351
 31
0.0
  0
LINE
  5
64B0
330
1F
100
AcDbEntity
  8
Object
 62
     0
100
AcDbLine
 10
133.9742375722205
 20
1890.656791676212
 30
0.0
 11
143.0443813222207
 21
1890.520244045073
 31
0.0
  0
LINE
  5
64B1
330
1F
100
AcDbEntity
  8
Object
 62
     0
100
AcDbLine
 10
133.9742375722205
 20
1882.151791676212
 30
0.0
 11
133.9742375722205
 21
1885.526791676212
 31
0.0
  0
LINE
  5
64B2
102
{ACAD_REACTORS
330
646E
102
}
330
1F
100
AcDbEntity
  8
Object
 62
     0
100
AcDbLine
 10
133.9742375722205
 20
1890.656791676212
 30
0.0
 11
133.9742375722208
 21
1894.031791676213
 31
0.0
  0
LINE
  5
64B3
330
1F
100
AcDbEntity
  8
Object
 62
     0
100
AcDbLine
 10
148.0393813222205
 20
1882.691791676213
 30
0.0
 11
148.0393813222206
 21
1890.791791676212
 31
0.0
  0
LINE
  5
64B4
330
1F
100
AcDbEntity
  8
Object
 62
     0
100
AcDbLine
 10
185.8393813222204
 20
1886.087716676211
 30
0.0
 11
185.8393813222207
 21
1889.426097926211
 31
0.0
  0
LINE
  5
64B5
330
1F
100
AcDbEntity
  8
Object
 62
     0
100
AcDbLine
 10
175.0393813222205
 20
1885.412716676212
 30
0.0
 11
175.0393813222206
 21
1890.101097926212
 31
0.0
  0
LINE
  5
64B6
330
1F
100
AcDbEntity
  8
Object
 62
     0
100
AcDbLine
 10
151.3882250722205
 20
1889.096444801212
 30
0.0
 11
154.0673000722205
 21
1889.096444801212
 31
0.0
  0
LINE
  5
64B7
330
1F
100
AcDbEntity
  8
Object
 62
     0
100
AcDbLine
 10
151.3882250722205
 20
1887.087138551212
 30
0.0
 11
154.0673000722205
 21
1887.087138551212
 31
0.0
  0
LINE
  5
64B8
330
1F
100
AcDbEntity
  8
Object
 62
     0
100
AcDbLine
 10
154.0673000722205
 20
1887.087138551212
 30
0.0
 11
154.0673000722205
 21
1889.096444801212
 31
0.0
  0
LINE
  5
64B9
102
{ACAD_REACTORS
330
646E
102
}
330
1F
100
AcDbEntity
  8
Object
 62
     0
100
AcDbLine
 10
160.3631263222207
 20
1896.129016676212
 30
0.0
 11
173.7585013222207
 21
1896.129016676212
 31
0.0
  0
LINE
  5
64BA
330
1F
100
AcDbEntity
  8
Object
 62
     0
100
AcDbLine
 10
156.7349892949873
 20
1908.184854176212
 30
0.0
 11
160.3631263222207
 21
1902.809836358089
 31
0.0
  0
ARC
  5
64BB
330
1F
100
AcDbEntity
  8
Object
100
AcDbCircle
 10
40.6801409998929
 20
1884.716791676213
 30
0.0
 40
4.218750000000214
100
AcDbArc
 50
126.8698976458465
 51
233.1301023541534
  0
ARC
  5
64BC
102
{ACAD_REACTORS
330
64C1
102
}
330
1F
100
AcDbEntity
  8
Object
100
AcDbCircle
 10
35.6176409998929
 20
1891.466791676213
 30
0.0
 40
4.218750000000031
100
AcDbArc
 50
306.8698976458466
 51
53.13010235415339
  0
ARC
  5
64BD
102
{ACAD_REACTORS
330
64C4
330
646E
102
}
330
1F
100
AcDbEntity
  8
Object
100
AcDbCircle
 10
116.3354534359186
 20
1890.074941676212
 30
0.0
 40
4.218750000000214
100
AcDbArc
 50
306.8698976458466
 51
53.13010235415339
  0
ARC
  5
64BE
102
{ACAD_REACTORS
330
646E
102
}
330
1F
100
AcDbEntity
  8
Object
100
AcDbCircle
 10
121.3979534359185
 20
1896.824941676213
 30
0.0
 40
4.218750000000031
100
AcDbArc
 50
126.8698976458465
 51
233.1301023541534
  0
DIMENSION
  5
64BF
102
{ACAD_XDICTIONARY
360
64C0
102
}
102
{ACAD_REACTORS
330
64C1
102
}
330
1F
100
AcDbEntity
  8
Object
  6
HIDDEN
100
AcDbDimension
  2
*D42
 10
44.54006789785079
 20
1890.770866676212
 30
0.0
 11
47.96730981938071
 21
1943.568481506718
 31
0.0
 70
   160
  1
Ｆ
 71
     5
 42
5.358150000000023
 53
359.999
  3
JIS
100
AcDbAlignedDimension
 13
36.51918678759051
 23
1885.412716676212
 33
0.0
 14
39.77859521219507
 24
1890.770866676212
 34
0.0
 50
90.0
100
AcDbRotatedDimension
1001
ACAD
1000
DSTYLE
1002
{
1070
    41
1040
8.0
1070
   140
1040
8.0
1070
   147
1040
3.0
1070
   279
1070
     1
1002
}
  0
DIMENSION
  5
64C2
102
{ACAD_XDICTIONARY
360
64C3
102
}
102
{ACAD_REACTORS
330
64C4
102
}
330
1F
100
AcDbEntity
  8
Object
  6
HIDDEN
100
AcDbDimension
  2
*D43
 10
124.9015253180959
 20
1896.129016676212
 30
0.0
 11
119.3671932335455
 21
1822.357168685918
 31
0.0
 70
   160
  1
Ｅ
 71
     5
 42
5.358149999999568
 53
359.999
  3
JIS
100
AcDbAlignedDimension
 13
120.4964076482209
 23
1890.770866676213
 33
0.0
 14
117.2369992236164
 24
1896.129016676212
 34
0.0
 50
90.0
100
AcDbRotatedDimension
1001
ACAD
1000
DSTYLE
1002
{
1070
    41
1040
8.0
1070
   140
1040
8.0
1070
   147
1040
3.0
1070
   279
1070
     1
1002
}
  0
MTEXT
  5
64C5
330
1F
100
AcDbEntity
  8
Object
100
AcDbMText
 10
198.1938179425526
 20
1818.115956906168
 30
0.0
 40
8.0
 41
113.3102119809956
 71
     3
 72
     5
  1
（縦鉄筋）
 73
     1
 44
1.0
1001
ACAD
1000
MTEXTBEGIN
1070
    73
1070
     1
1070
    44
1040
1.0
1070
    74
1070
     0
1000
MTEXTEND
  0
MTEXT
  5
64C6
330
1F
100
AcDbEntity
  8
Object
100
AcDbMText
 10
44.94925215722314
 20
1938.321338629823
 30
0.0
 40
8.0
 41
48.93029431144018
 71
     1
 72
     5
  1
（縦鉄筋）
 73
     1
 44
1.0
1001
ACAD
1000
MTEXTBEGIN
1070
    73
1070
     1
1070
    44
1040
1.0
1070
    74
1070
     0
1000
MTEXTEND
1000
ACAD_MTEXT_DEFINED_HEIGHT_BEGIN
1070
    46
1040
7.206812939273921
1000
ACAD_MTEXT_DEFINED_HEIGHT_END
  0
MTEXT
  5
64C7
330
1F
100
AcDbEntity
  8
Object
100
AcDbMText
 10
129.5292889645982
 20
1817.170785976544
 30
0.0
 40
8.0
 41
85.21701853835367
 71
     3
 72
     5
  1
（横鉄筋）
 73
     1
 44
1.0
1001
ACAD
1000
MTEXTBEGIN
1070
    73
1070
     1
1070
    44
1040
1.0
1070
    74
1070
     0
1000
MTEXTEND
1000
ACAD_MTEXT_DEFINED_HEIGHT_BEGIN
1070
    46
1040
8.282181537445428
1000
ACAD_MTEXT_DEFINED_HEIGHT_END
  0
MTEXT
  5
64C8
330
1F
100
AcDbEntity
  8
Object
100
AcDbMText
 10
8.533948472812197
 20
1818.113599335505
 30
0.0
 40
8.0
 41
55.10208010934797
 71
     1
 72
     5
  1
（横鉄筋）
 73
     1
 44
1.0
1001
ACAD
1000
MTEXTBEGIN
1070
    73
1070
     1
1070
    44
1040
1.0
1070
    74
1070
     0
1000
MTEXTEND
1000
ACAD_MTEXT_DEFINED_HEIGHT_BEGIN
1070
    46
1040
9.473614503328422
1000
ACAD_MTEXT_DEFINED_HEIGHT_END
  0
LINE
  5
64C9
330
1F
100
AcDbEntity
  8
Object
100
AcDbLine
 10
-29.33002383387333
 20
1885.391791676212
 30
0.0
 11
-22.47539883387327
 21
1885.391791676212
 31
0.0
  0
LINE
  5
64CA
330
1F
100
AcDbEntity
  8
Object
100
AcDbLine
 10
-18.45678633387325
 20
1885.391791676212
 30
0.0
 11
0.2967386661267142
 21
1885.391791676212
 31
0.0
  0
LINE
  5
64CB
330
1F
100
AcDbEntity
  8
Object
100
AcDbLine
 10
4.315351166126731
 20
1885.391791676212
 30
0.0
 11
11.16997616612667
 21
1885.391791676212
 31
0.0
  0
LINE
  5
64CC
330
1F
100
AcDbEntity
  8
Object
100
AcDbLine
 10
151.3882250722205
 20
1882.691791676213
 30
0.0
 11
148.0393813222205
 21
1882.691791676213
 31
0.0
  0
LINE
  5
64CD
330
1F
100
AcDbEntity
  8
Object
100
AcDbLine
 10
-18.45678633387325
 20
1891.736791676213
 30
0.0
 11
-12.71518043334157
 21
1891.736791676213
 31
0.0
  0
LINE
  5
64CE
330
1F
100
AcDbEntity
  8
Object
100
AcDbLine
 10
-5.444867234404966
 20
1891.736791676213
 30
0.0
 11
0.2967386661267142
 21
1891.736791676212
 31
0.0
  0
LINE
  5
64CF
330
1F
100
AcDbEntity
  8
Object
100
AcDbLine
 10
-29.33002383387333
 20
1890.791791676212
 30
0.0
 11
-22.47539883387327
 21
1890.791791676212
 31
0.0
  0
LINE
  5
64D0
330
1F
100
AcDbEntity
  8
Object
100
AcDbLine
 10
4.315351166126731
 20
1890.791791676212
 30
0.0
 11
11.16997616612656
 21
1890.791791676212
 31
0.0
  0
ARC
  5
64D1
330
1F
100
AcDbEntity
  8
Object
100
AcDbCircle
 10
-9.080023833873324
 20
1811.100270709244
 30
0.0
 40
2.815416533031417
100
AcDbArc
 50
181.6492826145356
 51
358.3507173854644
  0
LINE
  5
64D2
330
1F
100
AcDbEntity
  8
Object
100
AcDbLine
 10
-13.56664535284773
 20
1891.736791676212
 30
0.0
 11
-12.71518043334146
 21
1891.736791676212
 31
0.0
  0
LINE
  5
64D3
330
1F
100
AcDbEntity
  8
Object
100
AcDbLine
 10
-5.444867234410196
 20
1891.736791676201
 30
0.0
 11
-4.593402314898809
 21
1891.736791676212
 31
0.0
  0
ARC
  5
64D4
330
1F
100
AcDbEntity
  8
Object
100
AcDbCircle
 10
-40.13002383387328
 20
1885.391791676212
 30
0.0
 40
2.700000000000392
100
AcDbArc
 50
99.78891776653689
 51
279.7889177665551
  0
ARC
  5
64D5
330
1F
100
AcDbEntity
  8
Object
100
AcDbCircle
 10
-29.33002383387333
 20
1870.541791676212
 30
0.0
 40
20.25
100
AcDbArc
 50
90.0
 51
114.9449540199185
  0
ARC
  5
64D6
330
1F
100
AcDbEntity
  8
Object
100
AcDbCircle
 10
-42.4252789426526
 20
1898.69524250619
 30
0.0
 40
10.8
100
AcDbArc
 50
279.7889177665368
 51
294.9449540199185
  0
ARC
  5
64D7
330
1F
100
AcDbEntity
  8
Object
100
AcDbCircle
 10
-29.33002383387333
 20
1870.541791676212
 30
0.0
 40
14.85
100
AcDbArc
 50
90.0
 51
114.9449540199432
  0
ARC
  5
64D8
330
1F
100
AcDbEntity
  8
Object
100
AcDbCircle
 10
-42.42527894265531
 20
1898.695242506189
 30
0.0
 40
16.2
100
AcDbArc
 50
279.7889177665551
 51
294.9449540199185
  0
ARC
  5
64D9
330
1F
100
AcDbEntity
  8
Object
100
AcDbCircle
 10
21.96997616612685
 20
1890.791791676212
 30
0.0
 40
2.700000000000392
100
AcDbArc
 50
279.7889177665368
 51
99.78891776655991
  0
ARC
  5
64DA
330
1F
100
AcDbEntity
  8
Object
100
AcDbCircle
 10
11.16997616612667
 20
1905.641791676212
 30
0.0
 40
20.25
100
AcDbArc
 50
270.0
 51
294.9449540199185
  0
ARC
  5
64DB
330
1F
100
AcDbEntity
  8
Object
100
AcDbCircle
 10
24.26523127490629
 20
1877.488340846234
 30
0.0
 40
10.8
100
AcDbArc
 50
99.78891776653689
 51
114.9449540199185
  0
ARC
  5
64DC
330
1F
100
AcDbEntity
  8
Object
100
AcDbCircle
 10
11.16997616612667
 20
1905.641791676212
 30
0.0
 40
14.85
100
AcDbArc
 50
270.0
 51
294.9449540199432
  0
ARC
  5
64DD
330
1F
100
AcDbEntity
  8
Object
100
AcDbCircle
 10
24.26523127490901
 20
1877.488340846235
 30
0.0
 40
16.2
100
AcDbArc
 50
99.78891776655991
 51
114.9449540199432
  0
ARC
  5
64DE
330
1F
100
AcDbEntity
  8
塗潰し
100
AcDbCircle
 10
-9.080023833873324
 20
1893.408091676213
 30
0.0
 40
2.679074999999999
100
AcDbArc
 50
355.487239242929
 51
90.0
  0
ARC
  5
64DF
330
1F
100
AcDbEntity
  8
塗潰し
100
AcDbCircle
 10
-9.080023833873324
 20
1893.408091676213
 30
0.0
 40
2.679074999999999
100
AcDbArc
 50
90.0
 51
184.5127607571233
  0
ARC
  5
64E0
102
{ACAD_REACTORS
330
646E
102
}
330
1F
100
AcDbEntity
  8
Object
100
AcDbCircle
 10
145.3603063222228
 20
1888.091791676212
 30
0.0
 40
2.7
100
AcDbArc
 50
263.0733044976945
 51
97.70789088823782
  0
LINE
  5
64E1
330
1F
100
AcDbEntity
  8
Object
100
AcDbLine
 10
143.0443813222207
 20
1890.502959176212
 30
0.0
 11
144.9981751285688
 21
1890.767396467392
 31
0.0
  0
LINE
  5
64E2
330
1F
100
AcDbEntity
  8
Object
100
AcDbLine
 10
142.9744238259557
 20
1885.661791676212
 30
0.0
 11
145.0346880079478
 21
1885.411498275592
 31
0.0
  0
HATCH
  5
64E3
330
1F
100
AcDbEntity
  8
塗潰し
100
AcDbHatch
 10
0.0
 20
0.0
 30
0.0
210
0.0
220
0.0
230
1.0
  2
ANSI31
 70
     0
 71
     1
 91
        1
 92
        7
 72
     1
 73
     1
 93
        2
 10
142.6812313222261
 20
1888.091791676212
 42
1.0
 10
148.0393813222195
 20
1888.091791676212
 42
1.0
 97
        1
330
64E4
 75
     0
 76
     1
 52
0.0
 41
0.675
 77
     0
 78
     1
 53
135.0
 43
20.80009862292223
 44
-577.7459025514977
 45
1.515418220430418
 46
1.515418220430418
 79
     0
 47
0.1401275144761638
 98
        1
 10
144.1929495396268
 20
1888.753999646777
1001
ACAD
1010
0.0
1020
0.0
1030
0.0
  0
CIRCLE
  5
64E4
102
{ACAD_REACTORS
330
64E3
102
}
330
1F
100
AcDbEntity
  8
塗潰し
100
AcDbCircle
 10
145.3603063222228
 20
1888.091791676212
 30
0.0
 40
2.679074999996724
  0
LINE
  5
64E5
102
{ACAD_REACTORS
330
646E
102
}
330
1F
100
AcDbEntity
  8
Object
100
AcDbLine
 10
151.3882250722206
 20
1890.770866676212
 30
0.0
 11
120.496407648221
 21
1890.770866676213
 31
0.0
  0
LINE
  5
64E6
330
1F
100
AcDbEntity
  8
Object
100
AcDbLine
 10
156.7349892949873
 20
1908.184854176212
 30
0.0
 11
151.3882250722209
 21
1908.184854176212
 31
0.0
  0
LINE
  5
64E7
330
1F
100
AcDbEntity
  8
Object
100
AcDbLine
 10
153.8716364917083
 20
1808.284854176212
 30
0.0
 11
148.0393813222194
 21
1808.284854176212
 31
0.0
  0
VIEWPORT
  5
682C
102
{ACAD_XDICTIONARY
360
686A
102
}
330
682B
100
AcDbEntity
 67
     1
  8
0
100
AcDbViewport
 10
227.6222880609148
 20
55.07325925901824
 30
0.0
 40
548.877038610678
 41
266.4987885581405
 68
     1
 69
     1
 12
227.6222880609148
 22
55.07325925901824
 13
0.0
 23
0.0
 14
10.0
 24
10.0
 15
10.0
 25
10.0
 16
0.0
 26
0.0
 36
1.0
 17
0.0
 27
0.0
 37
0.0
 42
50.0
 43
0.0
 44
0.0
 45
266.4987885581405
 50
0.0
 51
0.0
 72
  1000
 90
   557152
  1

281
     0
 71
     1
 74
     0
110
0.0
120
0.0
130
0.0
111
1.0
121
0.0
131
0.0
112
0.0
122
1.0
132
0.0
 79
     0
146
0.0
  0
LWPOLYLINE
  5
682D
102
{ACAD_REACTORS
330
682E
102
}
330
682B
100
AcDbEntity
 67
     1
  8
Viewport
100
AcDbPolyline
 90
        8
 70
     1
 43
0.0
 10
12.5
 20
202.0
 10
284.5
 20
202.0
 10
284.4978723404242
 20
34.0
 10
167.4978723404242
 20
34.0
 10
167.4978723404242
 20
7.0
 10
129.5
 20
7.0
 10
12.5
 20
7.0
 10
12.5
 20
31.0
  0
VIEWPORT
  5
682E
102
{ACAD_XDICTIONARY
360
686C
102
}
330
682B
100
AcDbEntity
 67
     1
  8
Viewport
100
AcDbViewport
 10
148.5
 20
104.5
 30
0.0
 40
272.0000000000001
 41
195.0
 68
     2
 69
     2
 12
69.75649760405788
 22
1882.662437498743
 13
0.0
 23
0.0
 14
10.0
 24
10.0
 15
10.0
 25
10.0
 16
0.0
 26
0.0
 36
1.0
 17
0.0
 27
0.0
 37
0.0
 42
50.0
 43
0.0
 44
0.0
 45
390.0000009079555
 50
0.0
 51
0.0
 72
   100
 90
    98368
340
682D
  1

281
     0
 71
     1
 74
     0
110
0.0
120
0.0
130
0.0
111
1.0
121
0.0
131
0.0
112
0.0
122
1.0
132
0.0
 79
     0
146
0.0
  0
MTEXT
  5
682F
330
682B
100
AcDbEntity
 67
     1
  8
Object
370
    -3
100
AcDbMText
 10
194.0620040496426
 20
22.75
 30
0.0
 40
5.0
 41
77.0
 71
     4
 72
     5
  1
平メッシュ対応スペーサ
 73
     1
 44
1.0
1001
AcDbBlockRepETag
1070
     1
1071
       68
1005
682F
1001
ACAD
1000
MTEXTBEGIN
1070
    73
1070
     1
1070
    44
1040
1.0
1070
    74
1070
     0
1000
MTEXTEND
  0
LINE
  5
6830
330
682B
100
AcDbEntity
 67
     1
  8
0
100
AcDbLine
 10
12.5
 20
7.0
 30
0.0
 11
12.5
 21
202.0
 31
0.0
1001
AcDbBlockRepETag
1070
     1
1071
        2
1005
6830
  0
LINE
  5
6831
330
682B
100
AcDbEntity
 67
     1
  8
0
100
AcDbLine
 10
25.0
 20
0.0
 30
0.0
 11
0.0
 21
0.0
 31
0.0
1001
AcDbBlockRepETag
1070
     1
1071
        3
1005
6831
  0
LINE
  5
6832
330
682B
100
AcDbEntity
 67
     1
  8
0
100
AcDbLine
 10
0.0
 20
0.0
 30
0.0
 11
0.0
 21
10.0
 31
0.0
1001
AcDbBlockRepETag
1070
     1
1071
        4
1005
6832
  0
LINE
  5
6833
330
682B
100
AcDbEntity
 67
     1
  8
0
100
AcDbLine
 10
148.5
 20
6.0
 30
0.0
 11
148.5
 21
5.0
 31
0.0
1001
AcDbBlockRepETag
1070
     1
1071
       20
1005
6833
  0
LINE
  5
6834
330
682B
100
AcDbEntity
 67
     1
  8
0
100
AcDbLine
 10
0.0
 20
210.0
 30
0.0
 11
25.0
 21
210.0
 31
0.0
1001
AcDbBlockRepETag
1070
     1
1071
       23
1005
6834
  0
LINE
  5
6835
330
682B
100
AcDbEntity
 67
     1
  8
0
100
AcDbLine
 10
0.0
 20
200.0
 30
0.0
 11
0.0
 21
210.0
 31
0.0
1001
AcDbBlockRepETag
1070
     1
1071
       24
1005
6835
  0
LINE
  5
6836
330
682B
100
AcDbEntity
 67
     1
  8
0
100
AcDbLine
 10
284.5
 20
202.0
 30
0.0
 11
284.5
 21
7.0
 31
0.0
1001
AcDbBlockRepETag
1070
     1
1071
       36
1005
6836
  0
LINE
  5
6837
330
682B
100
AcDbEntity
 67
     1
  8
0
100
AcDbLine
 10
297.0
 20
10.0
 30
0.0
 11
297.0
 21
0.0
 31
0.0
1001
AcDbBlockRepETag
1070
     1
1071
       40
1005
6837
  0
LINE
  5
6838
330
682B
100
AcDbEntity
 67
     1
  8
0
100
AcDbLine
 10
297.0
 20
210.0
 30
0.0
 11
297.0
 21
200.0
 31
0.0
1001
AcDbBlockRepETag
1070
     1
1071
       54
1005
6838
  0
LINE
  5
6839
330
682B
100
AcDbEntity
 67
     1
  8
0
100
AcDbLine
 10
272.0
 20
210.0
 30
0.0
 11
297.0
 21
210.0
 31
0.0
1001
AcDbBlockRepETag
1070
     1
1071
       55
1005
6839
  0
LINE
  5
683A
330
682B
100
AcDbEntity
 67
     1
  8
0
100
AcDbLine
 10
272.0
 20
0.0
 30
0.0
 11
297.0
 21
0.0
 31
0.0
1001
AcDbBlockRepETag
1070
     1
1071
       56
1005
683A
  0
LINE
  5
683B
330
682B
100
AcDbEntity
 67
     1
  8
0
100
AcDbLine
 10
284.5
 20
7.0
 30
0.0
 11
12.5
 21
7.0
 31
0.0
1001
AcDbBlockRepETag
1070
     1
1071
       57
1005
0
  0
LINE
  5
683C
330
682B
100
AcDbEntity
 67
     1
  8
0
100
AcDbLine
 10
12.5
 20
202.0
 30
0.0
 11
284.5
 21
202.0
 31
0.0
1001
AcDbBlockRepETag
1070
     1
1071
       58
1005
0
  0
LINE
  5
683D
330
682B
100
AcDbEntity
 67
     1
  8
0
 62
     0
380
     1
100
AcDbLine
 10
284.5
 20
7.0
 30
0.0
 11
284.5
 21
43.0
 31
0.0
1001
AcDbBlockRepETag
1070
     1
1071
       49
1005
683D
  0
LINE
  5
683E
330
682B
100
AcDbEntity
 67
     1
  8
0
100
AcDbLine
 10
284.4978723404242
 20
16.0
 30
0.0
 11
167.4978723404242
 21
16.0
 31
0.0
1001
AcDbBlockRepETag
1070
     1
1071
      166
1005
683E
  0
LINE
  5
683F
330
682B
100
AcDbEntity
 67
     1
  8
0
100
AcDbLine
 10
218.4978723404242
 20
7.0
 30
0.0
 11
218.4978723404242
 21
16.0
 31
0.0
1001
AcDbBlockRepETag
1070
     1
1071
      167
1005
683F
  0
LINE
  5
6840
330
682B
100
AcDbEntity
 67
     1
  8
0
100
AcDbLine
 10
284.4978723404242
 20
34.0
 30
0.0
 11
167.4978723404242
 21
34.0
 31
0.0
1001
AcDbBlockRepETag
1070
     1
1071
      169
1005
6840
  0
MTEXT
  5
6841
330
682B
100
AcDbEntity
 67
     1
  8
0
100
AcDbMText
 10
192.9978723404242
 20
11.5
 30
0.0
 40
4.0
 41
51.0
 71
     5
 72
     5
  1
富国石油株式会社
 73
     1
 44
1.0
1001
AcDbBlockRepETag
1070
     1
1071
      171
1005
6841
1001
ACAD
1000
MTEXTBEGIN
1070
    73
1070
     1
1070
    44
1040
1.0
1070
    74
1070
     0
1000
MTEXTEND
  0
LINE
  5
6842
330
682B
100
AcDbEntity
 67
     1
  8
0
  6
HIDDEN2
 48
0.5
100
AcDbLine
 10
284.4978723404242
 20
29.5
 30
0.0
 11
167.4978723404242
 21
29.5
 31
0.0
1001
AcDbBlockRepETag
1070
     1
1071
      180
1005
6842
  0
ENDSEC
  0
SECTION
  2
OBJECTS
  0
DICTIONARY
  5
C
330
0
100
AcDbDictionary
281
     1
  3
ACAD_COLOR
350
14D
  3
ACAD_GROUP
350
D
  3
ACAD_LAYOUT
350
1A
  3
ACAD_MATERIAL
350
14C
  3
ACAD_MLINESTYLE
350
17
  3
ACAD_PLOTSETTINGS
350
19
  3
ACAD_PLOTSTYLENAME
350
E
  3
ACAD_TABLESTYLE
350
17B
  3
ACAD_VISUALSTYLE
350
1D3
  3
AcDbVariableDictionary
350
148
  3
DWGPROPS
350
6850
  0
DICTIONARY
  5
18A
330
2
100
AcDbDictionary
280
     1
281
     1
  3
ACAD_LAYERFILTERS
360
463
  3
ACAD_LAYERSTATES
360
18B
  3
ACLYDICTIONARY
360
462
  0
DICTIONARY
  5
B52
330
1F
100
AcDbDictionary
280
     1
281
     1
  3
ACAD_SORTENTS
360
B53
  0
DICTIONARY
  5
28E
330
AB
100
AcDbDictionary
280
     1
281
     1
  0
DICTIONARY
  5
4E8
330
4E7
100
AcDbDictionary
280
     1
281
     1
  3
ACAD_SORTENTS
360
6DE
  0
DICTIONARY
  5
930
330
6ED
100
AcDbDictionary
280
     1
281
     1
  3
ACAD_SORTENTS
360
931
  0
DICTIONARY
  5
1128
330
1044
100
AcDbDictionary
280
     1
281
     1
  3
ACAD_SORTENTS
360
1129
  0
DICTIONARY
  5
6859
330
316
100
AcDbDictionary
280
     1
281
     1
  3
ACAD_MTEXT_RT
360
685A
  0
DICTIONARY
  5
685D
330
539
100
AcDbDictionary
280
     1
281
     1
  3
ACAD_MTEXT_RT
360
685E
  0
DICTIONARY
  5
6865
330
9C6
100
AcDbDictionary
280
     1
281
     1
  3
ACAD_MTEXT_RT
360
6866
  0
DICTIONARY
  5
64C0
330
64BF
100
AcDbDictionary
280
     1
281
     1
  3
ACAD_DIMASSOC
360
64C1
  0
DICTIONARY
  5
64C3
330
64C2
100
AcDbDictionary
280
     1
281
     1
  3
ACAD_DIMASSOC
360
64C4
  0
DICTIONARY
  5
686A
330
682C
100
AcDbDictionary
280
     1
281
     1
  3
ACAD_XREC_ROUNDTRIP
360
686B
  0
DICTIONARY
  5
686C
330
682E
100
AcDbDictionary
280
     1
281
     1
  3
ACAD_XREC_ROUNDTRIP
360
686D
  0
DICTIONARY
  5
14D
102
{ACAD_REACTORS
330
C
102
}
330
C
100
AcDbDictionary
281
     1
  0
DICTIONARY
  5
D
102
{ACAD_REACTORS
330
C
102
}
330
C
100
AcDbDictionary
281
     1
  0
DICTIONARY
  5
1A
102
{ACAD_REACTORS
330
C
102
}
330
C
100
AcDbDictionary
281
     1
  3
A4横
350
6828
  3
Model
350
22
  0
DICTIONARY
  5
14C
102
{ACAD_REACTORS
330
C
102
}
330
C
100
AcDbDictionary
281
     1
  3
ByBlock
350
1D1
  3
ByLayer
350
1D0
  3
Global
350
1D2
  0
DICTIONARY
  5
17
102
{ACAD_REACTORS
330
C
102
}
330
C
100
AcDbDictionary
281
     1
  3
Standard
350
18
  0
DICTIONARY
  5
19
102
{ACAD_REACTORS
330
C
102
}
330
C
100
AcDbDictionary
281
     1
  3
JIS A4 title block (portrait) - no output device
350
11F
  0
ACDBDICTIONARYWDFLT
  5
E
102
{ACAD_REACTORS
330
C
102
}
330
C
100
AcDbDictionary
281
     1
  3
Normal
350
F
100
AcDbDictionaryWithDefault
340
F
  0
DICTIONARY
  5
17B
102
{ACAD_REACTORS
330
C
102
}
330
C
100
AcDbDictionary
281
     1
  3
Standard
350
17C
  0
DICTIONARY
  5
1D3
102
{ACAD_REACTORS
330
C
102
}
330
C
100
AcDbDictionary
281
     1
  3
2dWireframe
350
1D9
  3
3D Hidden
350
1DB
  3
3dWireframe
350
1DA
  3
Basic
350
1D8
  3
Brighten
350
1DF
  3
ColorChange
350
1E3
  3
Conceptual
350
1DC
  3
Dim
350
1DE
  3
Facepattern
350
1E2
  3
Flat
350
1D4
  3
FlatWithEdges
350
1D5
  3
Gouraud
350
1D6
  3
GouraudWithEdges
350
1D7
  3
Linepattern
350
1E1
  3
Realistic
350
1DD
  3
Thicken
350
1E0
  0
DICTIONARY
  5
148
102
{ACAD_REACTORS
330
C
102
}
330
C
100
AcDbDictionary
281
     1
  3
CTABLESTYLE
350
190
  3
DIMASSOC
350
14A
  3
HIDETEXT
350
149
  3
INDEXCTL
350
67EF
  3
PSOLHEIGHT
350
684F
  3
PSOLWIDTH
350
684E
  3
SORTENTS
350
67EE
  0
XRECORD
  5
6850
102
{ACAD_REACTORS
330
C
102
}
330
C
100
AcDbXrecord
280
     1
  1
DWGPROPS COOKIE
  2

  3

  4

  6

  7

  8
k-uehara
  9

300
=
301
=
302
=
303
=
304
=
305
=
306
=
307
=
308
=
309
=
 40
0.2959008796296296
 41
2454379.577641921
 42
2454936.701159653
  1

 90
        0
  0
DICTIONARY
  5
463
102
{ACAD_REACTORS
330
18A
102
}
330
18A
100
AcDbDictionary
281
     1
  0
DICTIONARY
  5
18B
102
{ACAD_REACTORS
330
18A
102
}
330
18A
100
AcDbDictionary
281
     1
  3
ACAD_VIEWS_元図１
350
6AC
  0
DICTIONARY
  5
462
102
{ACAD_REACTORS
330
18A
102
}
330
18A
100
AcDbDictionary
281
     1
1001
ACAD
1000
<All
  0
SORTENTSTABLE
  5
B53
102
{ACAD_REACTORS
330
B52
102
}
330
B52
100
AcDbSortentsTable
330
1F
331
631F
  5
3F9B
331
1145
  5
1145
331
34FE
  5
3502
331
3503
  5
3F9C
331
114F
  5
34F5
331
34F4
  5
34FC
331
1141
  5
1141
331
34FA
  5
3500
331
34FF
  5
3503
331
3504
  5
3F9D
331
31F6
  5
2A58
331
581C
  5
5C19
331
34F5
  5
34FD
331
1142
  5
1142
331
34FB
  5
3501
331
1E05
  5
114B
331
5E63
  5
5E64
331
4B01
  5
3F9E
331
3500
  5
3507
331
5AB1
  5
5C25
331
3505
  5
3F9F
331
31F7
  5
2A59
331
34D4
  5
34F4
331
1CC6
  5
1149
331
383F
  5
5C18
331
1148
  5
1148
331
3501
  5
3508
331
5AB2
  5
5DEA
331
3506
  5
3FA0
331
1CC7
  5
22FB
331
34F2
  5
34FA
331
5FA0
  5
5FA1
331
385D
  5
2A5A
331
1144
  5
1144
331
1149
  5
2A51
331
5AAE
  5
5C24
331
4BA5
  5
2A56
331
1CC8
  5
22FC
331
34F3
  5
34FB
  0
SORTENTSTABLE
  5
6DE
102
{ACAD_REACTORS
330
4E8
102
}
330
4E8
100
AcDbSortentsTable
330
4E7
  0
SORTENTSTABLE
  5
931
102
{ACAD_REACTORS
330
930
102
}
330
930
100
AcDbSortentsTable
330
6ED
  0
SORTENTSTABLE
  5
1129
102
{ACAD_REACTORS
330
1128
102
}
330
1128
100
AcDbSortentsTable
330
1044
  0
XRECORD
  5
685A
102
{ACAD_REACTORS
330
6859
102
}
330
6859
100
AcDbXrecord
280
     1
 40
476.0
  1
検^J図
  0
XRECORD
  5
685E
102
{ACAD_REACTORS
330
685D
102
}
330
685D
100
AcDbXrecord
280
     1
 40
476.0
  1
検^J図
  0
XRECORD
  5
6866
102
{ACAD_REACTORS
330
6865
102
}
330
6865
100
AcDbXrecord
280
     1
 40
476.0
  1
検^J図
  0
DIMASSOC
  5
64C1
102
{ACAD_REACTORS
330
64C0
102
}
330
64C0
100
AcDbDimAssoc
330
64BF
 90
        3
 70
     0
 71
     0
  1
AcDbOsnapPointRef
 72
    13
331
6496
 73
     2
 91
        0
 40
0.0
 10
0.0
 20
0.0
 30
2.000000000000000E+50
 75
     0
  1
AcDbOsnapPointRef
 72
     6
331
6495
 73
     2
 91
        0
 40
0.0
 10
0.0
 20
0.0
 30
0.0
332
64BC
 74
     2
 92
        0
 75
     0
  0
DIMASSOC
  5
64C4
102
{ACAD_REACTORS
330
64C3
102
}
330
64C3
100
AcDbDimAssoc
330
64C2
 90
        3
 70
     0
 71
     0
  1
AcDbOsnapPointRef
 72
     6
331
646D
 73
     2
 91
        0
 40
0.9999999999999984
 10
0.0
 20
0.0
 30
0.0
332
64BD
 74
     2
 92
        0
 75
     0
  1
AcDbOsnapPointRef
 72
     1
331
646F
 73
     2
 91
        0
 40
0.9999999999999998
 10
0.0
 20
0.0
 30
2.000000000000000E+50
 75
     0
  0
XRECORD
  5
686B
102
{ACAD_REACTORS
330
686A
102
}
330
686A
100
AcDbXrecord
280
     1
102
SHADEPLOT
 70
     0
  0
XRECORD
  5
686D
102
{ACAD_REACTORS
330
686C
102
}
330
686C
100
AcDbXrecord
280
     1
102
SHADEPLOT
 70
     0
  0
LAYOUT
  5
6828
102
{ACAD_XDICTIONARY
360
6829
102
}
102
{ACAD_REACTORS
330
1A
102
}
330
1A
100
AcDbPlotSettings
  1

  2
Canon iR C3200 LIPS
  4
A4
  6

 40
5.873749732971191
 41
5.873747825622558
 42
5.873748779296875
 43
5.873748779296875
 44
209.9733276367187
 45
296.9259948730469
 46
-5.893494129188383
 47
-5.919814586649977
 48
0.0
 49
0.0
140
0.0
141
0.0
142
1.0
143
1.0
 70
   692
 72
     1
 73
     1
 74
     1
  7
monochrome.ctb
 75
    16
147
1.0
148
0.0090630292066862
149
0.0064082024693448
100
AcDbLayout
  1
A4横
 70
     1
 71
     1
 10
0.037002778146416
 20
0.0133361937478469
 11
296.9629976511933
 21
209.9866638304666
 12
0.0
 22
0.0
 32
0.0
 14
0.0
 24
0.0
 34
0.0
 15
297.0
 25
210.0
 35
0.0
146
0.0
 13
0.0
 23
0.0
 33
0.0
 16
1.0
 26
0.0
 36
0.0
 17
0.0
 27
1.0
 37
0.0
 76
     0
330
682B
331
682C
1001
ACAD_PSEXT
1000
Canon iR C3200 LIPS
1000
Canon iR C3200 LIPS
1000
IP_128.1.1.200
1000

1070
     0
  0
LAYOUT
  5
22
102
{ACAD_XDICTIONARY
360
6851
102
}
102
{ACAD_REACTORS
330
1A
102
}
330
1A
100
AcDbPlotSettings
  1

  2
none_device
  4
ISO_A4_(210.00_x_297.00_MM)
  6

 40
7.5
 41
20.0
 42
7.5
 43
20.0
 44
210.0
 45
297.0
 46
0.0
 47
73.36421725239617
 48
0.0
 49
0.0
140
0.0
141
0.0
142
1.0
143
2.869813509774057
 70
 11956
 72
     1
 73
     0
 74
     0
  7

 75
     0
147
0.3484546980471668
148
1.967705816488885
149
9.729414201041008
100
AcDbLayout
  1
Model
 70
     1
 71
     0
 10
0.0
 20
0.0
 11
12.0
 21
9.0
 12
0.0
 22
0.0
 32
0.0
 14
0.0
 24
0.0
 34
0.0
 15
0.0
 25
0.0
 35
0.0
146
0.0
 13
0.0
 23
0.0
 33
0.0
 16
1.0
 26
0.0
 36
0.0
 17
0.0
 27
1.0
 37
0.0
 76
     0
330
1F
331
1B5
1001
ACAD_PSEXT
1000
None
1000
None
1000
Not applicable
1000
The layout will not be plotted unless a new plotter configuration name is selected.
1070
     0
  0
MATERIAL
  5
1D1
102
{ACAD_XDICTIONARY
360
67FE
102
}
102
{ACAD_REACTORS
330
14C
102
}
330
14C
100
AcDbMaterial
  1
ByBlock
  0
MATERIAL
  5
1D0
102
{ACAD_XDICTIONARY
360
67FC
102
}
102
{ACAD_REACTORS
330
14C
102
}
330
14C
100
AcDbMaterial
  1
ByLayer
  0
MATERIAL
  5
1D2
102
{ACAD_XDICTIONARY
360
6800
102
}
102
{ACAD_REACTORS
330
14C
102
}
330
14C
100
AcDbMaterial
  1
Global
  0
MLINESTYLE
  5
18
102
{ACAD_REACTORS
330
17
102
}
330
17
100
AcDbMlineStyle
  2
STANDARD
 70
     0
  3

 62
   256
 51
90.0
 52
90.0
 71
     2
 49
0.5
 62
   256
  6
BYLAYER
 49
-0.5
 62
   256
  6
BYLAYER
  0
PLOTSETTINGS
  5
11F
102
{ACAD_XDICTIONARY
360
6855
102
}
102
{ACAD_REACTORS
330
19
102
}
330
19
100
AcDbPlotSettings
  1
JIS A4 title block (portrait) - no output device
  2
None
  4
ISO_A4_(210.00_x_297.00_MM)
  6

 40
7.549999999999998
 41
20.05
 42
7.549999999999998
 43
20.05
 44
210.0
 45
297.0
 46
-7.559999999999997
 47
-20.06
 48
0.0
 49
0.0
140
0.0
141
0.0
142
1.0
143
1.0
 70
   692
 72
     1
 73
     0
 74
     1
  7

 75
    16
147
1.0
148
0.0128164049386896
149
0.0090630292066862
  0
ACDBPLACEHOLDER
  5
F
102
{ACAD_REACTORS
330
E
102
}
330
E
  0
TABLESTYLE
  5
17C
102
{ACAD_XDICTIONARY
360
6857
102
}
102
{ACAD_REACTORS
330
17B
102
}
330
17B
100
AcDbTableStyle
  3
Standard
 70
     0
 71
     0
 40
1.5
 41
1.5
280
     0
281
     0
  7
Standard
140
4.5
170
     2
 62
     0
 63
     7
283
     0
274
    -2
284
     1
 64
     0
275
    -2
285
     1
 65
     0
276
    -2
286
     1
 66
     0
277
    -2
287
     1
 67
     0
278
    -2
288
     1
 68
     0
279
    -2
289
     1
 69
     0
  7
Standard
140
6.0
170
     5
 62
     0
 63
     7
283
     0
274
    -2
284
     1
 64
     0
275
    -2
285
     1
 65
     0
276
    -2
286
     1
 66
     0
277
    -2
287
     1
 67
     0
278
    -2
288
     1
 68
     0
279
    -2
289
     1
 69
     0
  7
Standard
140
4.5
170
     5
 62
     0
 63
     7
283
     0
274
    -2
284
     1
 64
     0
275
    -2
285
     1
 65
     0
276
    -2
286
     1
 66
     0
277
    -2
287
     1
 67
     0
278
    -2
288
     1
 68
     0
279
    -2
289
     1
 69
     0
  0
VISUALSTYLE
  5
1D9
102
{ACAD_REACTORS
330
1D3
102
}
330
1D3
100
AcDbVisualStyle
  2
2dWireframe
 70
     4
 71
     0
 72
     2
 73
     1
 90
        0
 40
-0.6
 41
-30.0
 62
     5
 63
     7
 74
     1
 91
        4
 64
     7
 65
   257
 75
     1
175
     1
 42
1.0
 92
        0
 66
   257
 43
1.0
 76
     1
 77
     6
 78
     2
 67
     7
 79
     5
170
     0
171
     0
290
     0
174
     0
 93
        1
 44
0.0
173
     0
291
     0
 45
0.0
1001
ACAD
1000
AcDbSavedByObjectVersion
1070
     0
1000
AcDbSavedByObjectVersion
1070
     0
  0
VISUALSTYLE
  5
1DB
102
{ACAD_REACTORS
330
1D3
102
}
330
1D3
100
AcDbVisualStyle
  2
3D Hidden
 70
     6
 71
     1
 72
     2
 73
     2
 90
        0
 40
-0.6
 41
-30.0
 62
     5
 63
     7
 74
     2
 91
        2
 64
     7
 65
   257
 75
     2
175
     1
 42
40.0
 92
        0
 66
   257
 43
1.0
 76
     1
 77
     6
 78
     2
 67
     7
 79
     3
170
     0
171
     0
290
     0
174
     0
 93
        1
 44
0.0
173
     0
291
     0
 45
0.0
1001
ACAD
1000
AcDbSavedByObjectVersion
1070
     0
1000
AcDbSavedByObjectVersion
1070
     0
  0
VISUALSTYLE
  5
1DA
102
{ACAD_REACTORS
330
1D3
102
}
330
1D3
100
AcDbVisualStyle
  2
3dWireframe
 70
     5
 71
     0
 72
     2
 73
     1
 90
        0
 40
-0.6
 41
-30.0
 62
     5
 63
     7
 74
     1
 91
        4
 64
     7
 65
   257
 75
     1
175
     1
 42
1.0
 92
        0
 66
   257
 43
1.0
 76
     1
 77
     6
 78
     2
 67
     7
 79
     5
170
     0
171
     0
290
     0
174
     0
 93
        1
 44
0.0
173
     0
291
     0
 45
0.0
1001
ACAD
1000
AcDbSavedByObjectVersion
1070
     0
1000
AcDbSavedByObjectVersion
1070
     0
  0
VISUALSTYLE
  5
1D8
102
{ACAD_REACTORS
330
1D3
102
}
330
1D3
100
AcDbVisualStyle
  2
Basic
 70
     7
 71
     1
 72
     0
 73
     1
 90
        0
 40
-0.6
 41
-30.0
 62
     5
 63
     7
 74
     0
 91
        4
 64
     7
 65
   257
 75
     1
175
     1
 42
1.0
 92
        8
 66
     7
 43
1.0
 76
     1
 77
     6
 78
     2
 67
     7
 79
     5
170
     0
171
     0
290
     0
174
     0
 93
        1
 44
0.0
173
     0
291
     1
 45
0.0
1001
ACAD
1000
AcDbSavedByObjectVersion
1070
     0
1000
AcDbSavedByObjectVersion
1070
     0
  0
VISUALSTYLE
  5
1DF
102
{ACAD_REACTORS
330
1D3
102
}
330
1D3
100
AcDbVisualStyle
  2
Brighten
 70
    12
 71
     2
 72
     2
 73
     1
 90
        0
 40
-0.6
 41
-30.0
 62
     5
 63
     7
 74
     1
 91
        4
 64
     7
 65
   257
 75
     1
175
     1
 42
1.0
 92
        8
 66
     7
 43
1.0
 76
     1
 77
     6
 78
     2
 67
     7
 79
     5
170
     0
171
     0
290
     0
174
     0
 93
        1
 44
50.0
173
     0
291
     1
 45
0.0
1001
ACAD
1000
AcDbSavedByObjectVersion
1070
     0
1000
AcDbSavedByObjectVersion
1070
     0
  0
VISUALSTYLE
  5
1E3
102
{ACAD_REACTORS
330
1D3
102
}
330
1D3
100
AcDbVisualStyle
  2
ColorChange
 70
    16
 71
     2
 72
     2
 73
     3
 90
        0
 40
-0.6
 41
-30.0
 62
     5
 63
     8
 74
     1
 91
        4
 64
     7
 65
   257
 75
     1
175
     1
 42
1.0
 92
        8
 66
     8
 43
1.0
 76
     1
 77
     6
 78
     2
 67
     7
 79
     5
170
     0
171
     0
290
     0
174
     0
 93
        1
 44
0.0
173
     0
291
     1
 45
0.0
1001
ACAD
1000
AcDbSavedByObjectVersion
1070
     0
1000
AcDbSavedByObjectVersion
1070
     0
  0
VISUALSTYLE
  5
1DC
102
{ACAD_REACTORS
330
1D3
102
}
330
1D3
100
AcDbVisualStyle
  2
Conceptual
 70
     9
 71
     3
 72
     2
 73
     1
 90
        0
 40
-0.6
 41
-30.0
 62
     5
 63
     7
 74
     2
 91
        2
 64
     7
 65
   257
 75
     1
175
     1
 42
40.0
 92
        8
 66
     7
 43
1.0
 76
     1
 77
     6
 78
     2
 67
     7
 79
     3
170
     0
171
     0
290
     0
174
     0
 93
        1
 44
0.0
173
     0
291
     0
 45
0.0
1001
ACAD
1000
AcDbSavedByObjectVersion
1070
     0
1000
AcDbSavedByObjectVersion
1070
     0
  0
VISUALSTYLE
  5
1DE
102
{ACAD_REACTORS
330
1D3
102
}
330
1D3
100
AcDbVisualStyle
  2
Dim
 70
    11
 71
     2
 72
     2
 73
     1
 90
        0
 40
-0.6
 41
-30.0
 62
     5
 63
     7
 74
     1
 91
        4
 64
     7
 65
   257
 75
     1
175
     1
 42
1.0
 92
        8
 66
     7
 43
1.0
 76
     1
 77
     6
 78
     2
 67
     7
 79
     5
170
     0
171
     0
290
     0
174
     0
 93
        1
 44
-50.0
173
     0
291
     1
 45
0.0
1001
ACAD
1000
AcDbSavedByObjectVersion
1070
     0
1000
AcDbSavedByObjectVersion
1070
     0
  0
VISUALSTYLE
  5
1E2
102
{ACAD_REACTORS
330
1D3
102
}
330
1D3
100
AcDbVisualStyle
  2
Facepattern
 70
    15
 71
     2
 72
     2
 73
     1
 90
        0
 40
-0.6
 41
-30.0
 62
     5
 63
     7
 74
     1
 91
        4
 64
     7
 65
   257
 75
     1
175
     1
 42
1.0
 92
        8
 66
     7
 43
1.0
 76
     1
 77
     6
 78
     2
 67
     7
 79
     5
170
     0
171
     0
290
     0
174
     0
 93
        1
 44
0.0
173
     0
291
     1
 45
0.0
1001
ACAD
1000
AcDbSavedByObjectVersion
1070
     0
1000
AcDbSavedByObjectVersion
1070
     0
  0
VISUALSTYLE
  5
1D4
102
{ACAD_REACTORS
330
1D3
102
}
330
1D3
100
AcDbVisualStyle
  2
Flat
 70
     0
 71
     2
 72
     1
 73
     1
 90
        2
 40
-0.6
 41
30.0
 62
     5
 63
     7
 74
     0
 91
        4
 64
     7
 65
   257
 75
     1
175
     1
 42
1.0
 92
        8
 66
     7
 43
1.0
 76
     1
 77
     6
 78
     2
 67
     7
 79
     5
170
     0
171
     0
290
     0
174
     0
 93
       13
 44
0.0
173
     0
291
     1
 45
0.0
1001
ACAD
1000
AcDbSavedByObjectVersion
1070
     0
1000
AcDbSavedByObjectVersion
1070
     0
  0
VISUALSTYLE
  5
1D5
102
{ACAD_REACTORS
330
1D3
102
}
330
1D3
100
AcDbVisualStyle
  2
FlatWithEdges
 70
     1
 71
     2
 72
     1
 73
     1
 90
        2
 40
-0.6
 41
30.0
 62
     5
 63
     7
 74
     1
 91
        4
 64
     7
 65
   257
 75
     1
175
     1
 42
1.0
 92
        0
 66
   257
 43
1.0
 76
     1
 77
     6
 78
     2
 67
     7
 79
     5
170
     0
171
     0
290
     0
174
     0
 93
       13
 44
0.0
173
     0
291
     1
 45
0.0
1001
ACAD
1000
AcDbSavedByObjectVersion
1070
     0
1000
AcDbSavedByObjectVersion
1070
     0
  0
VISUALSTYLE
  5
1D6
102
{ACAD_REACTORS
330
1D3
102
}
330
1D3
100
AcDbVisualStyle
  2
Gouraud
 70
     2
 71
     2
 72
     2
 73
     1
 90
        2
 40
-0.6
 41
30.0
 62
     5
 63
     7
 74
     0
 91
        4
 64
     7
 65
   257
 75
     1
175
     1
 42
1.0
 92
        0
 66
     7
 43
1.0
 76
     1
 77
     6
 78
     2
 67
     7
 79
     5
170
     0
171
     0
290
     0
174
     0
 93
       13
 44
0.0
173
     0
291
     1
 45
0.0
1001
ACAD
1000
AcDbSavedByObjectVersion
1070
     0
1000
AcDbSavedByObjectVersion
1070
     0
  0
VISUALSTYLE
  5
1D7
102
{ACAD_REACTORS
330
1D3
102
}
330
1D3
100
AcDbVisualStyle
  2
GouraudWithEdges
 70
     3
 71
     2
 72
     2
 73
     1
 90
        2
 40
-0.6
 41
30.0
 62
     5
 63
     7
 74
     1
 91
        4
 64
     7
 65
   257
 75
     1
175
     1
 42
1.0
 92
        0
 66
   257
 43
1.0
 76
     1
 77
     6
 78
     2
 67
     7
 79
     5
170
     0
171
     0
290
     0
174
     0
 93
       13
 44
0.0
173
     0
291
     1
 45
0.0
1001
ACAD
1000
AcDbSavedByObjectVersion
1070
     0
1000
AcDbSavedByObjectVersion
1070
     0
  0
VISUALSTYLE
  5
1E1
102
{ACAD_REACTORS
330
1D3
102
}
330
1D3
100
AcDbVisualStyle
  2
Linepattern
 70
    14
 71
     2
 72
     2
 73
     1
 90
        0
 40
-0.6
 41
-30.0
 62
     5
 63
     7
 74
     1
 91
        4
 64
     7
 65
   257
 75
     7
175
     7
 42
1.0
 92
        8
 66
     7
 43
1.0
 76
     1
 77
     6
 78
     2
 67
     7
 79
     5
170
     0
171
     0
290
     0
174
     0
 93
        1
 44
0.0
173
     0
291
     1
 45
0.0
1001
ACAD
1000
AcDbSavedByObjectVersion
1070
     0
1000
AcDbSavedByObjectVersion
1070
     0
  0
VISUALSTYLE
  5
1DD
102
{ACAD_REACTORS
330
1D3
102
}
330
1D3
100
AcDbVisualStyle
  2
Realistic
 70
     8
 71
     2
 72
     2
 73
     1
 90
        0
 40
-0.6
 41
-30.0
 62
     5
 63
     7
 74
     1
 91
        0
 64
     7
 65
   257
 75
     1
175
     1
 42
1.0
 92
        8
 66
     8
 43
1.0
 76
     1
 77
     6
 78
     2
 67
     7
 79
     5
170
     0
171
     0
290
     0
174
     0
 93
       13
 44
0.0
173
     0
291
     0
 45
0.0
1001
ACAD
1000
AcDbSavedByObjectVersion
1070
     0
1000
AcDbSavedByObjectVersion
1070
     0
  0
VISUALSTYLE
  5
1E0
102
{ACAD_REACTORS
330
1D3
102
}
330
1D3
100
AcDbVisualStyle
  2
Thicken
 70
    13
 71
     2
 72
     2
 73
     1
 90
        0
 40
-0.6
 41
-30.0
 62
     5
 63
     7
 74
     1
 91
        4
 64
     7
 65
   257
 75
     1
175
     1
 42
1.0
 92
       12
 66
     7
 43
1.0
 76
     1
 77
     6
 78
     2
 67
     7
 79
     5
170
     0
171
     0
290
     0
174
     0
 93
        1
 44
0.0
173
     0
291
     1
 45
0.0
1001
ACAD
1000
AcDbSavedByObjectVersion
1070
     0
1000
AcDbSavedByObjectVersion
1070
     0
  0
DICTIONARYVAR
  5
190
102
{ACAD_REACTORS
330
148
102
}
330
148
100
DictionaryVariables
280
     0
  1
STANDARD
  0
DICTIONARYVAR
  5
14A
102
{ACAD_REACTORS
330
148
102
}
330
148
100
DictionaryVariables
280
     0
  1
2
  0
DICTIONARYVAR
  5
149
102
{ACAD_REACTORS
330
148
102
}
330
148
100
DictionaryVariables
280
     0
  1
1
  0
DICTIONARYVAR
  5
67EF
102
{ACAD_REACTORS
330
148
102
}
330
148
100
DictionaryVariables
280
     0
  1
0
  0
DICTIONARYVAR
  5
684F
102
{ACAD_REACTORS
330
148
102
}
330
148
100
DictionaryVariables
280
     0
  1
80.000000
  0
DICTIONARYVAR
  5
684E
102
{ACAD_REACTORS
330
148
102
}
330
148
100
DictionaryVariables
280
     0
  1
5.000000
  0
DICTIONARYVAR
  5
67EE
102
{ACAD_REACTORS
330
148
102
}
330
148
100
DictionaryVariables
280
     0
  1
127
  0
XRECORD
  5
6AC
102
{ACAD_REACTORS
330
18B
102
}
330
18B
100
AcDbXrecord
280
     1
 91
    33280
301

290
     0
302
Viewport
330
4CB
 90
        8
 62
     8
370
    25
331
16
  1
色_8
330
0
 90
        8
 62
     8
370
    18
331
16
  1
色_8
330
4CA
 90
        8
 62
     2
370
    18
331
16
  1
色_2
330
0
 90
        8
 62
     3
370
    -3
331
16
  1
色_3
330
0
 90
        8
 62
     3
370
    -3
331
16
  1
色_3
330
4C9
 90
        8
 62
     5
370
    18
331
4C4
  1
色_5
330
4C8
 90
        8
 62
     8
370
    50
331
16
  1
色_8
330
4C7
 90
        8
 62
     1
370
    18
331
4C3
  1
色_1
330
4C6
 90
        8
 62
     5
370
    18
331
291
  1
色_5
330
3DC
 90
        8
 62
     4
370
    -3
331
16
  1
色_4
330
345
 90
        0
 62
     6
370
    18
331
16
  1
色_6
330
4C5
 90
        8
 62
     3
370
    18
331
16
  1
色_3
330
3DB
 90
        0
 62
     7
370
    -3
331
16
  1
色_7
330
0
 90
        8
 62
     4
370
    -3
331
16
  1
色_4
330
0
 90
        8
 62
     5
370
    40
331
16
  1
色_5
330
12D
 90
        8
 62
     7
370
    -3
331
16
  1
色_7
330
12C
 90
        8
 62
     7
370
    -3
331
16
  1
色_7
330
E4
 90
        8
 62
     7
370
    25
331
16
  1
色_7
330
10
 90
        8
 62
     7
370
    -3
331
16
  1
色_7
  0
DICTIONARY
  5
6829
330
6828
100
AcDbDictionary
280
     1
281
     1
  3
ACAD_XREC_ROUNDTRIP
360
6869
  3
ADSK_XREC_LAYOUTTHUMBNAIL
360
682A
  0
DICTIONARY
  5
6851
330
22
100
AcDbDictionary
280
     1
281
     1
  3
ACAD_XREC_ROUNDTRIP
360
6852
  0
DICTIONARY
  5
67FE
330
1D1
100
AcDbDictionary
280
     1
281
     1
  3
ACAD_XREC_ROUNDTRIP
360
67FF
  0
DICTIONARY
  5
67FC
330
1D0
100
AcDbDictionary
280
     1
281
     1
  3
ACAD_XREC_ROUNDTRIP
360
67FD
  0
DICTIONARY
  5
6800
330
1D2
100
AcDbDictionary
280
     1
281
     1
  3
ACAD_XREC_ROUNDTRIP
360
6801
  0
DICTIONARY
  5
6855
330
11F
100
AcDbDictionary
280
     1
281
     1
  3
ACAD_XREC_ROUNDTRIP
360
6856
  0
DICTIONARY
  5
6857
330
17C
100
AcDbDictionary
280
     1
281
     1
  3
ACAD_XREC_ROUNDTRIP
360
6858
  0
XRECORD
  5
6869
102
{ACAD_REACTORS
330
6829
102
}
330
6829
100
AcDbXrecord
280
     1
102
SHADEPLOT
 70
     0
102
SHADEPLOTRESLEVEL
 70
     2
102
SHADEPLOTCUSTOMDPI
 70
   300
  0
XRECORD
  5
682A
102
{ACAD_REACTORS
330
6829
102
}
330
6829
100
AcDbXrecord
280
     1
310
28000000B40000007F00000001000800000000004C59000000000000000000000001000000000000FFFFFF0000000000FFFFFF000000000000000000000000000000000000000000000000000000000000000000330000006600000099000000CC000000FF00000000330000333300006633000099330000CC330000FF3300
310
0000660000336600006666000099660000CC660000FF66000000990000339900006699000099990000CC990000FF99000000CC000033CC000066CC000099CC0000CCCC0000FFCC000000FF000033FF000066FF000099FF0000CCFF0000FFFF000000003300330033006600330099003300CC003300FF003300003333003333
310
33006633330099333300CC333300FF33330000663300336633006666330099663300CC663300FF66330000993300339933006699330099993300CC993300FF99330000CC330033CC330066CC330099CC3300CCCC3300FFCC330000FF330033FF330066FF330099FF3300CCFF3300FFFF330000006600330066006600660099
310
006600CC006600FF00660000336600333366006633660099336600CC336600FF33660000666600336666006666660099666600CC666600FF66660000996600339966006699660099996600CC996600FF99660000CC660033CC660066CC660099CC6600CCCC6600FFCC660000FF660033FF660066FF660099FF6600CCFF6600
310
FFFF660000009900330099006600990099009900CC009900FF00990000339900333399006633990099339900CC339900FF33990000669900336699006666990099669900CC669900FF66990000999900339999006699990099999900CC999900FF99990000CC990033CC990066CC990099CC9900CCCC9900FFCC990000FF99
310
0033FF990066FF990099FF9900CCFF9900FFFF99000000CC003300CC006600CC009900CC00CC00CC00FF00CC000033CC003333CC006633CC009933CC00CC33CC00FF33CC000066CC003366CC006666CC009966CC00CC66CC00FF66CC000099CC003399CC006699CC009999CC00CC99CC00FF99CC0000CCCC0033CCCC0066CC
310
CC0099CCCC00CCCCCC00FFCCCC0000FFCC0033FFCC0066FFCC0099FFCC00CCFFCC00FFFFCC000000FF003300FF006600FF009900FF00CC00FF00FF00FF000033FF003333FF006633FF009933FF00CC33FF00FF33FF000066FF003366FF006666FF009966FF00CC66FF00FF66FF000099FF003399FF006699FF009999FF00CC
310
99FF00FF99FF0000CCFF0033CCFF0066CCFF0099CCFF00CCCCFF00FFCCFF0000FFFF0033FFFF0066FFFF0099FFFF00CCFFFF00FFFFFF00000000000D0D0D001A1A1A00282828003535350043434300505050005D5D5D006B6B6B00787878008686860093939300A1A1A100AEAEAE00BBBBBB00C9C9C900D6D6D600E4E4E400
310
F1F1F100FFFFFF0000000000000000000000000000000000000000000000000000000000000000000000000000000000E2E2E2E2E2E2E2E2E2E2E2E2E2E2E2E2E2E2E2E2E2E2E2E2E2E2E2E2E2E2E2E2E2E2E2E2E2E2E2E2E2E2E2E2E2E2E2E2E2E2E2E2E2E2E2E2E2E2E2E2E2E2E2E2E2E2E2E2E2E2E2E2E2E2E2E2E2E2E2
310
E2E2E2E2E2E2E2E2E2E2E2E2E2E2E2E2E2E2E2E2E2E2E2E2E2E2E2E2E2E2E2E2E2E2E2E2E2E2E2E2E2E2E2E2E2E2E2E2E2E2E2E2E2E2E2E2E2E2E2E2E2E2E2E2E2E2E2E2E2E2E2E2E2E2E2E2E2E2E2E2E2E2E2E2E2E2E2E2E2E2E2E2E2E2E2E2E2E2E2E2E2E2F5F5F5F5F5F5F5F5F5F5F5F5F5F5F5F5F5F5F5F5F5F5F5F5F5
310
F5F5F5F5F5F5F5F5F5F5F5F5F5F5F5F5F5F5F5F5F5F5F5F5F5F5F5F5F5F5F5F5F5F5F5F5F5F5F5F5F5F5F5F5F5F5F5F5F5F5F5F5F5F5F5F5F5F5F5F5F5F5F5F5F5F5F5F5F5F5F5F5F5F5F5F5F5F5F5F5F5F5F5F5F5F5F5F5F5F5F5F5F5F5F5F5F5F5F5F5F5F5F5F5F5F5F5F5F5F5F5F5F5F5F5F5F5F5F5F5F5F5F5F5F5F5F5
310
F5F5F5F5F5F5F5F5F5F5F5F5F5F5F5F5F5F5F5F5F5F5F5F5F5E2E2E2F5F5F5F5F5F5F5F5F5F5F5F5F5F5F5F5F5F5F5F5F5F5F5F5F5F5F5F5F5F5F5F5F5F5F5F5F5F5F5F5F5F5F5F5F5F5F5F5F5F5F5F5F5F5F5F5F5F5F5F5F5F5F5F5F5F5F5F5F5F5F5F5F5F5F5F5F5F5F5F5F5F5F5F5F5F5F5F5F5F5F5F5F5F5F5F5F5F5F5
310
F5F5F5F5F5F5F5F5F5F5F5F5F5F5F5F5F5F5F5F5F5F5F5F5F5F5F5F5F5F5F5F5F5F5F5F5F5F5F5F5F5F5F5F5F5F5F5F5F5F5F5F5F5F5F5F5F5F5F5F5F5F5F5F5F5F5F5F5F5F5F5F5F5F5F5F5F5F5E2E2E2F5F5F5F5F5F5F5F5F5F5F5F5F5F5F5F5F5F5F5F5F5F5F5F5F5F5F5F5F5F5F5F5F5F5F5F5F5F5F5F5F5F5F5F5F5F5
310
F5F5F5F5F5F5F5F5F5F5F5F5F5F5F5F5F5F5F5F5F5F5F5F5F5F5F5F5F5F5F5F5F5F5F5F5F5F5F5F5F5F5E2F5F5F5F5F5F5F5F5F5F5F5F5F5F5F5F5F5F5F5F5F5F5F5F5F5F5F5F5F5F5F5F5F5F5F5F5F5F5F5F5F5F5F5F5F5F5F5F5F5F5F5F5F5F5F5F5F5F5F5F5F5F5F5F5F5F5F5F5F5F5F5F5F5F5F5F5F5F5F5F5F5F5F5F5
310
F5F5F5F5E2E2E2F5F5F5E2E2E2E2E2E2E2E2E2E2E2E2E2E2E2E2E2E2E2E2E2E2E2E2E2E2E2E2E2E2E2E2E2E2E2E2E2E2E2E2E2E2E2E2E2E2E2E2E2E2E2E2E2E2E2E2E2E2E2E2E2E2E2E2E2E2E2E2E2E2E2E2E2E2E2E2E2E2E2E2E2E2E2E2E2E2E2E2E2E2E2E2E2E2E2E2E2E2E2E2E2E2E2E2E2E2E2E2E2E2E2E2E2E2E2E2E2
310
E2E2E2E2E2E2E2E2E2E2E2E2E2E2E2E2E2E2E2E2E2E2E2E2E2E2E2E2E2E2E2E2E2E2E2E2E2E2E2E2E2E2E2E2E2E2E2E2E2E2E2E2E2E2F5F5F5E2E2E2F5F5F5E2F5F5F5E2F5F5F5F5F5F5F5F5F5F5F5F5F5F5F5F5F5F5F5F5F5F5F5F5F5F5F5F5F5F5F5F5F5F5F5F5F5F5F5F5F5F5F5F5F5F5F5F5F5F5F5F5F5F5F5F5F5F5F5
310
F5F5F5F5F5F5F5F5F5F5F5F5F5F5F5F5F5F5F5F5F5F5F5F5F5F5F5F5F5F5F5F5E2F5F5E2E2E2E2E2E2E2E2E2E2E2E2E2E2E2E2E2E2E2E2E2E2E2E2E2F5F5F5E2F5F5F5F5F5F5F5F5F5F5F5F5F5F5F5F5F5F5F5F5F5F5F5F5F5F5F5F5F5F5F5F5F5F5F5F5F5F5E2F5F5F5E2F5F5F5E2E2E2F5F5F5E2F5F5F5E2F5F5F5F5F5F5
310
F5F5F5F5F5F5F5F5F5F5F5F5F5F5F5F5F5F5F5F5F5F5F5F5F5F5F5F5F5F5F5F5F5F5F5F5F5F5F5F5F5F5F5F5F5F5F5F5F5F5F5F5F5F5F5F5F5F5F5F5F5F5F5F5F5F5F5F5F5F5F5F5F5F5F5F5F5F5F5F5F5F5F5F5F5E2F5F5E2E2E2E2E2E2E2E2E2E2E2E2E2E2E2E2E2E2E2E2E2E2E2E2E2F5F5F5E2F5F5F5F5F5F5F5F5F5F5
310
F5F5F5F5F5F5F5F5F5F5F5F5F5F5F5F5F5F5F5F5F5F5F5F5F5F5F5F5E2F5F5F5E2F5F5F5E2E2E2F5F5F5E2F5F5F5E2F5F5F5F5F5F5F5F5F5F5F5F5F5F5F5F5F5F5F5F5F5F5F5F5F5F5F5F5F5F5F5F5F5F5F5F5F5F5F5F5F5F5F5F5F5F5F5F5F5F5F5F5F5F5F5F5F5F5F5F5F5F5F5F5F5F5F5F5F5F5F5F5F5F5F5F5F5F5F5F5
310
F5F5F5F5F5F5F5F5F5F5F5E2F5F5E2E2E2E2E2E2E2E2E2E2E2E2E2E2E2E2E2E2E2E2E2E2E2E2E2F5F5F5E2F5F5F5F5F5F5F5F5F5F5F5F5F5F5F5F5F5F5F5F5F5F5F5F5F5F5F5F5F5F5F5F5F5F5F5F5F5F5E2F5F5F5E2F5F5F5E2E2E2F5F5F5E2F5F5F5E2F5F5F5F5F5F5F5F5F5F5F5F5F5F5F5F5F5F5F5F5F5F5F5F5F5F5F5
310
F5F5F5F5F5F5F5F5F5F5F5F5F5F5F5F5F5F5F5F5F5F5F5F5F5F5F5F5F5F5F5F5F5F5F5F5F5F5F5F5F5F5F5F5F5F5F5F5F5F5F5F5F5F5F5F5F5F5F5F5F5F5F5F5E2F5F5E2E2E2E2E2E2E2E2E2E2E2E2E2E2E2E2E2E2E2E2E2E2E2E2E2F5F5F5E2F5F5F5F5F5F5F5F5F5F5F5F5F5F5F5F5F5F5F5F5F5F5F5F5F5F5F5F5F5F5F5
310
F5F5F5F5F5F5F5E2F5F5F5E2F5F5F5E2E2E2F5F5F5E2F5F5F5E2F5F5F5F5F5F5F5F5F5F5F5F5F5F5F5F5F5F5F5F5F5F5F5F5F5F5F5F5F5F5F5F5F5F5F5F5F5F5F5F5F5F5F5F5F5F5F5F5F5F5F5F5F5F5F5F5F5F5F5F5F5F5F5F5F5F5F5F5F5F5F5F5F5F5F5F5F5F5F5F5F5F5F5F5F5F5F5F5F5F5F5E2F5F5F5F5F5F5F5F5F5
310
F5F5F5F5F5F5F5F5F5F5F5F5F5F5F5F5F5F5F5F5F5E2F5F5F5F5F5F5F5F5F5F5F5F5F5F5F5F5F5F5F5F5F5F5F5F5F5F5F5F5F5F5F5F5F5F5F5F5F5F5E2F5F5F5E2F5F5F5E2E2E2F5F5F5E2F5F5F5E2F5F5F5F5F5F5F5F5F5F5F5F5F5F5F5F5F5F5F5F5F5F5F5F5F5F5F5F5F5F5F5F5F5F5F5F5F5F5F5F5F5F5F5F5F5F5F5F5
310
F5F5F5F5F5F5F5F5F5F5F5F5F5F5F5F5F5F5F5F5F5F5F5F5F5F5F5F5F5F5F5F5F5F5F5F5F5F5F5F5F5F5F5E2E2E2E2E2E2E2E2E2E2E2E2E2E2E2E2E2E2E2E2E2E2E2E2E2E2E2E2E2E2E2E2E2E2E2E2E2E2E2E2E2E2E2E2E2E2E2E2E2E2E2E2E2E2E2E2E2E2E2E2E2E2E2E2E2E2E2E2E2E2E2F5F5F5E2F5F5F5E2E2E2F5F5F5
310
E2F5F5F5E2F5F5F5F5F5F5F5F5F5F5F5F5F5F5F5F5F5F5F5F5F5F5F5F5F5F5F5F5F5F5F5F5F5F5F5F5F5F5F5F5F5F5F5F5F5F5F5F5F5F5F5F5F5F5F5F5F5F5F5F5F5F5F5F5F5F5F5F5F5F5F5F5F5F5F5F5F5F5F5F5F5F5F5F5F5F5F5F5F5F5F5E2F5F5F5F5F5F5F5F5F5F5F5F5F5F5F5F5F5F5F5F5F5F5F5F5F5F5F5F5F5F5
310
F5F5F5F5F5F5F5F5F5F5F5F5F5F5F5F5F5F5F5F5F5F5F5F5F5F5F5F5F5F5F5F5F5F5F5F5F5F5F5E2F5F5F5E2F5F5F5E2E2E2F5F5F5F5F5F5F5E2F5F5F5F5F5F5F5F5F5F5F5F5F5F5F5F5F5F5F5F5F5F5F5F5F5F5F5F5F5F5F5F5F5F5F5F5F5F5F5F5F5F5F5F5F5F5F5F5F5F5F5F5F5F5F5F5F5F5F5F5F5F5F5F5F5F5F5F5F5
310
F5F5F5F5F5F5F5F5F5F5F5F5F5F5F5F5F5F5F5F5F5F5E2F5F5F5F5F5F5F5F5F5F5F5F5F5F5F5E2E2E2E2E2E2E2E2E2E2E2E2E2E2E2E2E2E2E2E2E2E2E2E2E2E2E2E2E2E2E2E2E2E2E2E2E2E2E2E2E2E2E2F5F5F5F5F5F5F5F5F5F5F5E2F5F5F5F5F5F5F5E2E2E2F5F5F5F5F5F5F5E2F5F5F5F5F5F5F5F5F5F5F5F5F5F5F5F5
310
F5F5F5F5F5F5F5F5F5F5F5F5F5F5F5F5F5F5F5F5F5F5F5F5F5F5F5F5F5F5F5F5F5F5F5F5F5F5F5F5F5F5F5F5F5F5F5F5F5F5F5F5F5F5F5F5F5F5F5F5F5F5F5F5F5F5F5F5F5F5F5F5F5F5F5E2F5F5F5F5F5F5F5F5F5F5F5F5F5F5F5E2E2E2E2E2E2E2E2E2E2E2E2E2E2E2E2E2E2E2E2E2E2E2E2E2E2E2E2E2E2E2E2E2E2E2E2
310
E2E2E2E2E2E2E2F5F5F5F5F5F5F5F5F5F5F5E2F5F5F5F5F5F5F5E2E2E2F5F5F5F5F5F5F5E2F5F5F5F5F5F5F5F5F5F5F5F5F5F5F5F5F5F5F5F5F5F5F5F5F5F5F5F5F5F5F5F5F5F5F5F5F5F5F5F5F5F5F5F5F5F5F5F5F5F5F5F5F5F5F5F5F5F5F5F5F5F5F5F5F5F5F5F5F5F5F5F5F5F5F5F5F5F5F5F5F5F5F5F5F5F5F5F5F5F5
310
F5E2F5F5F5F5F5F5F5F5F5F5F5F5F5F5F5E2E2E2E2E2E2E2E2E2E2E2E2E2E2E2E2E2E2E2E2E2E2E2E2E2E2E2E2E2E2E2E2E2E2E2E2E2E2E2E2E2E2E2F5F5F5F5F5F5F5F5F5F5F5E2F5F5F5F5F5F5F5E2E2E2F5F5F5F5F5F5F5E2F5F5F5F5F5F5F5F5F5F5F5F5F5F5F5F5F5F5F5F5F5F5F5F5F5F5F5F5F5F5F5F5F5F5F5F5F5
310
F5F5F5F5F5F5F5F5F5F5F5F5F5F5F5F5F5F5F5F5F5F5F5F5F5F5F5F5F5F5F5F5F5F5F5F5F5F5F5F5F5F5F5F5F5F5F5F5F5F5F5F5F5F5E2F5F5F5F5F5F5F5F5F5F5F5F5F5F5F5E2E2E2E2E2E2E2E2E2E2E2E2E2E2E2E2E2E2E2E2E2E2E2E2E2E2E2E2E2E2E2E2E2E2E2E2E2E2E2E2E2E2E2F5F5F5F5F5F5F5F5F5F5F5E2F5F5
310
F5F5F5F5F5E2E2E2F5F5F5F5F5F5F5E2F5F5F5F5F5F5F5F5F5F5F5F5F5F5F5F5F5F5F5F5F5F5F5F5F5F5F5F5F5F5F5F5F5F5F5F5F5F5F5F5F5F5F5F5F5F5F5F5F5F5F5F5F5F5F5F5F5F5F5F5F5F5F5F5F5F5F5F5F5F5F5F5F5F5F5F5F5F5F5F5F5F5F5F5F5F5F5F5F5F5F5E2F5F5F5F5F5F5F5F5F5F5F5F5F5F5F5F5F5F5F5
310
F5F5F5F5F5F5F5F5F5F5F5F5F5F5F5F5F5F5F5F5F5F5F5F5F5F5F5F5F5F5F5F5F5F5F5F5F5F5F5F5F5F5F5F5F5F5F5F5F5F5E2F5F5F5F5F5F5F5E2E2E2F5F5F5F5F5F5F5E2F5F5F5F5F5F5F5F5F5F5F5F5F5F5F5F5F5F5F5F5F5F5F5F5F5F5F5F5F5F5F5F5F5F5F5F5F5F5F5F5F5F5F5F5F5F5F5F5F5F5F5F5F5F5F5F5F5F5
310
F5F5F5F5F5F5F5F5F5F5F5F5F5F5F5F5F5F5F5F5F5F5F5F5F5F5F5F5F5F5F5F5F5E2F5F5F5F5F5F5F5F5F5F5F5F5F5F5F5F5F5F5F5F5F5F5F5F5F5F5F5F5F5F5F5F5F5F5F5F5F5F5F5F5F5F5F5F5F5F5F5F5F5F5F5F5F5F5F5F5F5F5F5F5F5F5F5F5F5F5F5F5F5E2F5F5F5F5F5F5F5E2E2E2F5F5F5F5F5F5F5E2F5F5F5F5F5
310
F5F5F5F5F5F5F5F5F5F5F5F5F5F5F5F5F5F5F5F5F5F5F5F5F5F5F5F5F5F5F5F5F5F5F5F5F5F5F5F5F5F5F5F5F5F5F5F5F5F5F5F5F5F5F5F5F5F5F5F5F5F5F5F5F5F5F5F5F5F5F5F5F5F5F5F5F5F5F5F5F5F5F5F5F5F5E2E2E2E2E2E2E2E2E2E2E2E2E2E2E2E2E2E2E2E2E2E2E2E2E2E2E2E2E2E2E2E2E2E2E2E2E2E2E2E2E2
310
E2E2E2E2E2E2E2E2E2E2E2E2E2E2E2E2E2E2E2E2E2E2E2E2E2E2E2E2E2E2F5F5F5F5F5F5F5E2E2E2F5F5F5F5F5F5F5E2F5F5F5F5F5F5F5F5F5F5F5F5F5F5F5F5F5F5F5F5F5F5F5F5F5F5F5F5F5F5F5F5F5F5F5F5F5F5F5F5F5F5F5F5F5F5F5F5F5F5F5F5F5F5F5F5F5F5F5F5F5F5F5F5F5F5F5F5F5F5F5F5F5F5F5F5F5F5F5
310
F5F5F5F5F5F5F5F5F5F5F5F5E2F5F5F5F5F5F5F5F5F5F5F5F5F5F5F5F5F5F5F5F5F5F5F5F5F5F5F5F5F5F5F5F5F5F5F5F5F5F5F5F5F5F5F5F5F5F5F5F5F5F5F5F5F5F5F5F5F5F5F5F5F5F5F5F5F5F5F5F5F5E2F5F5F5F5F5F5F5E2E2E2F5F5F5F5F5F5F5E2F5F5F5F5F5F5F5F5F5F5F5F5F5F5F5F5F5F5F5F5F5F5F5F5F5F5
310
F5F5F5F5F5F5F5F5F5F5F5F5F5F5F5F5F5F5F5F5F5F5F5F5F5F5F5F5F5F5F5F5F5F5F5F5F5F5F5F5F5F5F5F5F5F5F5F5F5F5F5F5F5F5F5F5F5F5F5F5F5F5F5F5F5E2E2E2E2E2E2E2E2E2E2E2E2E2E2E2E2E2E2E2E2E2E2E2E2E2E2E2E2E2E2E2E2E2E2E2E2E2E2E2E2E2E2E2E2E2E2E2E2E2E2E2E2E2E2E2E2E2E2E2E2E2E2
310
E2E2E2E2E2E2E2E2E2F5F5F5F5F5F5F5E2E2E2F5F5F5E2F5F5F5E2F5F5F5F5F5F5F5F5F5F5F5F5F5F5F5F5F5F5F5F5F5F5F5F5F5F5F5F5F5F5F5F5F5F5F5F5F5F5F5F5F5F5F5F5F5F5F5F5F5F5F5F5F5F5F5F5F5F5F5F5F5F5F5F5F5F5F5F5F5F5F5F5F5F5F5F5F5F5F5F5F5F5F5F5F5F5F5F5F5F5F5F5F5F5F5F5F5F5F5F5
310
F5F5F5F5F5F5F5F5F5F5F5F5F5F5F5F5F5F5F5F5F5F5F5F5F5F5F5F5F5F5F5F5F5F5F5F5F5F5F5F5F5F5F5F5F5F5F5F5F5F5F5F5F5F5F5F5F5F5F5F5F5E2F5F5F5E2F5F5F5E2E2E2F5F5F5E2F5F5F5E2F5F5F5F5F5F5F5F5F5F5F5F5F5F5F5F5F5F5F5F5F5F5F5F5F5F5F5F5F5F5F5F5F5F5F5F5F5F5F5F5F5F5F5F5F5F5F5
310
F5F5F5F5F5F5F5F5F5F5F5F5F5F5F5F5F5F5F5F5F5F5F5F5F5F5F5F5F5F5F5F5F5F5F5F5F5F5F5F5F5F5F5F5F5F5F5F5F5F5F5F5F5F5F5F5F5F5F5F5F5F5F5F5F5F5F5F5F5F5F5F5F5F5F5F5F5F5F5F5F5F5F5F5F5F5F5F5F5F5F5F5F5F5F5F5F5F5F5F5F5F5F5F5F5F5F5F5F5F5F5F5F5F5E2F5F5F5E2F5F5F5E2E2E2F5F5
310
F5E2F5F5F5E2F5F5F5F5F5F5F5F5F5F5F5F5F5F5F5F5F5F5F5F5F5F5F5F5F5F5F5F5F5F5F5F5F5F5F5F5F5F5F5F5F5F5F5F5F5F5F5F5F5F5F5F5F5F5F5F5F5F5F5F5F5F5F5F5F5F5F5F5F5F5F5F5F5F5F5F5F5F5F5F5F5F5F5F5F5F5F5F5F5F5F5F5F5F5F5F5F5F5F5F5F5F5F5F5F5F5F5F5F5F5F5F5F5F5F5F5F5F5F5F5F5
310
F5F5F5F5F5F5F5F5F5F5F5F5F5F5F5F5F5F5F5F5F5F5F5F5F5F5F5F5F5F5F5F5F5F5F5F5F5F5F5F5E2F5F5F5E2F5F5F5E2E2E2F5F5F5E2F5F5F5E2F5F5F5F5F5F5F5F5F5F5F5F5F5F5F5F5F5F5F5F5F5F5F5F5F5F5F5F5F5F5F5F5F5F5F5F5F5F5F5F5F5F5F5F5F5F5F5F5F5F5F5F5F5F5F5F5F5F5F5F5F5F5F5F5F5F5F5F5
310
F5F5F5F5F5F5F5F5F5F5F5F5F5F5F5F5F5F5F5F5F5F5F5F5F5F5F5F5F5F5F5F5F5F5F5F5F5F5F5F5F5F5F5F5F5F5F5F5F5F5F5F5F5F5F5F5F5F5F5F5F5F5F5F5F5F5F5F5F5F5F5F5F5F5F5F5F5F5F5F5F5F5F5F5F5F5F5F5F5F5F5F5F5E2F5F5F5E2F5F5F5E2E2E2F5F5F5E2F5F5F5E2F5F5F5F5F5F5F5F5F5F5F5F5F5F5F5
310
F5F5F5F5F5F5F5F5F5F5F5F5F5F5F5F5F5F5F5F5F5F5F5F5F5F5F5F5F5F5F5F5F5F5F5F5F5F5F5F5F5F5F5F5F5F5F5F5F5F5F5F5F5F5F5F5F5F5F5F5F5F5F5F5F5F5F5F5F5F5F5F5F5F5F5F5F5F5F5F5F5F5F5F5F5F5F5F5F5F5F5F5F5F5F5F5F5F5F5F5F5F5F5F5F5F5F5F5F5F5F5F5F5F5F5F5F5F5F5F5F5F5F5F5F5F5F5
310
F5F5F5F5F5F5F5F5F5F5F5F5F5F5F5F5F5F5F5E2F5F5F5E2F5F5F5E2E2E2F5F5F5E2F5F5F5E2F5F5F5F5F5F5F5F5F5F5F5F5F5F5F5F5F5F5F5F5F5F5F5F5F5F5F5F5F5F5F5F5F5F5F5F5F5F5F5F5F5F5F5F5F5F5F5F5F5F5F5F5F5F5F5F5F5F5F5F5F5F5F5F5F5F5F5F5F5F5F5F5F5F5F5F5F5F5F5F5F5F5F5F5F5F5F5F5F5
310
F5F5F5F5F5F5F5F5F5F5F5F5F5F5F5F5F5F5F5F5F5F5F5F5F5F5F5F5F5F5F5F5F5F5F5F5F5F5F5F5F5F5F5F5F5F5F5F5F5F5F5F5F5F5F5F5F5F5F5F5F5F5F5F5F5F5F5F5F5F5F5F5E2F5F5F5E2F5F5F5E2E2E2F5F5F5E2F5F5F5E2F5F5F5F5F5F5F5F5F5F5F5F5F5F5F5F5F5F5F5F5F5F5F5F5F5F5F5F5F5F5F5F5F5F5F5F5
310
F5F5F5F5F5F5F5F5F5F5F5F5F5F5F5F5F5F5F5F5F5F5F5F5F5F5F5F5F5F5F5F5F5F5F5F5F5F5F5F5F5F5F5F5F5F5F5F5F5F5F5F5F5F5F5F5F5F5F5F5F5F5F5F5F5F5F5F5F5F5F5F5F5F5F5F5F5F5F5F5F5F5F5F5F5F5F5F5F5F5F5F5F5F5F5F5F5F5F5F5F5F5F5F5F5F5F5F5F5F5F5F5F5F5F5F5F5F5F5F5F5F5F5F5F5E2F5
310
F5F5E2F5F5F5E2E2E2F5F5F5E2F5F5F5E2F5F5F5F5F5F5F5F5F5F5F5F5F5F5F5F5F5F5F5F5F5F5F5F5F5F5F5F5F5F5F5F5F5F5F5F5F5F5F5F5F5F5F5F5F5F5F5F5F5F5F5F5F5F5F5F5F5F5F5F5F5F5F5F5F5F5F5F5F5F5F5F5F5F5F5F5F5F5F5F5F5F5F5F5F5F5F5F5F5F5F5F5F5F5F5F5F5F5F5F5F5F5F5F5F5F5F5F5F5F5
310
F5F5F5F5F5F5F5F5F5F5F5F5F5F5F5F5F5F5F5F5F5F5F5F5F5F5F5F5F5F5F5F5F5F5F5F5F5F5F5F5F5F5F5F5F5F5F5F5F5F5F5E2F5F5F5E2F5F5F5E2E2E2F5F5F5E2F5F5F5E2F5F5F5F5F5F5F5F5F5F5F5F5F5F5F5F5F5F5F5F5F5F5F5F5F5F5F5F5F5F5F5F5F5F5F5F5F5F5F5F5F5F5F5F5F5F5F5F5F5F5F5F5F5F5F5F5F5
310
F5F5F5F5F5F5F5F5F5F5F5F5F5F5F5F5F5F5F5F5F5F5F5F5F5F5F5F5F5F5F5F5F5F5F5F5F5F5F5F5F5F5F5F5F5F5F5F5F5F5F5F5F5F5F5F5F5F5F5F5F5F5F5F5F5F5F5F5F5F5F5F5F5F5F5F5F5F5F5F5F5F5F5F5F5F5F5F5F5F5F5F5F5F5F5F5F5F5F5F5F5F5F5F5E2F5F5F5E2F5F5F5E2E2E2F5F5F5E2F5F5F5E2F5F5F5F5
310
F5F5F5F5F5F5F5F5F5F5F5F5F5F5F5F5F5F5F5F5F5F5F5F5F5F5F5F5F5F5F5F5F5F5F5F5F5F5F5F5F5F5F5F5F5F5F5F5F5F5F5F5F5F5F5F5F5F5F5F5F5F5F5F5F5F5F5F5F5F5F5F5F5F5F5F5F5F5F5F5F5F5F5F5F5F5F5F5F5F5F5F5F5F5F5F5F5F5F5F5F5F5F5F5F5F5F5F5F5F5F5F5F5F5F5F5F5F5F5F5F5F5F5F5F5F5F5
310
F5F5F5F5F5F5F5F5F5F5F5F5F5F5F5F5F5F5F5F5F5F5F5F5F5F5F5F5F5F5E2F5F5F5E2F5F5F5E2E2E2F5F5F5E2F5F5F5E2F5F5F5F5F5F5F5F5F5F5F5F5F5F5F5F5F5F5F5F5F5F5F5F5F5F5F5F5F5F5F5F5F5F5F5F5F5F5F5F5F5F5F5F5F5F5F5F5F5F5F5F5F5F5F5F5F5F5F5F5F5F5F5F5F5F5F5F5F5F5F5F5F5F5F5F5F5F5
310
F5F5F5F5F5F5F5F5F5F5F5F5F5F5F5F5F5F5F5F5F5F5F5F5F5F5F5F5F5F5F5F5F5F5F5F5F5F5F5F5F5F5F5F5F5F5F5F5F5F5F5F5F5F5F5F5F5F5F5F5F5F5F5F5F5F5F5F5F5F5F5F5F5F5F5F5F5F5F5F5F5F5F5E2F5F5F5E2F5F5F5E2E2E2F5F5F5E2F5F5F5E2F5F5F5F5F5F5F5F5F5F5F5F5F5F5F5F5F5F5F5F5F5F5F5F5F5
310
F5F5F5F5F5F5F5F5F5F5F5F5F5F5F5F5F5F5F5F5F5F5F5F5F5F5F5F5F5F5F5F5F5F5F5F5F5F5F5F5F5F5F5F5F5F5F5F5F5F5F5F5F5F5F5F5F5F5F5F5F5F5F5F5F5F5F5F5F5F5F5F5F5F5F5F5F5F5F5F5F5F5F5F5F5F5F5F5F5F5F5F5F5F5F5F5F5F5F5F5F5F5F5F5F5F5F5F5F5F5F5F5F5F5F5F5F5F5F5F5F5F5F5F5F5F5F5
310
F5F5F5F5F5F5F5F5F5E2F5F5F5E2F5F5F5E2E2E2F5F5F5E2F5F5F5E2F5F5F5F5F5F5F5F5F5F5F5F5F5F5F5F5F5F5F5F5F5F5F5F5F5F5F5F5F5F5F5F5F5F5F5F5F5F5F5F5F5F5F5F5F5F5F5F5F5F5F5F5F5F5F5F5F5F5F5F5F5F5F5F5F5F5F5F5F5F5F5F5F5F5F5F5F5F5F5F5F5F5F5F5F5F5F5F5F5F5F5F5F5F5F5F5F5F5F5
310
F5F5F5F5F5F5F5F5F5F5F5F5F5F5F5F5F5F5F5F5F5F5F5F5F5F5F5F5F5F5F5F5F5F5F5F5F5F5F5F5F5F5F5F5F5F5F5F5F5F5F5F5F5F5F5F5F5F5F5F5F5F5E2F5F5F5E2F5F5F5E2E2E2F5F5F5E2F5F5F5E2F5F5F5F5F5F5F5F5F5F5F5F5F5F5F5F5F5F5F5F5F5F5F5F5F5F5F5F5F5F5F5F5F5F5F5F5F5F5F5F5F5F5F5F5F5F5
310
F5F5F5F5F5F5F5F5F5F5F5F5F5F5F5F5F5F5F5F5F5F5F5F5F5F5F5F5F5F5F5F5F5F5F5F5F5F5F5F5F5F5F5F5F5F5F5F5F5F5F5F5F5F5F5F5F5F5F5F5F5F5F5F5F5F5F5F5F5F5F5F5F5F5F5F5F5F5F5F5F5F5F5F5F5F5F5F5F5F5F5F5F5F5F5F5F5F5F5F5F5F5F5F5F5F5F5F5F5F5F5F5F5F5F5E2F5F5F5E2F5F5F5E2E2E2F5
310
F5F5E2F5F5F5E2F5F5F5F5F5F5F5F5F5F5F5F5F5F5F5F5F5F5F5F5F5F5F5F5F5F5F5F5F5F5F5F5F5F5F5F5F5F5F5F5F5F5F5F5F5F5F5F5F5F5F5F5F5F5F5F5F5F5F5F5F5F5F5F5F5F5F5F5F5F5F5F5F5F5F5F5F5F5F5F5F5F5F5F5F5F5F5F5F5F5F5F5F5F5F5F5F5F5F5F5F5F5F5F5F5F5F5F5F5F5F5F5F5F5F5F5F5F5F5F5
310
F5F5F5F5F5F5F5F5F5F5F5F5F5F5F5F5F5F5F5F5F5F5F5F5F5F5F5F5F5F5F5F5F5F5F5F5F5F5F5F5F5E2F5F5F5E2F5F5F5E2E2E2F5F5F5F5F5F5F5E2F5F5F5F5F5F5F5F5F5F5F5F5F5F5F5F5F5F5F5F5F5F5F5F5F5F5F5F5F5F5F5F5F5F5F5F5F5F5F5F5F5F5F5F5F5F5F5F5F5F5F5F5F5F5F5F5F5F5F5F5F5F5F5F5F5F5F5
310
F5F5F5F5F5F5F5F5F5F5F5F5F5F5F5F5F5F5F5F5F5F5F5F5F5F5F5F5F5F5F5F5F5F5F5F5F5F5F5F5F5F5F5F5F5F5F5F5F5F5F5F5F5F5F5F5F5F5F5F5F5F5F5F5F5F5F5F5F5F5F5F5F5F5F5F5F5F5F5F5F5F5F5F5F5F5F5F5F5F5F5F5F5F5E2F5F5F5F5F5F5F5E2E2E2F5F5F5F5F5F5F5E2F5F5F5F5F5F5F5F5F5F5F5F5F5F5
310
F5F5F5F5F5F5F5F5F5F5F5F5F5F5F5F5F5F5F5F5F5F5F5F5F5F5F5F5F5F5F5F5F5F5F5F5F5F5F5F5F5F5F5F5F5F5F5F5F5F5F5F5F5F5F5F5F5F5F5F5F5F5F5F5F5F5F5F5F5F5F5F5F5F5F5F5F5F5F5F5F5F5F5F5F5F5F5F5F5F5F5F5F5F5F5F5F5F5F5F5F5F5F5F5F5F5F5F5F5F5F5F5F5F5F5F5F5F5F5F5F5F5F5F5F5F5F5
310
F5F5F5F5F5F5F5F5F5F5F5F5F5F5F5F5F5F5F5F5E2F5F5F5F5F5F5F5E2E2E2F5F5F5F5F5F5F5E2F5F5F5F5F5F5F5F5F5F5F5F5F5F5F5F5F5F5F5F5F5F5F5F5F5F5F5F5F5F5F5F5F5F5F5F5F5F5F5F5F5F5F5F5F5F5F5F5F5F5F5F5F5F5F5F5F5F5F5F5F5F5F5F5F5F5F5F5F5F5F5F5F5F5F5F5F5F5F5F5F5F5F5F5F5F5F5F5
310
F5F5F5F5F5F5F5F5F5F5F5F5F5F5F5F5F5F5F5F5F5F5F5F5F5F5F5F5F5F5F5F5F5F5F5F5F5F5F5F5F5F5F5F5F5F5F5F5F5F5F5F5F5F5F5F5F5F5F5F5F5F5F5F5F5F5F5F5F5F5F5F5F5E2F5F5F5F5F5F5F5E2E2E2F5F5F5F5F5F5F5E2F5F5F5F5F5F5F5F5F5F5F5F5F5F5F5F5F5F5F5F5F5F5F5F5F5F5F5F5F5F5F5F5F5F5F5
310
F5F5F5F5F5F5F5F5F5F5F5F5F5F5F5F5F5F5F5F5F5F5F5F5F5F5F5F5F5F5F5F5F5F5F5F5F5F5F5F5F5F5F5F5F5F5F5F5F5F5F5F5F5F5F5F5F5F5F5F5F5F5F5F5F5F5F5F5F5F5F5F5F5F5F5F5F5F5F5F5F5F5F5F5F5F5F5F5F5F5F5F5F5F5F5F5F5F5F5F5F5F5F5F5F5F5F5F5F5F5F5F5F5F5F5F5F5F5F5F5F5F5F5F5F5F5E2
310
F5F5F5F5F5F5F5E2E2E2F5F5F5F5F5F5F5E2F5F5F5F5F5F5F5F5F5F5F5F5F5F5F5F5F5F5F5F5F5F5F5F5F5F5F5F5F5F5F5F5F5F5F5F5F5F5F5F5F5F5F5F5F5F5F5F5F5F5F5F5F5F5F5F5F5F5F5F5F5F5F5F5F5F5F5F5F5F5F5F5F5F5F5F5F5F5F5F5F5F5F5F5E2E2E2E2E2E2E2E2E2E2E2E2E2E2E2E2F5F5F5F5F5F5F5F5F5
310
F5F5F5F5F5F5F5F5F5F5F5F5F5F5F5F5F5F5F5F5F5F5F5F5F5F5F5F5F5F5F5F5F5F5F5F5F5F5F5F5F5F5F5F5F5F5F5F5F5F5F5F5E2F5F5F5F5F5F5F5E2E2E2F5F5F5F5F5F5F5E2F5F5F5F5F5F5F5F5F5F5F5F5F5F5F5F5F5F5F5F5F5F5F5F5F5F5F5F5F5F5F5F5F5F5F5F5E2E2E2E2E2E2E2E2E2E2E2E2E2E2E2E2E2E2E2E2
310
E2E2F5F5E2E2E2E2E2E2E2E2E2E2E2E2E2E2E2F5F5F5F5F5F5F5F5F5E2E2E2E2E2E2E2E2E2E2E2E2E2E2E2E2F5F5F5E2E2E2E2E2E2E2E2E2E2E2E2E2E2E2E2E2F5F5F5F5F5F5F5F5F5F5F5F5F5F5F5F5F5F5F5F5F5F5F5F5F5F5F5F5F5F5F5F5F5F5F5F5F5F5F5F5F5E2F5F5F5F5F5F5F5E2E2E2F5F5F5F5F5F5F5E2F5F5F5
310
F5F5F5F5F5F5F5F5F5F5F5F5F5F5F5F5F5F5F5F5F5F5F5F5F5F5F5F5F5F5F5F5F5E2E2F5F5F5E2E2F5F5F5F5F5F5F5F5F5F5F5F5F5E2E2F5F5E2E2E2E2E2E2E2E2E2E2E2E2E2E2E2F5F5F5F5F5F5F5F5F5E2E2E2E2E2E2E2E2E2E2E2E2E2E2E2E2F5F5F5E2E2E2E2E2E2E2E2E2E2E2E2E2E2E2E2E2F5F5F5F5F5F5F5F5F5F5
310
F5F5F5F5F5F5F5F5F5F5F5F5F5F5F5F5F5F5F5F5F5F5F5F5F5F5F5F5F5F5F5E2F5F5F5F5F5F5F5E2E2E2F5F5F5F5F5F5F5E2F5F5F5F5F5F5F5F5F5F5F5F5F5F5F5F5F5F5F5F5F5F5F5F5F5F5F5F5F5F5F5F5F5F5F5F5E2E2F5F5F5E2E2F5F5F5F5F5F5F5F5F5F5F5F5F5E2E2F5F5E2E2E2E2E2E2E2E2E2E2E2E2E2E2E2F5F5
310
F5F5F5F5F5F5F5E2E2E2E2E2E2E2E2E2E2E2E2E2E2E2E2F5F5F5E2E2E2E2E2E2E2E2E2E2E2E2E2E2E2E2E2F5F5F5F5F5F5F5F5F5F5F5F5F5F5F5F5F5F5F5F5F5F5F5F5F5F5F5F5F5F5F5F5F5F5F5F5F5F5F5F5F5E2F5F5F5F5F5F5F5E2E2E2F5F5F5E2F5F5F5E2F5F5F5F5F5F5F5F5F5F5F5F5F5F5F5F5F5F5F5F5F5F5F5F5
310
F5F5F5F5F5F5F5F5F5F5F5F5E2F5F5F5F5E2F5F5F5F5F5F5F5F5F5F5F5F5F5F5E2E2F5F5F5F5F5F5F5E2E2E2E2F5F5F5F5F5F5F5F5F5F5F5F5F5F5F5F5F5F5F5F5F5F5E2E2E2E2F5F5F5F5F5F5F5F5E2E2E2F5F5F5F5F5F5E2E2E2E2F5F5F5F5F5F5F5F5F5F5F5F5F5F5F5F5F5F5F5F5F5F5F5F5F5F5F5F5F5F5F5F5F5F5F5
310
F5F5F5F5F5F5F5F5F5F5E2F5F5F5E2F5F5F5E2E2E2F5F5F5E2F5F5F5E2F5F5F5F5F5F5F5F5F5F5F5F5F5F5F5F5F5F5F5F5F5F5F5F5F5F5F5F5F5F5F5F5F5F5F5F5E2F5F5F5F5E2F5F5F5F5F5F5F5F5F5F5F5F5F5F5E2E2F5F5F5F5F5E2E2E2E2E2E2F5F5F5F5F5F5F5F5F5F5F5F5F5F5F5F5F5F5F5F5F5F5E2E2E2E2E2E2F5
310
F5F5F5F5F5E2E2E2F5F5F5F5F5F5E2E2E2E2F5F5F5F5F5F5F5F5F5F5F5F5F5F5F5F5F5F5F5F5F5F5F5F5F5F5F5F5F5F5F5F5F5F5F5F5F5F5F5F5F5F5F5F5F5E2F5F5F5E2F5F5F5E2E2E2F5F5F5E2F5F5F5E2F5F5F5F5F5F5F5F5F5F5F5F5F5F5F5F5F5F5F5F5F5F5F5F5F5F5F5F5F5F5F5F5F5F5F5F5E2F5F5F5F5E2F5F5F5
310
F5F5F5F5F5F5F5F5F5F5F5E2E2F5F5F5F5F5E2F5E2E2E2E2F5F5F5F5F5F5F5F5F5F5F5F5F5F5F5F5F5F5F5F5F5F5F5F5F5F5F5E2F5F5F5F5F5F5E2E2E2F5F5F5E2E2E2E2E2E2E2F5F5F5F5F5F5F5F5F5F5F5F5F5F5F5F5F5F5F5F5F5F5F5F5F5F5F5F5F5F5F5F5F5F5F5F5F5F5F5F5F5F5F5F5F5E2F5F5F5E2F5F5F5E2E2E2
310
F5F5F5E2F5F5F5E2F5F5F5F5F5F5F5F5F5F5F5F5F5F5F5F5F5F5F5F5F5F5F5F5F5F5F5F5F5F5F5F5F5F5F5F5E2F5F5F5F5E2F5F5F5F5F5F5F5F5F5F5F5F5F5F5E2E2F5F5F5F5E2F5F5F5F5F5F5F5F5F5F5F5F5F5F5F5F5F5F5F5F5F5F5F5F5F5F5F5F5F5F5F5F5F5E2F5F5F5F5F5F5E2E2E2F5F5F5E2F5F5F5F5F5F5F5F5F5
310
F5F5F5F5F5F5F5F5F5F5F5F5F5F5F5F5F5F5F5F5F5F5F5F5F5F5F5F5F5F5F5F5F5F5F5F5F5F5F5F5F5F5E2F5F5F5E2F5F5F5E2E2E2F5F5F5E2F5F5F5E2F5F5F5F5F5F5F5F5F5F5F5F5F5F5F5F5F5F5F5F5F5F5F5F5F5F5F5F5F5F5F5F5F5F5F5F5E2F5F5F5F5E2F5F5F5F5F5F5F5F5F5F5F5F5F5F5E2E2F5F5F5F5E2F5F5F5
310
F5F5F5F5F5F5F5F5F5F5F5F5F5F5F5F5F5F5F5F5F5F5F5F5F5F5F5F5F5F5E2F5F5F5F5F5F5E2E2E2F5F5F5E2F5F5F5F5F5F5F5F5F5F5F5F5F5F5F5F5F5F5F5F5F5F5F5F5F5F5F5F5F5F5F5F5F5F5F5F5F5F5F5F5F5F5F5F5F5F5F5F5F5F5F5E2F5F5F5E2F5F5F5E2E2E2F5F5F5E2F5F5F5E2F5F5F5F5F5F5F5F5F5F5F5F5F5
310
F5F5F5F5F5F5F5F5F5F5F5F5F5F5F5F5F5F5F5F5F5F5F5E2F5F5F5F5E2F5F5F5F5F5F5F5F5F5F5F5F5F5F5E2E2F5F5F5F5E2F5F5F5F5F5F5F5F5F5F5F5F5F5F5F5F5F5F5F5F5F5F5F5F5F5F5F5F5F5F5F5F5F5E2F5F5F5F5F5F5E2E2E2F5F5E2F5F5F5F5F5F5F5F5F5F5F5F5F5F5F5F5F5F5F5F5F5F5F5F5F5F5F5F5F5F5F5
310
F5F5F5F5F5F5F5F5F5F5F5F5F5F5F5F5F5F5F5F5F5E2F5F5F5E2F5F5F5E2E2E2F5F5F5E2F5F5F5E2F5F5F5F5F5F5F5F5F5F5F5F5F5F5F5F5F5F5F5F5F5F5F5F5F5F5F5F5F5F5F5F5F5F5F5F5E2F5F5F5F5E2F5F5F5F5F5F5F5F5F5F5F5F5F5F5E2E2F5F5F5E2F5F5F5F5F5F5F5F5F5F5F5F5F5F5F5F5F5F5F5F5F5F5F5F5F5
310
F5F5F5F5F5F5F5F5F5E2F5F5F5F5F5F5E2E2E2F5F5E2F5F5F5F5F5F5F5F5F5F5F5F5F5F5F5F5F5F5F5F5F5F5F5F5F5F5F5F5F5F5F5F5F5F5F5F5F5F5F5F5F5F5F5F5F5F5F5F5F5F5F5F5E2F5F5F5E2F5F5F5E2E2E2F5F5F5E2F5F5F5E2F5F5F5F5F5F5F5F5F5F5F5F5F5F5F5F5F5F5F5F5F5F5F5F5F5F5F5F5F5F5F5F5F5F5
310
F5F5E2F5F5F5F5E2F5F5F5F5F5F5F5F5F5F5F5F5F5F5E2E2F5F5F5E2F5F5F5F5F5F5F5F5F5F5F5F5F5F5F5F5F5F5F5F5F5F5F5F5F5F5F5F5F5F5F5F5F5F5E2F5F5F5F5F5F5E2E2E2F5F5E2F5F5F5F5F5F5F5F5F5F5F5F5F5F5F5F5F5F5F5F5F5F5F5F5F5F5F5F5F5F5F5F5F5F5F5F5F5F5F5F5F5F5F5F5F5F5F5F5F5F5F5F5
310
E2F5F5F5E2F5F5F5E2E2E2F5F5F5E2F5F5F5E2F5F5F5F5F5F5F5F5F5F5F5F5F5F5F5F5F5F5F5F5F5F5F5F5F5F5F5F5F5F5F5F5F5F5F5F5E2F5E2E2E2E2F5F5F5F5F5F5F5F5F5F5F5F5F5F5E2E2F5F5F5E2F5F5F5F5F5F5F5F5F5F5F5F5F5F5F5F5F5F5F5F5F5F5F5F5F5F5F5F5F5F5F5F5F5F5E2F5F5F5F5F5F5E2E2E2F5E2
310
F5F5F5F5F5F5F5F5F5F5F5F5F5F5F5F5F5F5F5F5F5F5F5F5F5F5F5F5F5F5F5F5F5F5F5F5F5F5F5F5F5F5F5F5F5F5F5F5F5F5F5F5F5E2F5F5F5E2F5F5F5E2E2E2F5F5F5E2F5F5F5E2F5F5F5F5F5F5F5F5F5F5F5F5F5F5F5F5F5F5F5F5F5F5F5F5F5F5F5F5F5F5F5F5F5F5F5F5E2F5E2E2E2E2F5F5F5F5F5F5F5F5F5F5F5F5F5
310
E2F5E2F5F5E2F5F5F5F5F5F5F5F5F5F5F5F5F5F5F5F5F5F5F5F5F5F5F5F5F5F5F5F5F5F5F5F5F5F5F5E2F5F5F5F5F5F5E2E2F5E2E2F5F5F5F5F5F5F5F5F5F5F5F5F5F5F5F5F5F5F5F5F5F5F5F5F5F5F5F5F5F5F5F5F5F5F5F5F5F5F5F5F5F5F5F5F5F5F5F5F5F5F5F5F5E2F5F5F5E2F5F5F5E2E2E2F5F5F5E2F5F5F5E2F5F5
310
F5F5F5F5F5F5F5F5F5F5F5F5F5F5F5F5F5F5F5F5F5F5F5F5F5F5F5F5F5F5E2E2E2E2E2F5E2E2E2E2F5F5F5F5F5F5F5F5F5F5F5F5F5E2F5F5E2F5E2F5F5F5F5F5F5F5F5F5F5F5F5F5F5F5F5F5F5F5F5F5F5F5F5F5F5F5F5F5F5F5F5F5F5F5E2F5F5F5F5F5F5E2E2F5E2F5F5F5F5F5F5F5F5F5F5F5F5F5F5F5F5F5F5F5F5F5F5
310
F5F5F5F5F5F5F5F5F5F5F5F5F5F5F5F5F5F5F5F5F5F5F5F5F5F5F5F5F5F5F5F5E2F5F5F5E2F5F5F5E2E2E2F5F5F5E2F5F5F5E2F5F5F5F5F5F5F5F5F5F5F5F5F5F5F5F5F5F5F5F5F5F5F5F5F5F5F5F5F5F5F5F5E2E2E2E2E2F5F5F5F5E2F5F5F5F5F5F5F5F5F5F5F5F5F5E2F5F5E2F5E2F5F5F5F5F5F5F5F5F5F5F5F5F5F5F5
310
F5F5F5F5F5F5F5F5F5F5F5F5F5F5F5F5F5F5F5F5E2F5F5F5F5F5F5E2E2F5E2F5F5F5F5F5F5F5F5F5F5F5F5F5F5F5F5F5F5F5F5F5F5F5F5F5F5F5F5F5F5F5F5F5F5F5F5F5F5F5F5F5F5F5F5F5F5F5F5F5F5F5F5F5F5E2F5F5F5E2F5F5F5E2E2E2F5F5F5E2F5F5F5E2F5F5F5F5F5F5F5F5F5F5F5F5F5F5F5F5F5F5F5F5F5F5F5
310
F5F5F5F5F5F5F5F5F5E2E2E2E2E2F5F5F5F5E2F5F5F5F5F5F5F5F5F5F5F5F5F5E2F5F5E2F5E2F5F5F5F5F5F5F5F5F5F5F5F5F5F5F5F5F5F5F5F5F5F5F5F5F5F5F5F5F5F5F5F5F5F5F5E2F5F5F5F5F5F5E2E2F5E2F5F5F5F5F5F5F5F5F5F5F5F5F5F5F5F5F5F5F5F5F5F5F5F5F5F5F5F5F5F5F5F5F5F5F5F5F5F5F5F5F5F5F5
310
F5F5F5F5F5F5F5F5F5F5F5E2F5F5F5E2F5F5F5E2E2E2F5F5F5E2F5F5F5E2F5F5F5F5F5F5F5F5F5F5F5F5F5F5F5F5F5F5F5F5F5F5F5F5F5F5F5F5F5F5F5F5F5F5F5F5E2F5F5F5F5E2F5F5F5F5F5F5F5F5F5F5F5F5F5E2F5F5E2F5E2F5F5F5F5F5F5F5F5F5F5F5F5F5F5F5F5F5F5F5F5F5F5F5F5F5F5F5F5F5F5F5F5F5F5F5E2
310
F5F5F5F5F5F5E2E2E2E2F5F5F5F5F5F5F5F5F5F5F5F5F5F5F5F5F5F5F5F5F5F5F5F5F5F5F5F5F5F5F5F5F5F5F5F5F5F5F5F5F5F5F5F5F5F5F5F5F5F5F5F5F5F5E2F5F5F5E2F5F5F5E2E2E2F5F5F5E2F5F5F5E2F5F5F5F5F5F5F5F5F5F5F5F5F5F5F5F5F5F5F5F5F5F5F5F5F5F5F5F5F5F5F5F5F5F5F5F5E2F5F5F5F5E2F5F5
310
F5F5F5F5F5F5F5F5F5F5F5E2F5F5E2E2F5F5F5F5F5F5F5F5F5F5F5F5F5F5F5F5F5F5F5F5F5F5F5F5F5F5F5F5F5F5F5F5F5F5F5F5E2F5F5F5F5F5F5E2E2E2E2F5F5F5F5F5F5F5F5F5F5F5F5F5F5F5F5F5F5F5F5F5F5F5F5F5F5F5F5F5F5F5F5F5F5F5F5F5F5F5F5F5F5F5F5F5F5F5F5F5F5F5F5F5F5E2F5F5F5E2F5F5F5E2E2
310
E2F5F5F5F5F5F5F5E2F5F5F5F5F5F5F5F5F5F5F5F5F5F5F5F5F5F5F5F5F5F5F5F5F5F5F5F5F5F5F5F5F5F5F5F5E2F5F5F5F5E2F5F5F5F5F5F5F5F5F5F5F5F5F5E2F5F5E2E2F5F5F5F5F5F5F5F5F5F5F5F5E2F5F5F5F5F5F5F5F5F5F5F5F5F5F5F5F5F5F5F5F5F5F5F5E2F5F5F5F5F5F5E2E2E2E2F5F5F5F5F5F5F5F5F5F5F5
310
F5F5F5F5F5F5F5F5F5F5F5F5F5F5F5F5F5F5F5F5F5F5F5F5F5F5F5F5F5F5F5F5F5F5F5F5F5F5F5F5F5F5F5E2F5F5F5F5F5F5F5E2E2E2F5F5F5F5F5F5F5E2F5F5F5F5F5F5F5F5F5F5F5F5F5F5F5F5F5F5F5F5F5F5F5F5F5F5F5F5F5F5F5F5F5F5F5F5E2F5F5F5F5E2F5F5F5F5F5F5F5F5F5F5F5F5F5E2F5F5E2E2F5F5F5F5F5
310
F5F5F5F5F5F5F5E2F5F5F5F5F5F5F5F5F5F5F5F5F5F5F5F5F5F5F5F5F5F5F5E2F5F5F5F5F5F5E2E2F5E2F5F5F5F5F5F5F5F5F5F5F5F5F5F5F5F5F5F5F5F5F5F5F5F5F5F5F5F5F5F5F5F5F5F5F5F5F5F5F5F5F5F5F5F5F5F5F5F5F5F5F5F5F5F5E2F5F5F5F5F5F5F5E2E2E2F5F5F5F5F5F5F5E2F5F5F5F5F5F5F5F5F5F5F5F5
310
F5F5F5F5F5F5F5F5F5F5F5F5F5F5F5F5F5F5F5F5F5F5F5F5E2F5F5F5F5E2F5F5F5F5F5F5F5F5F5F5F5F5F5E2F5F5E2F5F5F5F5F5F5F5F5F5F5F5F5F5E2E2F5F5F5F5F5F5F5F5F5F5F5F5F5F5F5F5F5F5F5F5F5F5E2F5F5F5F5F5F5E2E2F5E2F5F5F5F5F5F5F5F5F5F5F5F5F5F5F5F5F5F5F5F5F5F5F5F5F5F5F5F5F5F5F5F5
310
F5F5F5F5F5F5F5F5F5F5F5F5F5F5F5F5F5F5F5F5F5F5E2F5F5F5F5F5F5F5E2E2E2F5F5F5F5F5F5F5E2F5F5F5F5F5F5F5F5F5F5F5F5F5F5F5F5F5F5F5F5F5F5F5F5F5F5F5F5F5F5F5F5F5F5F5F5E2F5F5F5F5E2F5F5F5F5F5F5F5F5F5F5F5F5F5E2F5F5E2F5F5F5F5F5F5F5F5F5F5F5F5F5E2E2F5F5F5F5F5F5F5F5F5F5F5F5
310
F5F5F5F5F5F5F5F5F5F5E2F5F5F5F5F5F5E2E2F5E2F5F5F5F5F5F5F5F5F5F5F5F5F5F5F5F5F5F5F5F5F5F5F5F5F5F5F5F5F5F5F5F5F5F5F5F5F5F5F5F5F5F5F5F5F5F5F5F5F5F5F5F5F5F5E2F5F5F5F5F5F5F5E2E2E2F5F5F5F5F5F5F5E2F5F5F5F5F5F5F5F5F5F5F5F5F5F5F5F5F5F5F5F5F5F5F5F5F5F5F5F5F5F5F5F5F5
310
F5F5F5E2F5F5F5F5E2F5F5F5F5F5E2E2E2F5F5E2E2E2E2F5E2E2E2E2F5F5F5F5F5F5F5F5F5E2E2E2F5F5F5F5F5F5F5F5F5F5F5F5F5F5F5F5F5F5F5F5F5F5F5E2E2F5E2E2E2E2E2E2F5E2F5F5F5F5F5F5F5F5F5F5F5F5F5F5F5F5F5F5F5F5F5F5F5F5F5F5F5F5F5F5F5F5F5F5F5F5F5F5F5F5F5F5F5F5F5F5F5F5F5F5F5F5F5
310
F5E2F5F5F5F5F5F5F5E2E2E2F5F5F5F5F5F5F5E2F5F5F5F5F5F5F5F5F5F5F5F5F5F5F5F5F5F5F5F5F5F5F5F5F5F5F5F5F5F5F5F5F5F5F5F5E2F5F5F5F5E2E2F5F5F5E2E2F5F5E2E2E2E2E2E2E2E2E2E2E2E2E2E2E2E2E2E2E2E2E2E2E2E2F5F5F5F5F5F5F5F5F5F5F5F5F5F5F5F5F5F5F5F5F5E2E2E2F5E2E2E2ECECE2E2E2
310
E2E2E2E2E2E2E2E2E2F5F5F5F5F5F5F5F5F5F5F5F5F5F5F5F5F5F5F5F5F5F5F5F5F5F5F5F5F5F5F5F5F5F5F5F5F5F5F5F5F5F5F5F5F5E2F5F5F5F5F5F5F5E2E2E2F5F5F5F5F5F5F5E2F5F5F5F5F5F5F5F5F5F5F5F5F5F5F5F5F5F5F5F5F5F5F5F5F5F5F5F5F5F5F5F5F5F5F5F5E2F5F5F5F5E2E2F5F5F5E2E2E2E2E2E2E2E2
310
E2E2E2E2E2E2E2E2E2E2E2E2E2E2E2E2E2E2E2E2F5F5F5F5F5F5F5F5F5F5F5F5F5F5F5F5F5F5F5F5F5E2E2E2E2E2E2E2E2E2E2E2E2E2E2E2E2E2E2E2E2E2F5F5F5F5F5F5F5F5F5F5F5F5F5F5F5F5F5F5F5F5F5F5F5F5F5F5F5F5F5F5F5F5F5F5F5F5F5F5F5F5F5F5F5F5F5E2F5F5F5F5F5F5F5E2E2E2F5F5F5F5F5F5F5E2F5
310
F5F5F5F5F5F5F5F5F5F5F5F5F5F5F5F5F5F5F5F5F5F5F5F5F5F5F5F5F5F5F5F5F5F5F5E2F5E2E2E2E2E2E2E2E2E2E2E2E2E2E2E2E2E2E2ECECE2E2E2F5F5F5E2E2E2E2F5F5F5E2E2F5F5F5F5F5F5F5F5F5F5F5F5F5F5F5F5F5F5F5F5F5F5E2E2ECECE2E2E2ECE2E2F5F5E2ECECECE2F5F5F5E2F5F5F5F5F5F5F5F5F5F5F5F5
310
F5F5F5F5F5F5F5F5F5F5F5F5F5F5F5F5F5F5F5F5F5F5F5F5F5F5F5F5F5F5F5F5F5E2F5F5F5F5F5F5F5E2E2E2F5F5F5F5F5F5F5E2F5F5F5F5F5F5F5F5F5F5F5F5F5F5F5F5F5F5F5F5F5F5F5F5F5F5F5F5F5F5F5F5F5F5F5F5E2F5E2E2E2E2F5F5F5F5E2F5F5F5F5F5E2E2E2E2ECECE2E2E2F5F5F5F5F5F5E2F5F5F5E2E2E2F5
310
F5F5F5F5F5F5F5F5F5F5F5F5F5F5F5F5F5F5F5E2E2E2E2E2E2E2E2E2E2E2F5F5E2E2E2E2E2F5F5F5E2F5F5F5F5F5F5F5F5F5F5F5F5F5F5F5F5F5F5F5F5F5F5F5F5F5F5F5F5F5F5F5F5F5F5F5F5F5F5F5F5F5F5F5F5F5E2F5F5F5F5F5F5F5E2E2E2F5F5F5E2F5F5F5E2F5F5F5F5F5F5F5F5F5F5F5F5F5F5F5F5F5F5F5F5F5F5
310
F5F5F5F5F5F5F5F5F5F5F5F5F5F5E2E2E2E2E2E2F5F5F5F5E2F5F5F5F5F5F5F5F5E2E2E2E2F5F5F5F5F5F5F5F5E2F5F5F5F5E2E2F5F5F5F5F5F5F5F5F5F5F5F5F5F5F5F5F5F5F5F5E2E2E2E2F5F5F5E2E2E2E2F5F5E2F5F5F5F5F5F5F5E2F5F5F5F5F5F5F5F5F5F5F5F5F5F5F5F5F5F5F5F5F5F5F5F5F5F5F5F5F5F5F5F5F5
310
F5F5F5F5F5F5F5F5F5F5F5F5E2F5F5F5E2F5F5F5E2E2E2F5F5F5E2F5F5F5E2F5F5F5F5F5F5F5F5F5F5F5F5F5F5F5F5F5F5F5F5F5F5F5F5F5F5F5F5F5F5F5F5F5F5F5F5E2E2E2E2E2E2F5F5F5F5E2F5F5F5F5F5F5F5E2E2E2F5E2F5F5F5F5F5F5F5F5E2F5F5F5F5E2F5F5F5F5F5F5F5F5F5F5F5F5F5F5F5F5F5F5F5F5F5F5F5
310
E2E2F5F5F5E2F5E2E2F5F5E2F5F5F5F5F5F5F5E2F5F5F5F5F5F5F5F5F5F5F5F5F5F5F5F5F5F5F5F5F5F5F5F5F5F5F5F5F5F5F5F5F5F5F5F5F5F5F5F5F5F5F5F5F5E2F5F5F5E2F5F5F5E2E2E2F5F5F5E2F5F5F5E2F5F5F5F5F5F5F5F5F5F5F5F5F5F5F5F5F5F5F5F5F5F5F5F5F5F5F5F5F5F5F5F5F5F5F5F5E2F5F5F5F5E2F5
310
F5F5F5E2F5F5F5F5F5F5F5E2E2E2F5E2F5F5F5F5F5F5F5F5E2F5F5F5F5E2F5F5F5F5F5F5F5F5F5F5F5F5F5F5F5F5F5F5F5F5F5F5F5E2F5F5F5F5E2F5E2E2F5F5E2F5F5F5F5F5F5F5E2F5F5F5F5F5F5F5F5F5F5F5F5F5F5F5F5F5F5F5F5F5F5F5F5F5F5F5F5F5F5F5F5F5F5F5F5F5F5F5F5F5F5F5F5F5E2F5F5F5E2F5F5F5E2
310
E2E2F5F5F5E2F5F5F5E2F5F5F5F5F5F5F5F5F5F5F5F5F5F5F5F5F5F5F5F5F5F5F5F5F5F5F5F5F5F5F5F5F5F5F5F5E2E2E2E2E2E2E2E2E2E2E2E2E2E2E2E2E2E2E2E2E2F5E2F5F5F5F5F5F5F5F5E2F5F5F5F5E2F5F5F5F5F5F5F5F5F5F5F5F5F5F5F5F5F5F5F5F5F5F5F5E2F5F5F5F5F5F5E2E2E2E2F5F5F5F5F5F5F5F5E2F5
310
F5F5F5F5F5F5F5F5F5F5F5F5F5F5F5F5F5F5F5F5F5F5F5F5F5F5F5F5F5F5F5F5F5F5F5F5F5F5F5F5F5F5F5F5E2F5F5F5E2F5F5F5E2E2E2F5F5F5E2F5F5F5E2F5F5F5F5F5F5F5F5F5F5F5F5F5F5F5F5F5F5F5F5F5F5F5F5F5F5F5F5F5F5F5F5F5F5F5F5F5F5F5F5F5E2E2F5F5F5E2F5F5F5F5F5F5F5F5E2E2F5F5F5F5F5F5F5
310
F5F5F5E2F5F5F5F5E2F5F5F5F5F5F5F5F5F5F5F5F5F5F5F5F5F5F5F5F5F5F5F5E2F5F5F5F5F5F5E2F5F5F5F5F5F5F5F5F5F5F5E2F5F5F5F5F5F5F5F5F5F5F5F5F5F5F5F5F5F5F5F5F5F5F5F5F5F5F5F5F5F5F5F5F5F5F5F5F5F5F5F5F5F5F5F5F5E2F5F5F5E2F5F5F5E2E2E2F5F5F5E2F5F5F5E2F5F5F5F5F5F5F5F5F5F5F5
310
F5F5F5F5F5F5F5F5F5F5F5F5F5F5F5F5F5F5F5F5F5F5F5F5F5F5F5F5F5F5E2E2F5F5F5E2F5F5F5F5F5F5F5F5F5E2F5F5F5F5F5F5F5F5F5F5E2F5F5F5F5E2F5F5F5F5F5F5F5F5F5F5F5F5F5F5F5F5F5F5F5F5F5F5F5F5F5F5F5F5F5F5E2F5F5F5F5F5F5F5F5F5F5F5E2F5F5F5F5F5F5F5F5F5F5F5F5F5F5F5F5F5F5F5F5F5F5
310
F5F5F5F5F5F5F5F5F5F5F5F5F5F5F5F5F5F5F5F5F5F5F5E2F5F5F5E2F5F5F5E2E2E2F5F5F5E2F5F5F5E2F5F5F5F5F5F5F5F5F5F5F5F5F5F5F5F5F5F5F5F5F5F5F5F5F5F5F5F5F5F5F5F5F5F5F5F5F5F5F5F5F5E2F5F5F5F5E2F5F5F5F5F5F5F5F5F5E2F5F5F5F5F5F5F5F5F5F5E2F5F5F5F5E2F5F5F5F5F5F5F5F5F5F5F5F5
310
F5F5F5F5F5F5F5F5F5F5F5F5F5F5F5F5F5F5E2F5F5F5F5F5F5F5F5F5F5F5E2F5F5F5F5F5F5F5F5F5F5F5F5F5F5F5F5F5F5F5F5F5F5F5F5F5F5F5F5F5F5F5F5F5F5F5F5F5F5F5F5F5F5F5F5F5E2F5F5F5E2F5F5F5E2E2E2F5F5F5E2F5F5F5E2F5F5F5F5F5F5F5F5F5F5F5F5F5F5F5F5F5F5F5F5F5F5F5F5F5F5F5F5F5F5F5F5
310
F5F5F5F5F5F5F5F5F5E2F5F5F5F5E2F5F5F5F5F5F5F5F5F5E2F5F5F5F5F5F5F5F5F5F5E2F5F5F5F5E2F5F5F5F5F5F5F5F5F5F5F5F5F5F5F5F5F5F5F5F5F5F5F5F5F5F5F5F5F5F5E2F5F5F5F5F5F5F5F5F5F5F5E2F5F5F5F5F5F5F5F5F5F5F5F5F5F5F5F5F5F5F5F5F5F5F5F5F5F5F5F5F5F5F5F5F5F5F5F5F5F5F5F5F5F5F5
310
F5F5E2F5F5F5E2F5F5F5E2E2E2F5F5F5E2F5F5F5E2F5F5F5F5F5F5F5F5F5F5F5F5F5F5F5F5F5F5F5F5F5F5F5F5F5F5F5F5F5F5F5F5F5F5F5F5F5F5F5F5F5F5F5F5F5F5E2F5F5F5F5F5F5F5F5F5E2F5F5F5F5F5F5F5F5F5F5E2F5F5F5F5E2F5F5F5F5F5F5F5F5F5F5F5F5F5F5F5F5F5F5F5F5F5F5F5F5F5F5F5F5F5F5E2F5F5
310
F5F5F5F5F5F5F5F5F5E2F5F5F5F5F5F5F5F5F5F5F5F5F5F5F5F5F5F5F5F5F5F5F5F5F5F5F5F5F5F5F5F5F5F5F5F5F5F5F5F5F5F5F5F5F5E2F5F5F5E2F5F5F5E2E2E2F5F5F5E2F5F5F5E2F5F5F5F5F5F5F5F5F5F5F5F5F5F5F5F5F5F5F5F5F5F5F5F5F5F5F5F5F5F5F5F5F5F5F5F5F5F5F5F5F5F5F5F5F5F5E2F5F5F5F5F5F5
310
F5F5F5E2F5F5F5F5F5F5F5F5F5F5E2F5F5E2E2E2E2E2E2E2E2E2E2E2E2E2E2E2E2F5F5F5F5F5F5F5F5F5F5F5F5F5F5F5F5F5E2F5F5F5F5F5F5F5F5F5F5F5E2F5F5F5F5F5F5F5F5F5F5F5F5F5F5F5F5F5F5F5F5F5F5F5F5F5F5F5F5F5F5F5F5F5F5F5F5F5F5F5F5F5F5F5F5F5E2F5F5F5E2F5F5F5E2E2E2F5F5F5E2F5F5F5E2
310
F5F5F5F5F5F5F5F5F5F5F5F5F5F5F5F5F5F5F5F5F5F5F5F5F5F5F5F5F5F5F5F5F5F5F5F5F5F5F5F5F5F5F5F5F5F5E2F5E2E2F5F5F5F5E2F5E2F5E2E2F5F5F5F5E2E2F5E2F5F5E2E2E2E2E2E2E2E2E2E2E2E2E2E2E2E2F5F5F5F5F5F5F5F5F5F5F5F5F5F5F5F5F5E2F5E2E2F5F5F5F5F5E2E2F5E2F5F5F5F5F5F5F5F5F5F5F5
310
F5F5F5F5F5F5F5F5F5F5F5F5F5F5F5F5F5F5F5F5F5F5F5F5F5F5F5F5F5F5F5F5F5F5E2F5F5F5E2F5F5F5E2E2E2F5F5F5E2F5F5F5E2F5F5F5F5F5F5F5F5F5F5F5F5F5F5F5F5F5F5F5F5F5F5F5F5F5F5F5F5F5F5F5F5F5F5F5F5F5F5F5F5F5F5F5F5F5F5E2E2E2E2E2E2E2E2E2E2E2E2E2E2E2E2E2E2E2E2E2E2F5F5E2E2E2E2
310
E2E2E2E2E2E2E2E2E2E2E2E2F5F5F5F5F5F5F5F5F5F5F5F5F5F5F5F5F5E2E2E2E2E2E2E2E2E2E2E2E2E2F5F5F5F5F5F5F5F5F5F5F5F5F5F5F5F5F5F5F5F5F5F5F5F5F5F5F5F5F5F5F5F5F5F5F5F5F5F5F5F5F5F5F5F5F5E2F5F5F5E2F5F5F5E2E2E2F5F5F5E2F5F5F5E2F5F5F5F5F5F5F5F5F5F5F5F5F5F5F5F5F5F5F5F5F5
310
F5F5F5F5F5F5F5F5F5F5F5F5F5F5F5F5F5F5F5F5F5F5F5F5F5F5F5E2E2E2E2E2E2E2E2F5F5E2E2E2E2E2E2E2E2F5F5F5F5F5F5E2F5F5E2E2E2E2F5F5F5F5F5F5F5F5F5F5F5F5F5F5F5F5F5F5F5F5F5F5F5F5F5F5E2E2F5E2E2E2F5E2E2F5F5F5F5F5F5F5F5F5F5F5F5F5F5F5F5F5F5F5F5F5F5F5F5F5F5F5F5F5F5F5F5F5F5
310
F5F5F5F5F5F5F5F5F5F5F5F5F5E2F5F5F5E2F5F5F5E2E2E2F5F5F5E2F5F5F5E2F5F5F5F5F5F5F5F5F5F5F5F5F5F5F5F5F5F5F5F5F5F5F5F5F5F5F5F5F5F5F5F5F5F5F5F5F5F5F5F5F5F5F5F5F5F5F5F5F5F5E2E2E2E2F5F5F5F5F5F5E2E2E2E2F5F5F5F5F5F5F5F5E2E2E2E2E2E2E2F5F5F5F5F5F5F5F5F5F5F5F5F5F5F5F5
310
F5F5F5F5F5F5F5F5F5F5F5F5F5E2E2E2F5F5F5F5F5F5F5F5F5F5F5F5F5F5F5F5F5F5F5F5F5F5F5F5F5F5F5F5F5F5F5F5F5F5F5F5F5F5F5F5F5F5F5F5F5F5F5F5F5F5E2F5F5F5E2F5F5F5E2E2E2F5F5F5E2F5F5F5E2F5F5F5F5F5F5F5F5F5F5F5F5F5F5F5F5F5F5F5F5F5F5F5F5F5F5F5F5F5F5F5F5F5F5F5F5F5F5F5F5F5F5
310
F5F5F5F5F5F5F5F5F5F5F5F5F5F5F5F5F5F5F5F5F5F5F5F5F5F5F5F5F5F5F5F5F5F5F5F5F5F5F5F5F5F5F5F5F5F5F5F5F5F5F5F5F5F5F5F5F5F5F5F5F5F5F5F5F5F5E2E2E2F5F5F5F5F5F5F5F5F5F5F5F5F5F5F5F5F5F5F5F5F5F5F5F5F5F5F5F5F5F5F5F5F5F5F5F5F5F5F5F5F5F5F5F5F5F5F5F5F5F5E2F5F5F5E2F5F5F5
310
E2E2E2F5F5F5F5F5F5F5E2F5F5F5F5F5F5F5F5F5F5F5F5F5F5F5F5F5F5F5F5F5F5F5F5F5F5F5F5F5F5F5F5F5F5F5F5F5F5F5F5F5F5F5F5F5F5F5F5F5F5F5F5F5F5F5F5F5F5F5F5F5F5F5F5F5F5F5F5F5F5F5F5F5F5F5F5F5F5F5F5F5F5F5F5F5F5F5F5F5F5F5F5F5F5F5F5F5F5F5F5F5F5F5F5F5F5F5F5F5F5F5F5F5F5F5F5
310
F5F5F5F5F5F5F5F5F5F5F5F5F5F5F5F5F5F5F5F5F5F5F5F5F5F5F5F5F5F5F5F5F5F5F5F5F5F5F5F5F5F5F5F5F5E2F5F5F5F5F5F5F5E2E2E2F5F5F5F5F5F5F5E2F5F5F5F5F5F5F5F5F5F5F5F5F5F5F5F5F5F5F5F5F5F5F5F5F5F5F5F5F5F5F5F5F5F5F5F5F5F5F5F5F5F5F5F5F5F5F5F5F5F5F5F5F5F5F5F5F5F5F5F5F5F5F5
310
F5F5F5F5F5F5F5F5F5F5F5F5F5F5F5F5F5F5F5F5F5F5F5F5F5F5F5F5F5F5F5F5F5F5F5F5F5F5F5F5F5F5F5F5F5F5F5F5F5F5F5F5F5F5F5F5F5F5F5F5F5F5F5F5F5F5F5F5F5F5F5F5F5F5F5F5F5F5F5F5F5F5F5F5F5F5F5F5F5F5F5F5F5F5F5F5F5F5E2F5F5F5F5F5F5F5E2E2E2F5F5F5F5F5F5F5E2F5F5F5F5F5F5F5F5F5F5
310
F5F5F5F5F5F5F5F5F5F5F5F5F5F5F5F5F5F5F5F5F5F5F5F5F5F5F5F5F5F5F5F5F5F5F5F5F5F5F5F5F5F5F5F5F5F5F5F5F5F5F5F5F5F5F5F5F5F5F5F5F5F5F5F5F5F5F5F5F5F5F5F5F5F5F5F5F5F5F5F5F5F5F5F5F5F5F5F5F5F5F5F5F5F5F5F5F5F5F5F5F5F5F5F5F5F5F5F5F5F5F5F5F5F5F5F5F5F5F5F5F5F5F5F5F5F5F5
310
F5F5F5F5F5F5F5F5F5F5F5F5F5F5F5F5F5F5F5F5F5F5F5F5E2F5F5F5F5F5F5F5E2E2E2F5F5F5F5F5F5F5E2F5F5F5F5F5F5F5F5F5F5F5F5F5F5F5F5F5F5F5F5F5F5F5F5F5F5F5F5F5F5F5F5F5F5F5F5F5F5F5F5F5F5F5F5F5F5F5F5F5F5F5F5F5F5F5F5F5F5F5F5F5F5F5F5F5F5F5F5F5F5F5F5F5F5F5F5F5F5F5F5F5F5F5F5
310
F5F5F5F5F5F5F5F5F5F5F5F5F5F5F5F5F5F5F5F5F5F5F5F5F5F5F5F5F5F5F5F5F5F5F5F5F5F5F5F5F5F5F5F5F5F5F5F5F5F5F5F5F5F5F5F5F5F5F5F5F5F5F5F5F5F5F5F5F5F5F5F5F5F5F5F5F5E2F5F5F5F5F5F5F5E2E2E2F5F5F5F5F5F5F5E2F5F5F5F5F5F5F5F5F5F5F5F5F5F5F5F5F5F5F5F5F5F5F5F5F5F5F5F5F5F5F5
310
F5F5F5F5F5F5F5F5F5F5F5F5F5F5F5F5F5F5F5F5F5F5F5F5F5F5F5F5F5F5F5F5F5F5F5F5F5F5F5F5F5F5F5F5F5F5F5F5F5F5F5F5F5F5F5F5F5F5F5F5F5F5F5F5F5F5F5F5F5F5F5F5F5F5F5F5F5F5F5F5F5F5F5F5F5F5F5F5F5F5F5F5F5F5F5F5F5F5F5F5F5F5F5F5F5F5F5F5F5F5F5F5F5F5F5F5F5F5F5F5F5F5F5F5F5F5F5
310
F5F5F5E2F5F5F5F5F5F5F5E2E2E2F5F5F5F5F5F5F5E2F5F5F5F5F5F5F5F5F5F5F5F5F5F5F5F5F5F5F5F5F5F5F5F5F5F5F5F5F5F5F5F5F5F5F5F5F5F5F5F5F5F5F5F5F5F5F5F5F5F5F5F5F5F5F5F5F5F5F5F5F5F5F5F5F5F5F5F5F5F5F5F5F5F5F5F5F5F5F5F5F5F5F5F5F5F5F5F5F5F5F5F5F5F5F5F5F5F5F5F5F5F5F5F5F5
310
F5F5F5F5F5F5F5F5F5F5F5F5F5F5F5F5F5F5F5F5F5F5F5F5F5F5F5F5F5F5F5F5F5F5F5F5F5F5F5F5F5F5F5F5F5F5F5F5F5F5F5F5F5F5F5F5E2F5F5F5F5F5F5F5E2E2E2F5F5F5F5F5F5F5E2F5F5F5F5F5F5F5F5F5F5F5F5F5F5F5F5F5F5F5F5F5F5F5F5F5F5F5F5F5F5F5F5F5F5F5F5F5F5F5F5F5F5F5F5F5F5F5F5F5F5F5F5
310
F5F5F5F5F5F5F5F5F5F5F5F5F5F5F5F5F5F5F5F5F5F5F5F5F5F5F5F5F5F5F5F5F5F5F5F5F5F5F5F5F5F5F5F5F5F5F5F5F5F5F5F5F5F5F5F5F5F5F5F5F5F5F5F5F5F5F5F5F5F5F5F5F5F5F5F5F5F5F5F5F5F5F5F5F5F5F5F5F5F5F5F5F5F5F5F5F5F5F5F5F5F5F5F5F5F5F5F5F5E2F5F5F5F5F5F5F5E2E2E2F5F5F5F5F5F5F5
310
E2F5F5F5F5F5F5F5F5F5F5F5F5F5F5F5F5F5F5F5F5F5F5F5F5F5F5F5F5F5F5F5F5F5F5F5F5F5F5F5F5F5F5F5F5F5F5F5F5F5F5F5F5F5F5F5F5F5F5F5F5F5F5F5F5F5F5F5F5F5F5F5F5F5F5F5F5F5F5F5F5F5F5F5F5F5F5F5F5F5F5F5F5F5F5F5F5F5F5F5F5F5F5F5F5F5F5F5F5F5F5F5F5F5F5F5F5F5F5F5F5F5F5F5F5F5F5
310
F5F5F5F5F5F5F5F5F5F5F5F5F5F5F5F5F5F5F5F5F5F5F5F5F5F5F5F5F5F5F5F5F5F5F5E2F5F5F5F5F5F5F5E2E2E2F5F5F5E2F5F5F5E2F5F5F5F5F5F5F5F5F5F5F5F5F5F5F5F5F5F5F5F5F5F5F5F5F5F5F5F5F5F5F5F5F5F5F5F5F5F5F5F5F5F5F5F5F5F5F5F5F5F5F5F5F5F5F5F5F5F5F5F5F5F5F5F5F5F5F5F5F5F5F5F5F5
310
F5F5F5F5F5F5F5F5F5F5F5F5F5F5F5F5F5F5F5F5F5F5F5F5F5F5F5F5F5F5F5F5F5F5F5F5F5F5F5F5F5F5F5F5F5F5F5F5F5F5F5F5F5F5F5F5F5F5F5F5F5F5F5F5F5F5F5F5F5F5F5F5F5F5F5F5F5F5F5F5F5F5F5F5F5F5F5F5E2F5F5F5E2F5F5F5E2E2E2F5F5F5E2F5F5F5E2F5F5F5F5F5F5F5F5F5F5F5F5F5F5F5F5F5F5F5F5
310
F5F5F5F5F5F5F5F5F5F5F5F5F5F5F5F5F5F5F5F5F5F5F5F5F5F5F5F5F5F5F5F5F5F5F5F5F5F5F5F5F5F5F5F5F5F5F5F5F5F5F5F5F5F5F5F5F5F5F5F5F5F5F5F5F5F5F5F5F5F5F5F5F5F5F5F5F5F5F5F5F5F5F5F5F5F5F5F5F5F5F5F5F5F5F5F5F5F5F5F5F5F5F5F5F5F5F5F5F5F5F5F5F5F5F5F5F5F5F5F5F5F5F5F5F5F5F5
310
F5F5F5F5F5F5F5F5F5F5F5F5F5F5E2F5F5F5E2F5F5F5E2E2E2F5F5F5E2F5F5F5E2F5F5F5F5F5F5F5F5F5F5F5F5F5F5F5F5F5F5F5F5F5F5F5F5F5F5F5F5F5F5F5F5F5F5F5F5F5F5F5F5F5F5F5F5F5F5F5F5F5F5F5F5F5F5F5F5F5F5F5F5F5F5F5F5F5F5F5F5F5F5F5F5F5F5F5F5F5F5F5F5F5F5F5F5F5F5F5F5F5F5F5F5F5F5
310
F5F5F5F5F5F5F5F5F5F5F5F5F5F5F5F5F5F5F5F5F5F5F5F5F5F5F5F5F5F5F5F5F5F5F5F5F5F5F5F5F5F5F5F5F5F5F5F5F5F5F5F5F5F5F5F5F5F5F5F5F5F5F5F5F5F5F5E2F5F5F5E2F5F5F5E2E2E2F5F5F5E2F5F5F5E2F5F5F5F5F5F5F5F5F5F5F5F5F5F5F5F5F5F5F5F5F5F5F5F5F5F5F5F5F5F5F5F5F5F5F5F5F5F5F5F5F5
310
F5F5F5F5F5F5F5F5F5F5F5F5F5F5F5F5F5F5F5F5F5F5F5F5F5F5F5F5F5F5F5F5F5F5F5F5F5F5F5F5F5F5F5F5F5F5F5F5F5F5F5F5F5F5F5F5F5F5F5F5F5F5F5F5F5F5F5F5F5F5F5F5F5F5F5F5F5F5F5F5F5F5F5F5F5F5F5F5F5F5F5F5F5F5F5F5F5F5F5F5F5F5F5F5F5F5F5F5F5F5F5F5F5F5F5F5F5F5F5F5E2F5F5F5E2F5F5
310
F5E2E2E2F5F5F5E2F5F5F5E2F5F5F5F5F5F5F5F5F5F5F5F5F5F5F5F5F5F5F5F5F5F5F5F5F5F5F5F5F5F5F5F5F5F5F5F5F5F5F5F5F5F5F5F5F5F5F5F5F5F5F5F5F5F5F5F5F5F5F5F5F5F5F5F5F5F5F5F5F5F5F5F5F5F5F5F5F5F5F5F5F5F5F5F5F5F5F5F5F5F5F5F5F5F5F5F5F5F5F5F5F5F5F5F5F5F5F5F5F5F5F5F5F5F5F5
310
F5F5F5F5F5F5F5F5F5F5F5F5F5F5F5F5F5F5F5F5F5F5F5F5F5F5F5F5F5F5F5F5F5F5F5F5F5F5F5F5F5F5F5F5F5F5E2F5F5F5E2F5F5F5E2E2E2F5F5F5E2F5F5F5E2F5F5F5F5F5F5F5F5F5F5F5F5F5F5F5F5F5F5F5F5F5F5F5F5F5F5F5F5F5F5F5F5F5F5F5F5F5F5F5F5F5F5F5F5F5F5F5F5F5F5F5F5F5F5F5F5F5F5F5F5F5F5
310
F5F5F5F5F5F5F5F5F5F5F5F5F5F5F5F5F5F5F5F5F5F5F5F5F5F5F5F5F5F5F5F5F5F5F5F5F5F5F5F5F5F5F5F5F5F5F5F5F5F5F5F5F5F5F5F5F5F5F5F5F5F5F5F5F5F5F5F5F5F5F5F5F5F5F5F5F5F5F5F5F5F5F5F5F5F5F5F5F5F5F5F5F5F5F5F5F5F5F5E2F5F5F5E2F5F5F5E2E2E2F5F5F5E2F5F5F5E2F5F5F5F5F5F5F5F5F5
310
F5F5F5F5F5F5F5F5F5F5F5F5F5F5F5F5F5F5F5F5F5F5F5F5F5F5F5F5F5F5F5F5F5F5F5F5F5F5F5F5F5F5F5F5F5F5F5F5F5F5F5F5F5F5F5F5F5F5F5F5F5F5F5F5F5F5F5F5F5F5F5F5F5F5F5F5F5F5F5F5F5F5F5F5F5F5F5F5F5F5F5F5F5F5F5F5F5F5F5F5F5F5F5F5F5F5F5F5F5F5F5F5F5F5F5F5F5F5F5F5F5F5F5F5F5F5F5
310
F5F5F5F5F5F5F5F5F5F5F5F5F5F5F5F5F5F5F5F5F5F5F5F5F5E2F5F5F5E2F5F5F5E2E2E2F5F5F5E2F5F5F5E2F5F5F5F5F5F5F5F5F5F5F5F5F5F5F5F5F5F5F5F5F5F5F5F5F5F5F5F5F5F5F5F5F5F5F5F5F5F5F5F5F5F5F5F5F5F5F5F5F5F5F5F5F5F5F5F5F5F5F5F5F5F5F5F5F5F5F5F5F5F5F5F5F5F5F5F5F5F5F5F5F5F5F5
310
F5F5F5F5F5F5F5F5F5F5F5F5F5F5F5F5F5F5F5F5F5F5F5F5F5F5F5F5F5F5F5F5F5F5F5F5F5F5F5F5F5F5F5F5F5F5F5F5F5F5F5F5F5F5F5F5F5F5F5F5F5F5F5F5F5F5F5F5F5F5F5F5F5F5F5F5F5F5E2F5F5F5E2F5F5F5E2E2E2F5F5F5E2F5F5F5E2F5F5F5F5F5F5F5F5F5F5F5F5F5F5F5F5F5F5F5F5F5F5F5F5F5F5F5F5F5F5
310
F5F5F5F5F5F5F5F5F5F5F5F5F5F5F5F5F5F5F5F5F5F5F5F5F5F5F5F5F5F5F5F5F5F5F5F5F5F5F5F5F5F5F5F5F5F5F5F5F5F5F5F5F5F5F5F5F5F5F5F5F5F5F5F5F5F5F5F5F5F5F5F5F5F5F5F5F5F5F5F5F5F5F5F5F5F5F5F5F5F5F5F5F5F5F5F5F5F5F5F5F5F5F5F5F5F5F5F5F5F5F5F5F5F5F5F5F5F5F5F5F5F5F5F5F5F5F5
310
F5F5F5F5E2F5F5F5E2F5F5F5E2E2E2F5F5F5E2F5F5F5E2F5F5F5F5F5F5F5F5F5F5F5F5F5F5F5F5F5F5F5F5F5F5F5F5F5F5F5F5F5F5F5F5F5F5F5F5F5F5F5F5F5F5F5F5F5F5F5F5F5F5F5F5F5F5F5F5F5F5F5F5F5F5F5F5F5F5F5F5F5F5F5F5F5F5F5F5F5F5F5F5F5F5F5F5F5F5F5F5F5F5F5F5F5F5F5F5F5F5F5F5F5F5F5F5
310
F5F5F5F5F5F5F5F5F5F5F5F5F5F5F5F5F5F5F5F5F5F5F5F5F5F5F5F5F5F5F5F5F5F5F5F5F5F5F5F5F5F5F5F5F5F5F5F5F5F5F5F5F5F5F5F5F5E2F5F5F5E2F5F5F5E2E2E2F5F5F5E2F5F5F5E2F5F5F5F5F5F5F5F5F5F5F5F5F5F5F5F5F5F5F5F5F5F5F5F5F5F5F5F5F5F5F5F5F5F5F5F5F5F5F5F5F5F5F5F5F5F5F5F5F5F5F5
310
F5F5F5F5F5F5F5F5F5F5F5F5F5F5F5F5F5F5F5F5F5F5F5F5F5F5F5F5F5F5F5F5F5F5F5F5F5F5F5F5F5F5F5F5F5F5F5F5F5F5F5F5F5F5F5F5F5F5F5F5F5F5F5F5F5F5F5F5F5F5F5F5F5F5F5F5F5F5F5F5F5F5F5F5F5F5F5F5F5F5F5F5F5F5F5F5F5F5F5F5F5F5F5F5F5F5F5F5F5F5E2F5F5F5E2F5F5F5E2E2E2F5F5F5E2F5F5
310
F5E2F5F5F5F5F5F5F5F5F5F5F5F5F5F5F5F5F5F5F5F5F5F5F5F5F5F5F5F5F5F5F5F5F5F5F5F5F5F5F5F5F5F5F5F5F5F5F5F5F5F5F5F5F5F5F5F5F5F5F5F5F5F5F5F5F5F5F5F5F5F5F5F5F5F5F5F5F5F5F5F5F5F5F5F5F5F5F5F5F5F5F5F5F5F5F5F5F5F5F5F5F5F5F5F5F5F5F5F5F5F5F5F5F5F5F5F5F5F5F5F5F5F5F5F5F5
310
F5F5F5F5F5F5F5F5F5F5F5F5F5F5F5F5F5F5F5F5F5F5F5F5F5F5F5F5F5F5F5F5F5F5F5F5E2F5F5F5E2F5F5F5E2E2E2F5F5F5E2F5F5F5E2F5F5F5F5F5F5F5F5F5F5F5F5F5F5F5F5F5F5F5F5F5F5F5F5F5F5F5F5F5F5F5F5F5F5F5F5F5F5F5F5F5F5F5F5F5F5F5F5F5F5F5F5F5F5F5F5F5F5F5F5F5F5F5F5F5F5F5F5F5F5F5F5
310
F5F5F5F5F5F5F5F5F5F5F5F5F5F5F5F5F5F5F5F5F5F5F5F5F5F5F5F5F5F5F5F5F5F5F5F5F5F5F5F5F5F5F5F5F5F5F5F5F5F5F5F5F5F5F5F5F5F5F5F5F5F5F5F5F5F5F5F5F5F5F5F5F5F5F5F5F5F5F5F5F5F5F5F5F5F5F5F5F5E2F5F5F5E2F5F5F5E2E2E2F5F5F5E2F5F5F5E2F5F5F5F5F5F5F5F5F5F5F5F5F5F5F5F5F5F5F5
310
F5F5F5F5F5F5F5F5F5F5F5F5F5F5F5F5F5F5F5F5F5F5F5F5F5F5F5F5F5F5F5F5F5F5F5F5F5F5F5F5F5F5F5F5F5F5F5F5F5F5F5F5F5F5F5F5F5F5F5F5F5F5F5F5F5F5F5F5F5F5F5F5F5F5F5F5F5F5F5F5F5F5F5F5F5F5F5F5F5F5F5F5F5F5F5F5F5F5F5F5F5F5F5F5F5F5F5F5F5F5F5F5F5F5F5F5F5F5F5F5F5F5F5F5F5F5F5
310
F5F5F5F5F5F5F5F5F5F5F5F5F5F5F5E2F5F5F5E2F5F5F5E2E2E2F5F5F5E2F5F5F5E2F5F5F5F5F5F5F5F5F5F5F5F5F5F5F5F5F5F5F5F5F5F5F5F5F5F5F5F5F5F5F5F5F5F5F5F5F5F5F5F5F5F5F5F5F5F5F5F5F5F5F5F5F5F5F5F5F5F5F5F5F5F5F5F5F5F5F5F5F5F5F5F5F5F5F5F5F5F5F5F5F5F5F5F5F5F5F5F5F5F5F5F5F5
310
F5F5F5F5F5F5F5F5F5F5F5F5F5F5F5F5F5F5F5F5F5F5F5F5F5F5F5F5F5F5F5F5F5F5F5F5F5F5F5F5F5F5F5F5F5F5F5F5F5F5F5F5F5F5F5F5F5F5F5F5F5F5F5F5F5F5F5F5E2F5F5F5E2F5F5F5E2E2E2F5F5F5F5F5F5F5E2F5F5F5F5F5F5F5F5F5F5F5F5F5F5F5F5F5F5F5F5F5F5F5F5F5F5F5F5F5F5F5F5F5F5F5F5F5F5F5F5
310
F5F5F5F5F5F5F5F5F5F5F5F5F5F5F5F5F5F5F5F5F5F5F5F5F5F5F5F5F5F5F5F5F5F5F5F5F5F5F5F5F5F5F5F5F5F5F5F5F5F5F5F5F5F5F5F5F5F5F5F5F5F5F5F5F5F5F5F5F5F5F5F5F5F5F5F5F5F5F5F5F5F5F5F5F5F5F5F5F5F5F5F5F5F5F5F5F5F5F5F5F5F5F5F5F5F5F5F5F5F5F5F5F5F5F5F5F5F5F5F5F5E2F5F5F5F5F5
310
F5F5E2E2E2F5F5F5F5F5F5F5E2F5F5F5F5F5F5F5F5F5F5F5F5F5F5F5F5F5F5F5F5F5F5F5F5F5F5F5F5F5F5F5F5F5F5F5F5F5F5F5F5F5F5F5F5F5F5F5F5F5F5F5F5F5F5F5F5F5F5F5F5F5F5F5F5F5F5F5F5F5F5F5F5F5F5F5F5F5F5F5F5F5F5F5F5F5F5F5F5F5F5F5F5F5F5F5F5F5F5F5F5F5F5F5F5F5F5F5F5F5F5F5F5F5F5
310
F5F5F5F5F5F5F5F5F5F5F5F5F5F5F5F5F5F5F5F5F5F5F5F5F5F5F5F5F5F5F5F5F5F5F5F5F5F5F5F5F5F5F5F5F5F5F5E2F5F5F5F5F5F5F5E2E2E2F5F5F5F5F5F5F5E2F5F5F5F5F5F5F5F5F5F5F5F5F5F5F5F5F5F5F5F5F5F5F5F5F5F5F5F5F5F5F5F5F5F5F5F5F5F5F5F5F5F5F5F5F5F5F5F5F5F5F5F5F5F5F5F5F5F5F5F5F5
310
F5F5F5F5F5F5F5F5F5F5F5F5F5F5F5F5F5F5F5F5F5F5F5F5F5F5F5F5F5F5F5F5F5F5F5F5F5F5F5F5F5F5F5F5F5F5F5F5F5F5F5F5F5F5F5F5F5F5F5F5F5F5F5F5F5F5F5F5F5F5F5F5F5F5F5F5F5F5F5F5F5F5F5F5F5F5F5F5F5F5F5F5F5F5F5F5F5F5F5F5E2F5F5F5F5F5F5F5E2E2E2F5F5F5F5F5F5F5E2F5F5F5F5F5F5F5F5
310
F5F5F5F5F5F5F5F5F5F5F5F5F5F5F5F5F5F5F5F5F5F5F5F5F5F5F5F5F5F5F5F5F5F5F5F5F5F5F5F5F5F5F5F5F5F5F5F5F5F5F5F5F5F5F5F5F5F5F5F5F5F5F5F5F5F5F5F5F5F5F5F5F5F5F5F5F5F5F5F5F5F5F5F5F5F5F5F5F5F5F5F5F5F5F5F5F5F5F5F5F5F5F5F5F5F5F5F5F5F5F5F5F5F5F5F5F5F5F5F5F5F5F5F5F5F5F5
310
F5F5F5F5F5F5F5F5F5F5F5F5F5F5F5F5F5F5F5F5F5F5F5F5F5F5E2F5F5F5F5F5F5F5E2E2E2F5F5F5F5F5F5F5E2F5F5F5F5F5F5F5F5F5F5F5F5F5F5F5F5F5F5F5F5F5F5F5F5F5F5F5F5F5F5F5F5F5F5F5F5F5F5F5F5F5F5F5F5F5F5F5F5F5F5F5F5F5F5F5F5F5F5F5F5F5F5F5F5F5F5F5F5F5F5F5F5F5F5F5F5F5F5F5F5F5F5
310
F5F5F5F5F5F5F5F5F5F5F5F5F5F5F5F5F5F5F5F5F5F5F5F5F5F5F5F5F5F5F5F5F5F5F5F5F5F5F5F5F5F5F5F5F5F5F5F5F5F5F5F5F5F5F5F5F5F5F5F5F5F5F5F5F5F5F5F5F5F5F5F5F5F5F5F5F5F5F5E2F5F5F5F5F5F5F5E2E2E2F5F5F5F5F5F5F5E2F5F5F5F5F5F5F5F5F5F5F5F5F5F5F5F5F5F5F5F5F5F5F5F5F5F5F5F5F5
310
F5F5F5F5F5F5F5F5F5F5F5F5F5F5F5F5F5F5F5F5F5F5F5F5F5F5F5F5F5F5F5F5F5F5F5F5F5F5F5F5F5F5F5F5F5F5F5F5F5F5F5F5F5F5F5F5F5F5F5F5F5F5F5F5F5F5F5F5F5F5F5F5F5F5F5F5F5F5F5F5F5F5F5F5F5F5F5F5F5F5F5F5F5F5F5F5F5F5F5F5F5F5F5F5F5F5F5F5F5F5F5F5F5F5F5F5F5F5F5F5F5F5F5F5F5F5F5
310
F5F5F5F5F5E2F5F5F5F5F5F5F5E2E2E2F5F5F5F5F5F5F5E2F5F5F5F5F5F5F5F5F5F5F5F5F5F5F5F5F5F5F5F5F5F5F5F5F5F5F5F5F5F5F5F5F5F5F5F5F5F5F5F5F5F5F5F5F5F5F5F5F5F5F5F5F5F5F5F5F5F5F5F5F5F5F5F5F5F5F5F5F5F5F5F5F5F5F5F5F5F5F5F5F5F5F5F5F5F5F5F5F5F5F5F5F5F5F5F5F5F5F5F5F5F5F5
310
F5F5F5F5F5F5F5F5F5F5F5F5F5F5F5F5F5F5F5F5F5F5F5F5F5F5F5F5F5F5F5F5F5F5F5F5F5F5F5F5F5F5F5F5F5F5F5F5F5F5F5F5F5F5F5F5F5F5E2F5F5F5F5F5F5F5E2E2E2F5F5F5F5F5F5F5E2F5F5F5F5F5F5F5F5F5F5F5F5F5F5F5F5F5F5F5F5F5F5F5F5F5F5F5F5F5F5F5F5F5F5F5F5F5F5F5F5F5F5F5F5F5F5F5F5F5F5
310
F5F5F5F5F5F5F5F5F5F5F5F5F5F5F5F5F5F5F5F5F5F5F5F5F5F5F5F5F5F5F5F5F5F5F5F5F5F5F5F5F5F5F5F5F5F5F5F5F5F5F5F5F5F5F5F5F5F5F5F5F5F5F5F5F5F5F5F5F5F5F5F5F5F5F5F5F5F5F5F5F5F5F5F5F5F5F5F5F5F5F5F5F5F5F5F5F5F5F5F5F5F5F5F5F5F5F5F5F5F5F5E2F5F5F5F5F5F5F5E2E2E2F5F5F5F5F5
310
F5F5E2F5F5F5F5F5F5F5F5F5F5F5F5F5F5F5F5F5F5F5F5F5F5F5F5F5F5F5F5F5F5F5F5F5F5F5F5F5F5F5F5F5F5F5F5F5F5F5F5F5F5F5F5F5F5F5F5F5F5F5F5F5F5F5F5F5F5F5F5F5F5F5F5F5F5F5F5F5F5F5F5F5F5F5F5F5F5F5F5F5F5F5F5F5F5F5F5F5F5F5F5F5F5F5F5F5F5F5F5F5F5F5F5F5F5F5F5F5F5F5F5F5F5F5F5
310
F5F5F5F5F5F5F5F5F5F5F5F5F5F5F5F5F5F5F5F5F5F5F5F5F5F5F5F5F5F5F5F5F5F5F5F5F5E2F5F5F5F5F5F5F5E2E2E2F5F5F5E2F5F5F5E2F5F5F5F5F5F5F5F5F5F5F5F5F5F5F5F5F5F5F5F5F5F5F5F5F5F5F5F5F5F5F5F5F5F5F5F5F5F5F5F5F5F5F5F5F5F5F5F5F5F5F5F5F5F5F5F5F5F5F5F5F5F5F5F5F5F5F5F5F5F5F5
310
F5F5F5F5F5F5F5F5F5F5F5F5F5F5F5F5F5F5F5F5F5F5F5F5F5F5F5F5F5F5F5F5F5F5F5F5F5F5F5F5F5F5F5F5F5F5F5F5F5F5F5F5F5F5F5F5F5F5F5F5F5F5F5F5F5F5F5F5F5F5F5F5F5F5F5F5F5F5F5F5F5F5F5F5F5F5F5F5F5F5E2F5F5F5E2F5F5F5E2E2E2F5F5F5E2F5F5F5E2F5F5F5F5F5F5F5F5F5F5F5F5F5F5F5F5F5F5
310
F5F5F5F5F5F5F5F5F5F5F5F5F5F5F5F5F5F5F5F5F5F5F5F5F5F5F5F5F5F5F5F5F5F5F5F5F5F5F5F5F5F5F5F5F5F5F5F5F5F5F5F5F5F5F5F5F5F5F5F5F5F5F5F5F5F5F5F5F5F5F5F5F5F5F5F5F5F5F5F5F5F5F5F5F5F5F5F5F5F5F5F5F5F5F5F5F5F5F5F5F5F5F5F5F5F5F5F5F5F5F5F5F5F5F5F5F5F5F5F5F5F5F5F5F5F5F5
310
F5F5F5F5F5F5F5F5F5F5F5F5F5F5F5F5E2F5F5F5E2F5F5F5E2E2E2F5F5F5E2F5F5F5E2F5F5F5F5F5F5F5F5F5F5F5F5F5F5F5F5F5F5F5F5F5F5F5F5F5F5F5F5F5F5F5F5F5F5F5F5F5F5F5F5F5F5F5F5F5F5F5F5F5F5F5F5F5F5F5F5F5F5F5F5F5F5F5F5F5F5F5F5F5F5F5F5F5F5F5F5F5F5F5F5F5F5F5F5F5F5F5F5F5F5F5F5
310
F5F5F5F5F5F5F5F5F5F5F5F5F5F5F5F5F5F5F5F5F5F5F5F5F5F5F5F5F5F5F5F5F5F5F5F5F5F5F5F5F5F5F5F5F5F5F5F5F5F5F5F5F5F5F5F5F5F5F5F5F5F5F5F5F5F5F5F5F5E2F5F5F5E2F5F5F5E2E2E2F5F5F5E2F5F5F5E2F5F5F5F5F5F5F5F5F5F5F5F5F5F5F5F5F5F5F5F5F5F5F5F5F5F5F5F5F5F5F5F5F5F5F5F5F5F5F5
310
F5F5F5F5F5F5F5F5F5F5F5F5F5F5F5F5F5F5F5F5F5F5F5F5F5F5F5F5F5F5F5F5F5F5F5F5F5F5F5F5F5F5F5F5F5F5F5F5F5F5F5F5F5F5F5F5F5F5F5F5F5F5F5F5F5F5F5F5F5F5F5F5F5F5F5F5F5F5F5F5F5F5F5F5F5F5F5F5F5F5F5F5F5F5F5F5F5F5F5F5F5F5F5F5F5F5F5F5F5F5F5F5F5F5F5F5F5F5F5F5F5F5E2F5F5F5E2
310
F5F5F5E2E2E2F5F5F5E2F5F5F5E2F5F5F5F5F5F5F5F5F5F5F5F5F5F5F5F5F5F5F5F5F5F5F5F5F5F5F5F5F5F5F5F5F5F5F5F5F5F5F5F5F5F5F5F5F5F5F5F5F5F5F5F5F5F5F5F5F5F5F5F5F5F5F5F5F5F5F5F5F5F5F5F5F5F5F5F5F5F5F5F5F5F5F5F5F5F5F5F5F5F5F5F5F5F5F5F5F5F5F5F5F5F5F5F5F5F5F5F5F5F5F5F5F5
310
F5F5F5F5F5F5F5F5F5F5F5F5F5F5F5F5F5F5F5F5F5F5F5F5F5F5F5F5F5F5F5F5F5F5F5F5F5F5F5F5F5F5F5F5F5F5F5F5E2F5F5F5E2F5F5F5E2E2E2F5F5F5E2F5F5F5E2F5F5F5F5F5F5F5F5F5F5F5F5F5F5F5F5F5F5F5F5F5F5F5F5F5F5F5F5F5F5F5F5F5F5F5F5F5F5F5F5F5F5F5F5F5F5F5F5F5F5F5F5F5F5F5F5F5F5F5F5
310
F5F5F5F5F5F5F5F5F5F5F5F5F5F5F5F5F5F5F5F5F5F5F5F5F5F5F5F5F5F5F5F5F5F5F5F5F5F5F5F5F5F5F5F5F5F5F5F5F5F5F5F5F5F5F5F5F5F5F5F5F5F5F5F5F5F5F5F5F5F5F5F5F5F5F5F5F5F5F5F5F5F5F5F5F5F5F5F5F5F5F5F5F5F5F5F5F5F5F5F5F5E2F5F5F5E2F5F5F5E2E2E2F5F5F5E2F5F5F5E2E2E2E2E2E2E2E2
310
E2E2E2E2E2E2E2E2E2E2E2E2E2E2E2E2E2E2E2E2E2E2E2E2E2E2E2E2E2E2E2E2E2E2E2E2E2E2E2E2E2E2E2E2E2E2E2E2E2E2E2E2E2E2E2E2E2E2E2E2E2E2E2E2E2E2E2E2E2E2E2E2E2E2E2E2E2E2E2E2E2E2E2E2E2E2E2E2E2E2E2E2E2E2E2E2E2E2E2E2E2E2E2E2E2E2E2E2E2E2E2E2E2E2E2E2E2E2E2E2E2E2E2E2E2E2E2
310
E2E2E2E2E2E2E2E2E2E2E2E2E2E2E2E2E2E2E2E2E2E2E2E2E2E2E2E2F5F5F5E2F5F5F5E2E2E2F5F5F5E2E2E2E2E2E2E2E2F5F5F5F5F5F5F5F5F5E2E2E2E2E2E2E2E2E2E2E2E2E2E2E2E2F5F5F5F5F5F5F5F5E2E2E2E2E2E2E2E2E2E2E2E2E2E2E2E2F5F5F5F5F5F5F5F5F5E2E2E2E2E2E2E2E2E2E2E2E2E2E2E2F5F5F5F5F5
310
F5F5F5F5E2E2E2E2E2E2E2E2E2E2E2E2E2E2E2F5F5F5F5F5F5F5F5F5E2E2E2E2E2E2E2E2E2E2E2E2E2E2E2E2F5F5F5F5F5F5F5F5E2E2E2E2E2E2E2E2E2E2E2E2E2E2E2E2F5F5F5F5F5F5F5F5F5E2E2E2E2E2E2E2E2F5F5F5E2E2E2F5F5F5F5F5F5F5F5F5F5F5F5F5F5F5F5F5F5F5F5F5F5F5F5F5F5F5F5F5F5F5F5F5F5F5F5
310
F5F5F5F5F5F5F5F5F5F5F5F5F5F5F5F5F5F5F5F5F5F5F5F5F5F5F5F5F5F5F5F5F5F5F5F5F5F5F5F5F5F5F5F5F5F5F5F5F5F5F5F5F5F5F5F5F5F5F5F5F5F5F5F5F5F5F5F5F5F5F5F5F5F5F5F5F5F5F5F5F5F5F5F5F5F5F5F5F5F5F5F5F5F5F5F5F5F5F5F5F5F5F5F5F5F5F5F5F5F5F5F5F5F5F5F5F5F5F5F5F5F5F5F5F5F5F5
310
F5F5F5F5F5F5F5F5F5F5F5F5F5F5E2E2E2F5F5F5F5F5F5F5F5F5F5F5F5F5F5F5F5F5F5F5F5F5F5F5F5F5F5F5F5F5F5F5F5F5F5F5F5F5F5F5F5F5F5F5F5F5F5F5F5F5F5F5F5F5F5F5F5F5F5F5F5F5F5F5F5F5F5F5F5F5F5F5F5F5F5F5F5F5F5F5F5F5F5F5F5F5F5F5F5F5F5F5F5F5F5F5F5F5F5F5F5F5F5F5F5F5F5F5F5F5F5
310
F5F5F5F5F5F5F5F5F5F5F5F5F5F5F5F5F5F5F5F5F5F5F5F5F5F5F5F5F5F5F5F5F5F5F5F5F5F5F5F5F5F5F5F5F5F5F5F5F5F5F5F5F5F5F5F5F5F5F5F5F5F5F5F5F5F5F5E2E2E2F5F5F5F5F5F5F5F5F5F5F5F5F5F5F5F5F5F5F5F5F5F5F5F5F5F5F5F5F5F5F5F5F5F5F5F5F5F5F5F5F5F5F5F5F5F5F5F5F5F5F5F5F5F5F5F5F5
310
F5F5F5F5F5F5F5F5F5F5F5F5F5F5F5F5F5F5F5F5F5F5F5F5F5F5F5F5F5F5F5F5F5F5F5F5F5F5F5F5F5F5F5F5F5F5F5F5F5F5F5F5F5F5F5F5F5F5F5F5F5F5F5F5F5F5F5F5F5F5F5F5F5F5F5F5F5F5F5F5F5F5F5F5F5F5F5F5F5F5F5F5F5F5F5F5F5F5F5F5F5F5F5F5F5F5F5F5F5F5F5F5F5F5F5F5F5F5F5F5E2EFE2E2E2E2E2
310
E2E2E2E2E2E2E2E2E2E2E2E2E2E2E2E2E2E2E2E2E2E2E2E2E2E2E2E2E2E2E2E2E2E2E2E2E2E2E2E2E2E2E2E2E2E2E2E2E2E2E2E2E2E2E2E2E2E2E2E2E2E2E2E2E2E2E2E2E2E2E2E2E2E2E2E2E2E2E2E2E2E2E2E2E2E2E2E2E2E2E2E2E2E2E2E2E2E2E2E2E2E2E2E2E2E2E2E2E2E2E2E2E2E2E2E2E2E2E2E2E2E2E2E2E2E2E2
310
E2E2E2E2E2E2E2E2E2E2E2E2E2E2E2E2E2E2E2E2E2E2E2E2E2E2E2E2E2E2E2E2E2E2E2E2E2E2E2E2E2E2E2E2E2E2E2EF
  0
XRECORD
  5
6852
102
{ACAD_REACTORS
330
6851
102
}
330
6851
100
AcDbXrecord
280
     1
102
SHADEPLOT
 70
     0
102
SHADEPLOTRESLEVEL
 70
     2
102
SHADEPLOTCUSTOMDPI
 70
   300
  0
XRECORD
  5
67FF
102
{ACAD_REACTORS
330
67FE
102
}
330
67FE
100
AcDbXrecord
280
     1
102
MATERIAL
148
0.0
149
0.0
149
0.0
 93
        0
 94
       63
282
     0
 72
     1
 77
     1
171
     1
175
     1
179
     1
273
     0
  0
XRECORD
  5
67FD
102
{ACAD_REACTORS
330
67FC
102
}
330
67FC
100
AcDbXrecord
280
     1
102
MATERIAL
148
0.0
149
0.0
149
0.0
 93
        0
 94
       63
282
     0
 72
     1
 77
     1
171
     1
175
     1
179
     1
273
     0
  0
XRECORD
  5
6801
102
{ACAD_REACTORS
330
6800
102
}
330
6800
100
AcDbXrecord
280
     1
102
MATERIAL
148
0.0
149
0.0
149
0.0
 93
        0
 94
       63
282
     0
 72
     1
 77
     1
171
     1
175
     1
179
     1
273
     0
  0
XRECORD
  5
6856
102
{ACAD_REACTORS
330
6855
102
}
330
6855
100
AcDbXrecord
280
     1
102
SHADEPLOT
 70
     0
102
SHADEPLOTRESLEVEL
 70
     2
102
SHADEPLOTCUSTOMDPI
 70
   300
  0
XRECORD
  5
6858
102
{ACAD_REACTORS
330
6857
102
}
330
6857
100
AcDbXrecord
280
     1
102
ACAD_ROUNDTRIP_PRE2007_TABLESTYLE
 90
      512
 91
        0
  1

 92
      512
 93
        0
  2

 94
      512
 95
        0
  3

  0
ENDSEC
  0
EOF
