  0
SECTION
  2
HEADER
  9
$ACADVER
  1
AC1015
  9
$ACADMAINTVER
 70
    20
  9
$DWGCODEPAGE
  3
ANSI_932
  9
$INSBASE
 10
0.0
 20
0.0
 30
0.0
  9
$EXTMIN
 10
335.8596887424129
 20
1710.091154537257
 30
0.0
  9
$EXTMAX
 10
465.4112915975608
 20
1932.689538349886
 30
0.0
  9
$LIMMIN
 10
0.0
 20
0.0
  9
$LIMMAX
 10
420.0
 20
297.0
  9
$ORTHOMODE
 70
     0
  9
$REGENMODE
 70
     1
  9
$FILLMODE
 70
     1
  9
$QTEXTMODE
 70
     0
  9
$MIRRTEXT
 70
     0
  9
$LTSCALE
 40
1.0
  9
$ATTMODE
 70
     1
  9
$TEXTSIZE
 40
2.5
  9
$TRACEWID
 40
1.0
  9
$TEXTSTYLE
  7
Standard
  9
$CLAYER
  8
作図線
  9
$CELTYPE
  6
ByLayer
  9
$CECOLOR
 62
   256
  9
$CELTSCALE
 40
1.0
  9
$DISPSILH
 70
     0
  9
$DIMSCALE
 40
1.0
  9
$DIMASZ
 40
2.5
  9
$DIMEXO
 40
1.0
  9
$DIMDLI
 40
7.0
  9
$DIMRND
 40
0.0
  9
$DIMDLE
 40
0.0
  9
$DIMEXE
 40
1.0
  9
$DIMTP
 40
0.0
  9
$DIMTM
 40
0.0
  9
$DIMTXT
 40
3.0
  9
$DIMCEN
 40
0.0
  9
$DIMTSZ
 40
0.0
  9
$DIMTOL
 70
     0
  9
$DIMLIM
 70
     0
  9
$DIMTIH
 70
     0
  9
$DIMTOH
 70
     0
  9
$DIMSE1
 70
     0
  9
$DIMSE2
 70
     0
  9
$DIMTAD
 70
     1
  9
$DIMZIN
 70
     8
  9
$DIMBLK
  1
Open30
  9
$DIMASO
 70
     1
  9
$DIMSHO
 70
     1
  9
$DIMPOST
  1

  9
$DIMAPOST
  1

  9
$DIMALT
 70
     0
  9
$DIMALTD
 70
     2
  9
$DIMALTF
 40
0.0394
  9
$DIMLFAC
 40
1.0
  9
$DIMTOFL
 70
     1
  9
$DIMTVP
 40
0.0
  9
$DIMTIX
 70
     0
  9
$DIMSOXD
 70
     0
  9
$DIMSAH
 70
     0
  9
$DIMBLK1
  1

  9
$DIMBLK2
  1

  9
$DIMSTYLE
  2
JIS２／１
  9
$DIMCLRD
 70
     0
  9
$DIMCLRE
 70
     0
  9
$DIMCLRT
 70
     0
  9
$DIMTFAC
 40
1.0
  9
$DIMGAP
 40
0.5
  9
$DIMJUST
 70
     0
  9
$DIMSD1
 70
     0
  9
$DIMSD2
 70
     0
  9
$DIMTOLJ
 70
     1
  9
$DIMTZIN
 70
     0
  9
$DIMALTZ
 70
     0
  9
$DIMALTTZ
 70
     0
  9
$DIMUPT
 70
     0
  9
$DIMDEC
 70
     2
  9
$DIMTDEC
 70
     2
  9
$DIMALTU
 70
     2
  9
$DIMALTTD
 70
     2
  9
$DIMTXSTY
  7
Standard
  9
$DIMAUNIT
 70
     0
  9
$DIMADEC
 70
     0
  9
$DIMALTRND
 40
0.0
  9
$DIMAZIN
 70
     0
  9
$DIMDSEP
 70
    46
  9
$DIMATFIT
 70
     3
  9
$DIMFRAC
 70
     0
  9
$DIMLDRBLK
  1
Open30
  9
$DIMLUNIT
 70
     2
  9
$DIMLWD
 70
    -2
  9
$DIMLWE
 70
    -2
  9
$DIMTMOVE
 70
     0
  9
$LUNITS
 70
     2
  9
$LUPREC
 70
     4
  9
$SKETCHINC
 40
1.0
  9
$FILLETRAD
 40
5.0
  9
$AUNITS
 70
     0
  9
$AUPREC
 70
     0
  9
$MENU
  1
.
  9
$ELEVATION
 40
0.0
  9
$PELEVATION
 40
0.0
  9
$THICKNESS
 40
0.0
  9
$LIMCHECK
 70
     0
  9
$CHAMFERA
 40
0.0
  9
$CHAMFERB
 40
0.0
  9
$CHAMFERC
 40
0.0
  9
$CHAMFERD
 40
0.0
  9
$SKPOLY
 70
     0
  9
$TDCREATE
 40
2454379.577641921
  9
$TDUCREATE
 40
2454379.202641921
  9
$TDUPDATE
 40
2454936.678247940
  9
$TDUUPDATE
 40
2454936.303247940
  9
$TDINDWG
 40
1.7337373958
  9
$TDUSRTIMER
 40
1.7337366667
  9
$USRTIMER
 70
     1
  9
$ANGBASE
 50
0.0
  9
$ANGDIR
 70
     0
  9
$PDMODE
 70
     0
  9
$PDSIZE
 40
0.0
  9
$PLINEWID
 40
0.0
  9
$SPLFRAME
 70
     0
  9
$SPLINETYPE
 70
     6
  9
$SPLINESEGS
 70
     8
  9
$HANDSEED
  5
140E5
  9
$SURFTAB1
 70
     6
  9
$SURFTAB2
 70
     6
  9
$SURFTYPE
 70
     6
  9
$SURFU
 70
     6
  9
$SURFV
 70
     6
  9
$UCSBASE
  2

  9
$UCSNAME
  2

  9
$UCSORG
 10
0.0
 20
0.0
 30
0.0
  9
$UCSXDIR
 10
1.0
 20
0.0
 30
0.0
  9
$UCSYDIR
 10
0.0
 20
1.0
 30
0.0
  9
$UCSORTHOREF
  2

  9
$UCSORTHOVIEW
 70
     0
  9
$UCSORGTOP
 10
0.0
 20
0.0
 30
0.0
  9
$UCSORGBOTTOM
 10
0.0
 20
0.0
 30
0.0
  9
$UCSORGLEFT
 10
0.0
 20
0.0
 30
0.0
  9
$UCSORGRIGHT
 10
0.0
 20
0.0
 30
0.0
  9
$UCSORGFRONT
 10
0.0
 20
0.0
 30
0.0
  9
$UCSORGBACK
 10
0.0
 20
0.0
 30
0.0
  9
$PUCSBASE
  2

  9
$PUCSNAME
  2

  9
$PUCSORG
 10
0.0
 20
0.0
 30
0.0
  9
$PUCSXDIR
 10
1.0
 20
0.0
 30
0.0
  9
$PUCSYDIR
 10
0.0
 20
1.0
 30
0.0
  9
$PUCSORTHOREF
  2

  9
$PUCSORTHOVIEW
 70
     0
  9
$PUCSORGTOP
 10
0.0
 20
0.0
 30
0.0
  9
$PUCSORGBOTTOM
 10
0.0
 20
0.0
 30
0.0
  9
$PUCSORGLEFT
 10
0.0
 20
0.0
 30
0.0
  9
$PUCSORGRIGHT
 10
0.0
 20
0.0
 30
0.0
  9
$PUCSORGFRONT
 10
0.0
 20
0.0
 30
0.0
  9
$PUCSORGBACK
 10
0.0
 20
0.0
 30
0.0
  9
$USERI1
 70
     0
  9
$USERI2
 70
     0
  9
$USERI3
 70
     0
  9
$USERI4
 70
     0
  9
$USERI5
 70
     0
  9
$USERR1
 40
0.0
  9
$USERR2
 40
0.0
  9
$USERR3
 40
0.0
  9
$USERR4
 40
0.0
  9
$USERR5
 40
0.0
  9
$WORLDVIEW
 70
     1
  9
$SHADEDGE
 70
     3
  9
$SHADEDIF
 70
    70
  9
$TILEMODE
 70
     0
  9
$MAXACTVP
 70
    64
  9
$PINSBASE
 10
0.0
 20
0.0
 30
0.0
  9
$PLIMCHECK
 70
     0
  9
$PEXTMIN
 10
0.0
 20
0.0
 30
0.0
  9
$PEXTMAX
 10
297.0
 20
210.0
 30
0.0
  9
$PLIMMIN
 10
0.037002778146416
 20
0.0133361937478469
  9
$PLIMMAX
 10
296.9629976511933
 20
209.9866638304666
  9
$UNITMODE
 70
     0
  9
$VISRETAIN
 70
     1
  9
$PLINEGEN
 70
     0
  9
$PSLTSCALE
 70
     1
  9
$TREEDEPTH
 70
  3020
  9
$CMLSTYLE
  2
Standard
  9
$CMLJUST
 70
     0
  9
$CMLSCALE
 40
20.0
  9
$PROXYGRAPHICS
 70
     1
  9
$MEASUREMENT
 70
     1
  9
$CELWEIGHT
370
    -1
  9
$ENDCAPS
280
     0
  9
$JOINSTYLE
280
     0
  9
$LWDISPLAY
290
     0
  9
$INSUNITS
 70
     4
  9
$HYPERLINKBASE
  1

  9
$STYLESHEET
  1

  9
$XEDIT
290
     1
  9
$CEPSNTYPE
380
     0
  9
$PSTYLEMODE
290
     1
  9
$FINGERPRINTGUID
  2
{733C549A-BCB8-4AFB-9693-44D802A4876F}
  9
$VERSIONGUID
  2
{87F4E03A-705A-4835-A511-085F5C676408}
  9
$EXTNAMES
290
     1
  9
$PSVPSCALE
 40
0.0
  9
$OLESTARTUP
290
     0
  0
ENDSEC
  0
SECTION
  2
CLASSES
  0
CLASS
  1
ACDBDICTIONARYWDFLT
  2
AcDbDictionaryWithDefault
  3
ObjectDBX Classes
 90
        0
280
     0
281
     0
  0
CLASS
  1
PLOTSETTINGS
  2
AcDbPlotSettings
  3
ObjectDBX Classes
 90
        0
280
     0
281
     0
  0
CLASS
  1
DICTIONARYVAR
  2
AcDbDictionaryVar
  3
ObjectDBX Classes
 90
        0
280
     0
281
     0
  0
CLASS
  1
TABLESTYLE
  2
AcDbTableStyle
  3
ObjectDBX Classes
 90
     4095
280
     0
281
     0
  0
CLASS
  1
MATERIAL
  2
AcDbMaterial
  3
ObjectDBX Classes
 90
     1024
280
     0
281
     0
  0
CLASS
  1
VISUALSTYLE
  2
AcDbVisualStyle
  3
ObjectDBX Classes
 90
     4095
280
     0
281
     0
  0
CLASS
  1
ACAD_EVALUATION_GRAPH
  2
AcDbEvalGraph
  3
ObjectDBX Classes
 90
    33921
280
     0
281
     0
  0
CLASS
  1
ACAECUSTOBJ
  2
AcAeEditorObj
  3
AcAeEditorObj
 90
    33792
280
     0
281
     0
  0
CLASS
  1
ACDB_DYNAMICBLOCKPURGEPREVENTER_VERSION
  2
AcDbDynamicBlockPurgePreventer
  3
ObjectDBX Classes
 90
    33921
280
     0
281
     0
  0
CLASS
  1
SORTENTSTABLE
  2
AcDbSortentsTable
  3
ObjectDBX Classes
 90
        0
280
     0
281
     0
  0
CLASS
  1
DIMASSOC
  2
AcDbDimAssoc
  3
"AcDbDimAssoc|Product Desc:     AcDim ARX App For Dimension|Company:          Autodesk, Inc.|WEB Address:      www.autodesk.com"
 90
        0
280
     0
281
     0
  0
CLASS
  1
SCALE
  2
AcDbScale
  3
ObjectDBX Classes
 90
     1153
280
     0
281
     0
  0
CLASS
  1
MLEADERSTYLE
  2
AcDbMLeaderStyle
  3
ACDB_MLEADERSTYLE_CLASS
 90
     4095
280
     0
281
     0
  0
CLASS
  1
CELLSTYLEMAP
  2
AcDbCellStyleMap
  3
ObjectDBX Classes
 90
     1152
280
     0
281
     0
  0
CLASS
  1
MULTILEADER
  2
AcDbMLeader
  3
ACDB_MLEADER_CLASS
 90
    33793
280
     0
281
     1
  0
CLASS
  1
ACDBPLACEHOLDER
  2
AcDbPlaceHolder
  3
ObjectDBX Classes
 90
        0
280
     0
281
     0
  0
CLASS
  1
LAYOUT
  2
AcDbLayout
  3
ObjectDBX Classes
 90
        0
280
     0
281
     0
  0
ENDSEC
  0
SECTION
  2
TABLES
  0
TABLE
  2
VPORT
  5
8
330
0
100
AcDbSymbolTable
 70
     2
  0
VPORT
  5
1B5
330
8
100
AcDbSymbolTableRecord
100
AcDbViewportTableRecord
  2
*Active
 70
     0
 10
0.0
 20
0.0
 11
1.0
 21
1.0
 12
237.6435150437846
 22
1771.36870949225
 13
0.0
 23
0.0
 14
10.0
 24
10.0
 15
10.0
 25
10.0
 16
0.0
 26
0.0
 36
1.0
 17
0.0
 27
0.0
 37
0.0
 40
1035.515596838022
 41
1.554054054054053
 42
50.0
 43
0.0
 44
0.0
 50
0.0
 51
0.0
 71
     0
 72
  1000
 73
     1
 74
     3
 75
     0
 76
     0
 77
     0
 78
     0
281
     0
 65
     1
110
0.0
120
0.0
130
0.0
111
1.0
121
0.0
131
0.0
112
0.0
122
1.0
132
0.0
 79
     0
146
0.0
  0
VPORT
  5
45A
330
8
100
AcDbSymbolTableRecord
100
AcDbViewportTableRecord
  2
本図
 70
     0
 10
0.0
 20
0.0
 11
1.0
 21
1.0
 12
322.2643325138894
 22
893.4870383816823
 13
0.0
 23
0.0
 14
10.0
 24
10.0
 15
10.0
 25
10.0
 16
0.0
 26
0.0
 36
1.0
 17
0.0
 27
0.0
 37
0.0
 40
349.6006736910367
 41
1.105194805194805
 42
50.0
 43
0.0
 44
0.0
 50
0.0
 51
0.0
 71
     0
 72
  1000
 73
     1
 74
     3
 75
     0
 76
     1
 77
     0
 78
     0
281
     0
 65
     1
110
0.0
120
0.0
130
0.0
111
1.0
121
0.0
131
0.0
112
0.0
122
1.0
132
0.0
 79
     0
146
0.0
  0
ENDTAB
  0
TABLE
  2
LTYPE
  5
5
330
0
100
AcDbSymbolTable
 70
     9
  0
LTYPE
  5
14
330
5
100
AcDbSymbolTableRecord
100
AcDbLinetypeTableRecord
  2
ByBlock
 70
     0
  3

 72
    65
 73
     0
 40
0.0
  0
LTYPE
  5
15
330
5
100
AcDbSymbolTableRecord
100
AcDbLinetypeTableRecord
  2
ByLayer
 70
     0
  3

 72
    65
 73
     0
 40
0.0
  0
LTYPE
  5
16
330
5
100
AcDbSymbolTableRecord
100
AcDbLinetypeTableRecord
  2
Continuous
 70
     0
  3
Solid line
 72
    65
 73
     0
 40
0.0
  0
LTYPE
  5
291
330
5
100
AcDbSymbolTableRecord
100
AcDbLinetypeTableRecord
  2
HIDDEN2
 70
     0
  3
Hidden (.5x) _ _ _ _ _ _ _ _ _ _ _ _ _ _ _ _ _
 72
    65
 73
     2
 40
4.762499999999998
 49
3.174999999999998
 74
     0
 49
-1.587499999999999
 74
     0
  0
LTYPE
  5
4C3
330
5
100
AcDbSymbolTableRecord
100
AcDbLinetypeTableRecord
  2
CENTER2
 70
     0
  3
Center (.5x) ___ _ ___ _ ___ _ ___ _ ___ _ ___
 72
    65
 73
     4
 40
28.575
 49
19.05
 74
     0
 49
-3.174999999999998
 74
     0
 49
3.174999999999998
 74
     0
 49
-3.174999999999998
 74
     0
  0
LTYPE
  5
4C4
330
5
100
AcDbSymbolTableRecord
100
AcDbLinetypeTableRecord
  2
PHANTOM2
 70
     0
  3
Phantom (.5x) ___ _ _ ___ _ _ ___ _ _ ___ _ _
 72
    65
 73
     6
 40
31.75
 49
15.875
 74
     0
 49
-3.174999999999998
 74
     0
 49
3.174999999999998
 74
     0
 49
-3.174999999999998
 74
     0
 49
3.174999999999998
 74
     0
 49
-3.174999999999998
 74
     0
  0
LTYPE
  5
C40
330
5
100
AcDbSymbolTableRecord
100
AcDbLinetypeTableRecord
  2
CENTER
 70
     0
  3
Center ____ _ ____ _ ____ _ ____ _ ____ _ ____
 72
    65
 73
     4
 40
2.0
 49
1.25
 74
     0
 49
-0.25
 74
     0
 49
0.25
 74
     0
 49
-0.25
 74
     0
  0
LTYPE
  5
C41
330
5
100
AcDbSymbolTableRecord
100
AcDbLinetypeTableRecord
  2
PHANTOM
 70
     0
  3
_____ _ _ _____ _ _ _____ _ _ _____
 72
    65
 73
     6
 40
0.8
 49
0.45
 74
     0
 49
-0.05
 74
     0
 49
0.1
 74
     0
 49
-0.05
 74
     0
 49
0.1
 74
     0
 49
-0.05
 74
     0
  0
LTYPE
  5
1B17
330
5
100
AcDbSymbolTableRecord
100
AcDbLinetypeTableRecord
  2
DASHDOT
 70
     0
  3
CADPAC FUSION LINETYPE
 72
    65
 73
     4
 40
47.56
 49
23.78
 74
     0
 49
-11.89
 74
     0
 49
0.0
 74
     0
 49
-11.89
 74
     0
  0
LTYPE
  5
9D38
330
5
100
AcDbSymbolTableRecord
100
AcDbLinetypeTableRecord
  2
DASHED
 70
     0
  3
CADPAC FUSION LINETYPE
 72
    65
 73
     2
 40
35.67
 49
23.78
 74
     0
 49
-11.89
 74
     0
  0
LTYPE
  5
12BE7
330
5
100
AcDbSymbolTableRecord
100
AcDbLinetypeTableRecord
  2
HIDDEN
 70
     0
  3
Hidden __ __ __ __ __ __ __ __ __ __ __ __ __ _
 72
    65
 73
     2
 40
9.524999999999996
 49
6.349999999999998
 74
     0
 49
-3.174999999999998
 74
     0
  0
ENDTAB
  0
TABLE
  2
LAYER
  5
2
102
{ACAD_XDICTIONARY
360
18A
102
}
330
0
100
AcDbSymbolTable
 70
    28
  0
LAYER
  5
10
102
{ACAD_XDICTIONARY
360
1AE3
102
}
330
2
100
AcDbSymbolTableRecord
100
AcDbLayerTableRecord
  2
0
 70
     0
 62
     7
  6
Continuous
370
    -3
390
F
  0
LAYER
  5
E4
102
{ACAD_XDICTIONARY
360
1AE5
102
}
330
2
100
AcDbSymbolTableRecord
100
AcDbLayerTableRecord
  2
Object
 70
     0
 62
     7
  6
Continuous
370
    -3
390
F
  0
LAYER
  5
12C
102
{ACAD_XDICTIONARY
360
1AE7
102
}
330
2
100
AcDbSymbolTableRecord
100
AcDbLayerTableRecord
  2
Title Block
 70
     0
 62
     7
  6
Continuous
370
    -3
390
F
  0
LAYER
  5
12D
102
{ACAD_XDICTIONARY
360
1AE9
102
}
330
2
100
AcDbSymbolTableRecord
100
AcDbLayerTableRecord
  2
Viewport
 70
     0
 62
     7
  6
Continuous
370
    -3
390
F
  0
LAYER
  5
345
102
{ACAD_XDICTIONARY
360
1AEB
102
}
330
2
100
AcDbSymbolTableRecord
100
AcDbLayerTableRecord
  2
作図線
 70
     0
 62
     6
  6
Continuous
290
     0
370
    18
390
F
  0
LAYER
  5
3DA
102
{ACAD_XDICTIONARY
360
1AED
102
}
330
2
100
AcDbSymbolTableRecord
100
AcDbLayerTableRecord
  2
Dims
 70
     0
 62
     6
  6
Continuous
370
    -3
390
F
  0
LAYER
  5
3DB
330
2
100
AcDbSymbolTableRecord
100
AcDbLayerTableRecord
  2
Defpoints
 70
     0
 62
     7
  6
Continuous
290
     0
370
    -3
390
F
  0
LAYER
  5
3DC
102
{ACAD_XDICTIONARY
360
1AEF
102
}
330
2
100
AcDbSymbolTableRecord
100
AcDbLayerTableRecord
  2
テキスト
 70
     0
 62
     4
  6
Continuous
370
    -3
390
F
1001
AcAecLayerStandard
1000

1000

  0
LAYER
  5
4C5
102
{ACAD_XDICTIONARY
360
1AF1
102
}
330
2
100
AcDbSymbolTableRecord
100
AcDbLayerTableRecord
  2
寸法線
 70
     0
 62
     3
  6
Continuous
370
    18
390
F
  0
LAYER
  5
4C6
102
{ACAD_XDICTIONARY
360
1AF3
102
}
330
2
100
AcDbSymbolTableRecord
100
AcDbLayerTableRecord
  2
隠れ線
 70
     0
 62
     5
  6
HIDDEN2
370
    18
390
F
  0
LAYER
  5
4C7
102
{ACAD_XDICTIONARY
360
1AF5
102
}
330
2
100
AcDbSymbolTableRecord
100
AcDbLayerTableRecord
  2
中心線
 70
     0
 62
     1
  6
CENTER2
370
    18
390
F
  0
LAYER
  5
4C8
102
{ACAD_XDICTIONARY
360
1AF7
102
}
330
2
100
AcDbSymbolTableRecord
100
AcDbLayerTableRecord
  2
太線0.5
 70
     0
 62
     8
  6
Continuous
370
    50
390
F
  0
LAYER
  5
4C9
102
{ACAD_XDICTIONARY
360
1AF9
102
}
330
2
100
AcDbSymbolTableRecord
100
AcDbLayerTableRecord
  2
想像線
 70
     0
 62
     5
  6
PHANTOM2
370
    18
390
F
  0
LAYER
  5
4CA
102
{ACAD_XDICTIONARY
360
1AFB
102
}
330
2
100
AcDbSymbolTableRecord
100
AcDbLayerTableRecord
  2
一時線
 70
     0
 62
     2
  6
Continuous
290
     0
370
    18
390
F
1001
AcAecLayerStandard
1000

1000

  0
LAYER
  5
4CB
102
{ACAD_XDICTIONARY
360
1AFD
102
}
330
2
100
AcDbSymbolTableRecord
100
AcDbLayerTableRecord
  2
切断線
 70
     0
 62
     8
  6
Continuous
370
    25
390
F
1001
AcAecLayerStandard
1000

1000

  0
LAYER
  5
4CC
102
{ACAD_XDICTIONARY
360
1AFF
102
}
330
2
100
AcDbSymbolTableRecord
100
AcDbLayerTableRecord
  2
塗潰し
 70
     0
 62
     8
  6
Continuous
370
    18
390
F
1001
AcAecLayerStandard
1000

1000

  0
LAYER
  5
A4A
102
{ACAD_XDICTIONARY
360
1B01
102
}
330
2
100
AcDbSymbolTableRecord
100
AcDbLayerTableRecord
  2
寸法
 70
     0
 62
     3
  6
Continuous
370
    18
390
F
  0
LAYER
  5
C42
102
{ACAD_XDICTIONARY
360
1B03
102
}
330
2
100
AcDbSymbolTableRecord
100
AcDbLayerTableRecord
  2
DEFAULT_3
 70
     0
 62
     7
  6
PHANTOM
370
    -3
390
F
  0
LAYER
  5
1B18
330
2
100
AcDbSymbolTableRecord
100
AcDbLayerTableRecord
  2
LAYER065
 70
     0
 62
     7
  6
Continuous
370
    -3
390
F
  0
LAYER
  5
3C9A
330
2
100
AcDbSymbolTableRecord
100
AcDbLayerTableRecord
  2
LAYER001
 70
     0
 62
     7
  6
Continuous
370
    -3
390
F
  0
LAYER
  5
10CDF
330
2
100
AcDbSymbolTableRecord
100
AcDbLayerTableRecord
  2
塗潰し1
 70
     0
 62
   252
  6
Continuous
370
    18
390
F
1001
AcAecLayerStandard
1000

1000

  0
LAYER
  5
11724
330
2
100
AcDbSymbolTableRecord
100
AcDbLayerTableRecord
  2
LAYER145
 70
     0
 62
     7
  6
Continuous
370
    -3
390
F
  0
LAYER
  5
120F3
330
2
100
AcDbSymbolTableRecord
100
AcDbLayerTableRecord
  2
LAYER161
 70
     0
 62
     7
  6
Continuous
370
    -3
390
F
  0
LAYER
  5
12BE8
102
{ACAD_XDICTIONARY
360
12BE9
102
}
330
2
100
AcDbSymbolTableRecord
100
AcDbLayerTableRecord
  2
文字
 70
     0
 62
     6
  6
PHANTOM
370
    30
390
F
  0
LAYER
  5
12BEA
102
{ACAD_XDICTIONARY
360
12BEB
102
}
330
2
100
AcDbSymbolTableRecord
100
AcDbLayerTableRecord
  2
外形線
 70
     0
 62
     7
  6
Continuous
370
    40
390
F
  0
LAYER
  5
12BEC
102
{ACAD_XDICTIONARY
360
12BED
102
}
330
2
100
AcDbSymbolTableRecord
100
AcDbLayerTableRecord
  2
細線
 70
     0
 62
     3
  6
Continuous
370
    20
390
F
  0
LAYER
  5
137A4
330
2
100
AcDbSymbolTableRecord
100
AcDbLayerTableRecord
  2
Bracket
 70
     0
 62
     5
  6
Continuous
370
    40
390
F
  0
LAYER
  5
137A5
330
2
100
AcDbSymbolTableRecord
100
AcDbLayerTableRecord
  2
Center
 70
     0
 62
     1
  6
CENTER
370
    -3
390
F
  0
ENDTAB
  0
TABLE
  2
STYLE
  5
3
330
0
100
AcDbSymbolTable
 70
     5
  0
STYLE
  5
11
330
3
100
AcDbSymbolTableRecord
100
AcDbTextStyleTableRecord
  2
Standard
 70
     0
 40
0.0
 41
1.0
 50
0.0
 71
     0
 42
2.5
  3
MS Gothic.ttf
  4

1001
ACAD
1000
MS Gothic
1071
    32817
  0
STYLE
  5
B0
330
3
100
AcDbSymbolTableRecord
100
AcDbTextStyleTableRecord
  2
Roman
 70
     0
 40
0.0
 41
1.0
 50
0.0
 71
     0
 42
5.0
  3
romans.shx
  4
extfont2.shx
  0
STYLE
  5
346
330
3
100
AcDbSymbolTableRecord
100
AcDbTextStyleTableRecord
  2
尺度１／２
 70
     0
 40
0.0
 41
1.0
 50
0.0
 71
     0
 42
8.0
  3
MS Gothic.ttf
  4

1001
ACAD
1000
MS Gothic
1071
    32817
  0
STYLE
  5
68E
330
3
100
AcDbSymbolTableRecord
100
AcDbTextStyleTableRecord
  2
BWH-jdt02
 70
     0
 40
0.0
 41
0.7
 50
0.0
 71
     0
 42
4.752464886293636
  3
SIMSUN.TTF
  4

1001
ACAD
1000
SimSun
1071
    34306
  0
STYLE
  5
10EAE
330
3
100
AcDbSymbolTableRecord
100
AcDbTextStyleTableRecord
  2
CLJ8
 70
     0
 40
0.0
 41
0.7
 50
0.0
 71
     0
 42
15.88944004039013
  3
romans.shx
  4
r13-cf-8.shx
  0
ENDTAB
  0
TABLE
  2
VIEW
  5
6
330
0
100
AcDbSymbolTable
 70
     3
  0
VIEW
  5
12620
102
{ACAD_XDICTIONARY
360
12621
102
}
330
6
100
AcDbSymbolTableRecord
100
AcDbViewTableRecord
  2
OLE1
 70
     0
 40
248.7212051602393
 10
-195.0475829921155
 20
1955.944957582061
 41
483.8881212109288
 11
0.0
 21
0.0
 31
1.0
 12
0.0
 22
0.0
 32
0.0
 42
50.0
 43
0.0
 44
0.0
 50
0.0
 71
     0
281
     0
 72
     0
  0
ENDTAB
  0
TABLE
  2
UCS
  5
7
330
0
100
AcDbSymbolTable
 70
     0
  0
ENDTAB
  0
TABLE
  2
APPID
  5
9
330
0
100
AcDbSymbolTable
 70
    14
  0
APPID
  5
12
330
9
100
AcDbSymbolTableRecord
100
AcDbRegAppTableRecord
  2
ACAD
 70
     0
  0
APPID
  5
1B4
330
9
100
AcDbSymbolTableRecord
100
AcDbRegAppTableRecord
  2
ACAD_PSEXT
 70
     0
  0
APPID
  5
27C
330
9
100
AcDbSymbolTableRecord
100
AcDbRegAppTableRecord
  2
ACAUTHENVIRON
 70
     0
  0
APPID
  5
280
330
9
100
AcDbSymbolTableRecord
100
AcDbRegAppTableRecord
  2
AcDbDynamicBlockTrueName
 70
     0
  0
APPID
  5
281
330
9
100
AcDbSymbolTableRecord
100
AcDbRegAppTableRecord
  2
AcDbDynamicBlockGUID
 70
     0
  0
APPID
  5
283
330
9
100
AcDbSymbolTableRecord
100
AcDbRegAppTableRecord
  2
AcDbBlockRepETag
 70
     0
  0
APPID
  5
331
330
9
100
AcDbSymbolTableRecord
100
AcDbRegAppTableRecord
  2
ACAD_EXEMPT_FROM_CAD_STANDARDS
 70
     0
  0
APPID
  5
3DD
330
9
100
AcDbSymbolTableRecord
100
AcDbRegAppTableRecord
  2
AcAecLayerStandard
 70
     0
  0
APPID
  5
692
330
9
100
AcDbSymbolTableRecord
100
AcDbRegAppTableRecord
  2
RAK
 70
     0
  0
APPID
  5
C44
330
9
100
AcDbSymbolTableRecord
100
AcDbRegAppTableRecord
  2
AcadStringInfo
 70
     0
  0
APPID
  5
1AD8
330
9
100
AcDbSymbolTableRecord
100
AcDbRegAppTableRecord
  2
ACAD_MLEADERVER
 70
     0
  0
APPID
  5
2A4D
330
9
100
AcDbSymbolTableRecord
100
AcDbRegAppTableRecord
  2
ACAD_DSTYLE_DIMJAG
 70
     0
  0
APPID
  5
2A4E
330
9
100
AcDbSymbolTableRecord
100
AcDbRegAppTableRecord
  2
ACAD_DSTYLE_DIMTALN
 70
     0
  0
APPID
  5
2B43
330
9
100
AcDbSymbolTableRecord
100
AcDbRegAppTableRecord
  2
ACAD_DSTYLE_DIMRADIAL_EXTENSION
 70
     0
  0
ENDTAB
  0
TABLE
  2
DIMSTYLE
  5
A
330
0
100
AcDbSymbolTable
 70
    10
100
AcDbDimStyleTable
 71
     3
340
348
340
121
340
347
  0
DIMSTYLE
105
121
330
A
100
AcDbSymbolTableRecord
100
AcDbDimStyleTableRecord
  2
JIS
 70
     0
 41
4.0
 42
1.0
 43
7.0
 44
1.0
 73
     0
 74
     0
 77
     1
 78
     8
140
5.0
141
0.0
143
0.0394
147
1.0
172
     1
340
11
341
33F
342
33F
  0
DIMSTYLE
105
292
330
A
100
AcDbSymbolTableRecord
100
AcDbDimStyleTableRecord
  2
ISO-25
 70
     0
 41
2.5
 42
0.625
 43
3.75
 44
1.25
 73
     0
 74
     0
 77
     1
 78
     8
140
2.5
141
2.5
143
0.03937007874016
147
0.625
171
     3
172
     1
271
     2
272
     2
274
     3
278
    44
283
     0
284
     8
340
11
  0
DIMSTYLE
105
347
330
A
100
AcDbSymbolTableRecord
100
AcDbDimStyleTableRecord
  2
JIS１／２
 70
     0
 41
6.0
 42
1.0
 43
7.0
 44
1.0
 73
     0
 74
     0
 77
     1
 78
     8
140
7.0
141
0.0
143
0.0394
147
2.0
172
     1
271
     2
272
     2
340
346
341
33F
342
33F
  0
DIMSTYLE
105
348
102
{ACAD_REACTORS
330
13E91
330
13E94
330
13E97
102
}
330
A
100
AcDbSymbolTableRecord
100
AcDbDimStyleTableRecord
  2
JIS２／１
 70
     0
 41
2.5
 42
1.0
 43
7.0
 44
1.0
 73
     0
 74
     0
 77
     1
 78
     8
140
3.0
141
0.0
143
0.0394
147
0.5
172
     1
271
     2
272
     2
340
11
341
33F
342
33F
1001
ACAD_DSTYLE_DIMJAG
1070
   388
1040
1.5
1001
ACAD_DSTYLE_DIMTALN
1070
   392
1070
     0
  0
DIMSTYLE
105
C43
330
A
100
AcDbSymbolTableRecord
100
AcDbDimStyleTableRecord
  2
副本JIS
 70
     0
 41
2.5
 42
1.0
 43
7.0
 44
1.0
 73
     0
 74
     0
 77
     1
 78
     8
140
4.0
141
0.0
143
0.0394
144
0.2
147
1.0
172
     1
271
     2
272
     2
340
11
341
33F
342
33F
1001
AcadStringInfo
1000
MIFCodePage
1070
     5
  0
DIMSTYLE
105
1B19
330
A
100
AcDbSymbolTableRecord
100
AcDbDimStyleTableRecord
  2
STANDARD
 70
     0
289
     0
340
11
  0
DIMSTYLE
105
10EAF
330
A
100
AcDbSymbolTableRecord
100
AcDbDimStyleTableRecord
  2
LJ1
 70
     0
 40
15.0
 41
0.05
 42
0.0
 44
0.05
 73
     0
 74
     0
 77
     1
 78
     8
 79
     2
140
0.15
141
0.0
147
0.05
176
     6
177
     6
178
     4
179
     2
271
     2
272
     2
340
10EAE
  0
DIMSTYLE
105
12BEE
330
A
100
AcDbSymbolTableRecord
100
AcDbDimStyleTableRecord
  2
JIS2
 70
     0
 41
2.5
 42
1.0
 43
7.0
 44
1.0
 73
     0
 74
     0
 77
     1
 78
     8
140
4.0
141
0.0
143
0.0394
144
0.5
147
0.5
172
     1
271
     1
272
     1
340
11
341
33F
342
33F
1001
ACAD_DSTYLE_DIMJAG
1070
   388
1040
1.5
1001
ACAD_DSTYLE_DIMTALN
1070
   392
1070
     0
  0
DIMSTYLE
105
12BEF
330
A
100
AcDbSymbolTableRecord
100
AcDbDimStyleTableRecord
  2
JIG3
 70
     0
 40
0.5
 41
2.5
 42
1.0
 43
7.0
 44
1.0
 73
     0
 74
     0
 77
     1
 78
     8
140
4.0
141
0.0
143
0.0394
144
0.5
147
0.5
172
     1
271
     1
272
     1
340
11
341
33F
342
33F
  0
DIMSTYLE
105
12BF0
330
A
100
AcDbSymbolTableRecord
100
AcDbDimStyleTableRecord
  2
JIG5
 70
     0
 41
2.5
 42
1.0
 43
7.0
 44
1.0
 73
     0
 74
     0
 77
     1
 78
     8
140
4.0
141
0.0
143
0.0394
144
0.2
147
0.5
172
     1
271
     1
272
     1
340
11
341
33F
342
33F
  0
ENDTAB
  0
TABLE
  2
BLOCK_RECORD
  5
1
330
0
100
AcDbSymbolTable
 70
    30
  0
BLOCK_RECORD
  5
1F
102
{ACAD_XDICTIONARY
360
1956
102
}
330
1
100
AcDbSymbolTableRecord
100
AcDbBlockTableRecord
  2
*Model_Space
340
22
  0
BLOCK_RECORD
  5
1405E
330
1
100
AcDbSymbolTableRecord
100
AcDbBlockTableRecord
  2
*Paper_Space
340
1405B
  0
BLOCK_RECORD
  5
AB
102
{ACAD_XDICTIONARY
360
28E
102
}
330
1
100
AcDbSymbolTableRecord
100
AcDbBlockTableRecord
  2
JIS A4 title block (portrait)
340
0
310
2800000020000000200000000100080000000000000400000000000000000000000000000000000000000000000080000080000000808000800000008000800080800000C0C0C000C0DCC000F0CAA6000020400000206000002080000020A0000020C0000020E00000400000004020000040400000406000004080000040A0
310
000040C0000040E00000600000006020000060400000606000006080000060A0000060C0000060E00000800000008020000080400000806000008080000080A0000080C0000080E00000A0000000A0200000A0400000A0600000A0800000A0A00000A0C00000A0E00000C0000000C0200000C0400000C0600000C0800000C0
310
A00000C0C00000C0E00000E0000000E0200000E0400000E0600000E0800000E0A00000E0C00000E0E00040000000400020004000400040006000400080004000A0004000C0004000E00040200000402020004020400040206000402080004020A0004020C0004020E000404000004040200040404000404060004040800040
310
40A0004040C0004040E00040600000406020004060400040606000406080004060A0004060C0004060E00040800000408020004080400040806000408080004080A0004080C0004080E00040A0000040A0200040A0400040A0600040A0800040A0A00040A0C00040A0E00040C0000040C0200040C0400040C0600040C08000
310
40C0A00040C0C00040C0E00040E0000040E0200040E0400040E0600040E0800040E0A00040E0C00040E0E00080000000800020008000400080006000800080008000A0008000C0008000E00080200000802020008020400080206000802080008020A0008020C0008020E00080400000804020008040400080406000804080
310
008040A0008040C0008040E00080600000806020008060400080606000806080008060A0008060C0008060E00080800000808020008080400080806000808080008080A0008080C0008080E00080A0000080A0200080A0400080A0600080A0800080A0A00080A0C00080A0E00080C0000080C0200080C0400080C0600080C0
310
800080C0A00080C0C00080C0E00080E0000080E0200080E0400080E0600080E0800080E0A00080E0C00080E0E000C0000000C0002000C0004000C0006000C0008000C000A000C000C000C000E000C0200000C0202000C0204000C0206000C0208000C020A000C020C000C020E000C0400000C0402000C0404000C0406000C0
310
408000C040A000C040C000C040E000C0600000C0602000C0604000C0606000C0608000C060A000C060C000C060E000C0800000C0802000C0804000C0806000C0808000C080A000C080C000C080E000C0A00000C0A02000C0A04000C0A06000C0A08000C0A0A000C0A0C000C0A0E000C0C00000C0C02000C0C04000C0C06000
310
C0C08000C0C0A000F0FBFF00A4A0A000808080000000FF0000FF000000FFFF00FF000000FF00FF00FFFF0000FFFFFF00FFFFFFFFFFFFFFFFFFFFFFFFFFFFFFFFFFFFFFFFFFFFFFFFFFFFFFFFFFFFFFFFFFFFFFFFFFFF000000FFFFFFFFFFFFFF00FFFFFFFFFFFFFFFF00FFFFFFFFFFFFFFFFFFFFFFFF000000000000000000
310
0000000000000000000000FFFFFFFFFFFFFFFFFFFFFFFFFFFF00FFFFFF0000000000000000000000000000FFFFFFFFFFFFFFFFFFFFFFFFFFFF00FFFFFF0000000000000000FFFFFFFFFF00FFFFFFFFFFFFFFFFFFFFFFFFFFFF00FFFFFF0000000000000000000000000000FFFFFFFFFFFFFFFFFFFFFFFFFFFF00FFFFFF0000
310
000000000000000000000000FFFFFFFFFFFFFFFFFFFFFFFFFF0000FFFFFFFFFFFFFFFFFFFFFFFFFFFFFFFF00FFFFFFFFFFFFFFFFFFFFFFFFFFFF00FFFFFFFFFFFFFFFFFFFFFFFFFFFFFFFF00FFFFFFFFFFFFFFFFFFFFFFFFFFFF00FFFFFFFFFFFFFFFFFFFFFFFFFFFFFFFF00FFFFFFFFFFFFFFFFFFFFFFFFFFFF00FFFFFFFF
310
FFFFFFFFFFFFFFFFFFFFFFFF00FFFFFFFFFFFFFFFFFFFFFFFFFF0000FFFFFFFFFFFFFFFFFFFFFFFFFFFFFFFF00FFFFFFFFFFFFFFFFFFFFFFFFFFFF00FFFFFFFFFFFFFFFFFFFFFFFFFFFFFFFF00FFFFFFFFFFFFFFFFFFFFFFFFFFFF00FFFFFFFFFFFFFFFFFFFFFFFFFFFFFFFF00FFFFFFFFFFFFFFFFFFFFFFFFFFFF00FFFFFF
310
FFFFFFFFFFFFFFFFFFFFFFFFFF00FFFFFFFFFFFFFFFFFFFFFFFF000000FFFFFFFFFFFFFFFFFFFFFFFFFFFFFFFF00FFFFFFFFFFFFFFFFFFFFFFFFFFFF00FFFFFFFFFFFFFFFFFFFFFFFFFFFFFFFF00FFFFFFFFFFFFFFFFFFFFFFFFFFFF00FFFFFFFFFFFFFFFFFFFFFFFFFFFFFFFF00FFFFFFFFFFFFFFFFFFFFFFFFFFFF00FFFF
310
FFFFFFFFFFFFFFFFFFFFFFFFFFFF00FFFFFFFFFFFFFFFFFFFFFFFFFFFF00FFFFFFFFFFFFFFFFFFFFFFFFFFFFFFFF00FFFFFFFFFFFFFFFFFFFFFFFFFF0000FFFFFFFFFFFFFFFFFFFFFFFFFFFFFFFF00FFFFFFFFFFFFFFFFFFFFFFFFFFFF00FFFFFFFFFFFFFFFFFFFFFFFFFFFFFFFF00FFFFFFFFFFFFFFFFFFFFFFFFFFFF00FF
310
FFFFFFFFFFFFFFFFFFFFFFFFFFFFFF00FFFFFFFFFFFFFFFFFFFFFFFFFFFF00FFFFFFFFFFFFFFFFFFFFFFFFFFFFFFFF00FFFFFFFFFFFFFFFFFFFFFFFFFF0000FFFFFFFFFFFFFFFFFFFFFFFFFFFFFFFF00FFFFFFFFFFFFFFFFFFFFFFFFFFFF00FFFFFFFFFFFFFFFFFFFFFFFFFFFFFFFF00FFFFFFFFFFFFFFFFFFFFFFFFFFFF00
310
00000000000000000000FFFFFFFFFFFF00FFFFFFFFFFFFFFFFFFFFFFFFFFFF0000000000000000000000FFFFFFFFFFFF00FFFFFFFFFFFFFFFFFFFFFFFFFFFF0000000000000000000000FFFFFFFFFFFF00FFFFFFFFFFFFFFFFFFFFFFFF00FF000000000000000000000000000000000000FFFFFFFFFFFFFFFFFFFFFFFF0000
310
00FFFFFFFFFFFFFF00FFFFFFFFFFFFFFFF00FFFFFFFFFFFFFFFFFFFFFFFFFFFFFFFFFFFFFFFFFFFFFFFFFFFFFFFFFFFFFFFFFFFFFFFFFFFF
1001
AcDbDynamicBlockGUID
1000
{6DB1C6FB-04ED-4989-8D70-427348F3A6A6}
1001
AcDbBlockRepETag
1070
     1
1071
       23
1001
ACAD
1000
DesignCenter Data
1002
{
1070
     1
1070
     4
1002
}
  0
BLOCK_RECORD
  5
33F
330
1
100
AcDbSymbolTableRecord
100
AcDbBlockTableRecord
  2
_Open30
340
0
102
{BLKREFS
331
12865
331
12866
331
12872
331
12873
331
1287D
331
1287E
331
12886
331
12887
331
12891
331
12892
331
1289A
331
1289B
331
13D66
331
13D67
331
13D82
331
13D83
331
13D9D
331
13D9E
331
13DA7
331
13DA8
331
13DB1
331
13DB2
331
13DBA
331
13DBB
331
13FE0
331
13FE1
331
13FE9
331
13FEA
331
13FF3
331
13FF4
331
13FFC
331
13FFD
331
14005
331
14006
331
1400E
331
1400F
102
}
  0
BLOCK_RECORD
  5
4E7
102
{ACAD_XDICTIONARY
360
4E8
102
}
330
1
100
AcDbSymbolTableRecord
100
AcDbBlockTableRecord
  2
JIS A3 title block
340
0
310
2800000020000000200000000100080000000000000400000000000000000000000000000000000000000000000080000080000000808000800000008000800080800000C0C0C000C0DCC000F0CAA6000020400000206000002080000020A0000020C0000020E00000400000004020000040400000406000004080000040A0
310
000040C0000040E00000600000006020000060400000606000006080000060A0000060C0000060E00000800000008020000080400000806000008080000080A0000080C0000080E00000A0000000A0200000A0400000A0600000A0800000A0A00000A0C00000A0E00000C0000000C0200000C0400000C0600000C0800000C0
310
A00000C0C00000C0E00000E0000000E0200000E0400000E0600000E0800000E0A00000E0C00000E0E00040000000400020004000400040006000400080004000A0004000C0004000E00040200000402020004020400040206000402080004020A0004020C0004020E000404000004040200040404000404060004040800040
310
40A0004040C0004040E00040600000406020004060400040606000406080004060A0004060C0004060E00040800000408020004080400040806000408080004080A0004080C0004080E00040A0000040A0200040A0400040A0600040A0800040A0A00040A0C00040A0E00040C0000040C0200040C0400040C0600040C08000
310
40C0A00040C0C00040C0E00040E0000040E0200040E0400040E0600040E0800040E0A00040E0C00040E0E00080000000800020008000400080006000800080008000A0008000C0008000E00080200000802020008020400080206000802080008020A0008020C0008020E00080400000804020008040400080406000804080
310
008040A0008040C0008040E00080600000806020008060400080606000806080008060A0008060C0008060E00080800000808020008080400080806000808080008080A0008080C0008080E00080A0000080A0200080A0400080A0600080A0800080A0A00080A0C00080A0E00080C0000080C0200080C0400080C0600080C0
310
800080C0A00080C0C00080C0E00080E0000080E0200080E0400080E0600080E0800080E0A00080E0C00080E0E000C0000000C0002000C0004000C0006000C0008000C000A000C000C000C000E000C0200000C0202000C0204000C0206000C0208000C020A000C020C000C020E000C0400000C0402000C0404000C0406000C0
310
408000C040A000C040C000C040E000C0600000C0602000C0604000C0606000C0608000C060A000C060C000C060E000C0800000C0802000C0804000C0806000C0808000C080A000C080C000C080E000C0A00000C0A02000C0A04000C0A06000C0A08000C0A0A000C0A0C000C0A0E000C0C00000C0C02000C0C04000C0C06000
310
C0C08000C0C0A000F0FBFF00A4A0A000808080000000FF0000FF000000FFFF00FF000000FF00FF00FFFF0000FFFFFF00FFFFFFFFFFFFFFFFFFFFFFFFFFFFFFFFFFFFFFFFFFFFFFFFFFFFFFFFFFFFFFFFFFFFFFFFFFFFFFFFFFFFFFFFFFFFFFFFFFFFFFFFFFFFFFFFFFFFFFFFFFFFFFFFFFFFFFFFFFFFFFFFFFFFFFFFFFFFFF
310
FFFFFFFFFFFFFFFFFFFFFFFFFFFFFFFFFFFFFFFFFFFFFFFFFFFFFFFFFFFFFFFFFFFFFFFFFFFFFFFFFFFFFFFFFFFFFFFFFFFFFFFFFFFFFFFFFFFFFFFFFFFFFFFFFFFFFFFFFFFFFFFFFFFFFFFFFFFFFFFFFFFFFFFFFFFFFFFFFFFFFFFFFFFFFFFFFFFFFFFFFFFFFFFFFFFFFFFFFFFFFFFFFFFF00FFFF00000000000000000000
310
000000000000FFFFFFFFFFFF0000FFFF00FFFFFFFF0000000000000000FFFFFFFFFFFFFFFFFFFFFFFFFFFFFFFFFFFFFFFFFFFFFFFF0000000000000000FFFFFFFFFFFFFFFFFFFFFFFFFFFFFFFFFFFF00FFFFFFFFFF00FFFFFFFFFFFFFFFFFFFFFFFFFFFFFFFFFFFFFFFFFFFFFFFFFF00FFFFFFFFFFFFFFFFFFFFFFFFFFFFFF
310
FFFFFFFFFFFFFFFFFFFFFFFFFFFFFFFF00FFFFFFFFFF00FFFFFFFFFFFFFFFFFFFFFFFFFFFFFFFFFFFFFFFFFFFFFFFFFF00FFFFFFFFFF00FFFFFFFFFFFFFFFFFFFFFFFFFFFFFFFFFFFFFFFFFFFFFFFFFF00FFFFFFFFFFFFFFFFFFFFFFFFFFFFFFFFFFFFFFFFFFFFFFFFFFFFFFFFFFFFFF00FFFFFFFFFF00FFFFFFFFFFFFFFFF
310
FFFFFFFFFFFFFFFFFFFFFFFFFFFFFFFFFF00FFFFFFFFFF00FFFFFFFFFFFFFFFFFFFFFFFFFFFFFFFFFFFFFFFFFFFFFFFFFF00FFFFFF000000FFFFFFFFFFFFFFFFFFFFFFFFFFFFFFFFFFFFFFFFFFFFFFFFFF0000FFFFFFFF00FFFFFFFFFFFFFFFFFFFFFFFFFFFFFFFFFFFFFFFFFFFFFFFFFF00FFFFFFFFFF00FFFFFFFFFFFFFF
310
FFFFFFFFFFFFFFFFFFFFFFFFFFFFFFFFFFFF00FFFFFFFFFF00FFFFFFFFFFFFFFFFFFFFFFFFFFFFFFFFFFFFFFFFFFFFFFFFFF00FFFFFFFFFF00FFFFFFFFFFFFFFFFFFFFFFFFFFFFFFFFFFFFFFFFFFFFFFFFFF00FFFFFFFFFF00FFFFFFFFFFFFFFFFFFFFFFFFFFFFFFFFFFFFFFFFFFFFFFFFFF00FFFFFFFFFF00FFFFFFFFFFFF
310
FFFFFFFFFFFFFFFFFFFFFFFFFFFFFFFFFFFFFF00FFFFFFFFFF00FFFFFFFFFFFFFFFFFFFFFFFFFFFFFFFFFFFFFFFFFFFFFFFFFF00FFFFFFFFFF00FFFFFFFFFFFFFFFFFFFFFFFFFFFFFFFFFFFFFFFFFFFFFFFFFF00FFFFFF000000000000000000000000000000000000000000000000000000000000FFFFFFFFFFFFFFFFFFFF
310
FFFFFFFFFFFFFFFFFFFFFFFFFFFFFFFFFFFFFFFFFFFFFFFFFFFFFFFFFFFFFFFFFFFFFFFFFFFFFFFFFFFFFFFFFFFFFFFFFFFFFFFFFFFFFFFFFFFFFFFFFFFFFFFFFFFFFFFFFFFFFFFFFFFFFFFFFFFFFFFFFFFFFFFFFFFFFFFFFFFFFFFFFFFFFFFFFFFFFFFFFFFFFFFFFFFFFFFFFFFFFFFFFFFFFFFFFFFFFFFFFFFFFFFFFFFFFF
310
FFFFFFFFFFFFFFFFFFFFFFFFFFFFFFFFFFFFFFFFFFFFFFFFFFFFFFFFFFFFFFFFFFFFFFFFFFFFFFFFFFFFFFFFFFFFFFFFFFFFFFFFFFFFFFFF
102
{BLKREFS
331
6B2
102
}
1001
AcDbDynamicBlockGUID
1000
{ADD7F6C8-90DF-4B5E-9041-BE536E290B26}
1001
AcDbBlockRepETag
1070
     1
1071
       75
1001
ACAD
1000
DesignCenter Data
1002
{
1070
     1
1070
     4
1002
}
  0
BLOCK_RECORD
  5
6ED
102
{ACAD_XDICTIONARY
360
930
102
}
330
1
100
AcDbSymbolTableRecord
100
AcDbBlockTableRecord
  2
JIS A4 title block (landscape)
340
0
102
{BLKREFS
331
8B6
102
}
1001
AcDbDynamicBlockGUID
1000
{CEEEE382-D703-4645-97A2-E5AB7DAA0D3B}
1001
AcDbBlockRepETag
1070
     1
1071
       77
1001
ACAD
1000
DesignCenter Data
1002
{
1070
     1
1070
     4
1002
}
  0
BLOCK_RECORD
  5
FBCB
330
1
100
AcDbSymbolTableRecord
100
AcDbBlockTableRecord
  2
_DotSmall
340
0
  0
BLOCK_RECORD
  5
FCBC
330
1
100
AcDbSymbolTableRecord
100
AcDbBlockTableRecord
  2
_DotBlank
340
0
  0
BLOCK_RECORD
  5
FCD7
330
1
100
AcDbSymbolTableRecord
100
AcDbBlockTableRecord
  2
_Small
340
0
  0
BLOCK_RECORD
  5
FD33
330
1
100
AcDbSymbolTableRecord
100
AcDbBlockTableRecord
  2
_Open90
340
0
  0
BLOCK_RECORD
  5
10C5A
330
1
100
AcDbSymbolTableRecord
100
AcDbBlockTableRecord
  2
_None
340
0
  0
BLOCK_RECORD
  5
113A5
330
1
100
AcDbSymbolTableRecord
100
AcDbBlockTableRecord
  2
*D11
340
0
  0
BLOCK_RECORD
  5
113D7
330
1
100
AcDbSymbolTableRecord
100
AcDbBlockTableRecord
  2
*D12
340
0
  0
BLOCK_RECORD
  5
113F3
330
1
100
AcDbSymbolTableRecord
100
AcDbBlockTableRecord
  2
*D13
340
0
  0
BLOCK_RECORD
  5
11414
330
1
100
AcDbSymbolTableRecord
100
AcDbBlockTableRecord
  2
*D14
340
0
  0
BLOCK_RECORD
  5
1143D
330
1
100
AcDbSymbolTableRecord
100
AcDbBlockTableRecord
  2
*D15
340
0
  0
BLOCK_RECORD
  5
11461
330
1
100
AcDbSymbolTableRecord
100
AcDbBlockTableRecord
  2
*D16
340
0
  0
BLOCK_RECORD
  5
13AAF
330
1
100
AcDbSymbolTableRecord
100
AcDbBlockTableRecord
  2
*D17
340
0
  0
BLOCK_RECORD
  5
13AC7
330
1
100
AcDbSymbolTableRecord
100
AcDbBlockTableRecord
  2
*D18
340
0
  0
BLOCK_RECORD
  5
13ADF
330
1
100
AcDbSymbolTableRecord
100
AcDbBlockTableRecord
  2
*D19
340
0
  0
BLOCK_RECORD
  5
13AF7
330
1
100
AcDbSymbolTableRecord
100
AcDbBlockTableRecord
  2
*D20
340
0
  0
BLOCK_RECORD
  5
13B0F
330
1
100
AcDbSymbolTableRecord
100
AcDbBlockTableRecord
  2
*D21
340
0
  0
BLOCK_RECORD
  5
13B7E
330
1
100
AcDbSymbolTableRecord
100
AcDbBlockTableRecord
  2
*D22
340
0
  0
BLOCK_RECORD
  5
13EA3
330
1
100
AcDbSymbolTableRecord
100
AcDbBlockTableRecord
  2
*D23
340
0
  0
BLOCK_RECORD
  5
13EAD
330
1
100
AcDbSymbolTableRecord
100
AcDbBlockTableRecord
  2
*D24
340
0
  0
BLOCK_RECORD
  5
13EB9
330
1
100
AcDbSymbolTableRecord
100
AcDbBlockTableRecord
  2
*D25
340
0
  0
BLOCK_RECORD
  5
13EC5
330
1
100
AcDbSymbolTableRecord
100
AcDbBlockTableRecord
  2
*D26
340
0
  0
BLOCK_RECORD
  5
13ED2
330
1
100
AcDbSymbolTableRecord
100
AcDbBlockTableRecord
  2
*D27
340
0
  0
BLOCK_RECORD
  5
13EDF
330
1
100
AcDbSymbolTableRecord
100
AcDbBlockTableRecord
  2
*D28
340
0
  0
ENDTAB
  0
ENDSEC
  0
SECTION
  2
BLOCKS
  0
BLOCK
  5
20
330
1F
100
AcDbEntity
  8
0
100
AcDbBlockBegin
  2
*Model_Space
 70
     0
 10
0.0
 20
0.0
 30
0.0
  3
*Model_Space
  1

  0
ENDBLK
  5
21
330
1F
100
AcDbEntity
  8
0
100
AcDbBlockEnd
  0
BLOCK
  5
14076
330
1405E
100
AcDbEntity
 67
     1
  8
0
100
AcDbBlockBegin
  2
*Paper_Space
 70
     0
 10
0.0
 20
0.0
 30
0.0
  3
*Paper_Space
  1

  0
ENDBLK
  5
14077
330
1405E
100
AcDbEntity
 67
     1
  8
0
100
AcDbBlockEnd
  0
BLOCK
  5
116
330
AB
100
AcDbEntity
  8
0
100
AcDbBlockBegin
  2
JIS A4 title block (portrait)
 70
     2
 10
0.0
 20
0.0
 30
0.0
  3
JIS A4 title block (portrait)
  1

  4
JIS A4 title block and attributes (portrait)
  0
LINE
  5
28C
330
AB
100
AcDbEntity
  8
0
100
AcDbLine
 10
0.0
 20
297.0
 30
0.0
 11
25.0
 21
297.0
 31
0.0
1001
AcDbBlockRepETag
1070
     1
1071
        0
1005
28C
  0
LINE
  5
28D
330
AB
100
AcDbEntity
  8
0
100
AcDbLine
 10
0.0
 20
287.0
 30
0.0
 11
0.0
 21
297.0
 31
0.0
1001
AcDbBlockRepETag
1070
     1
1071
        1
1005
28D
  0
LINE
  5
2E7
330
AB
100
AcDbEntity
  8
0
100
AcDbLine
 10
17.5
 20
10.0
 30
0.0
 11
17.5
 21
287.0
 31
0.0
1001
AcDbBlockRepETag
1070
     1
1071
        2
1005
2E7
  0
LINE
  5
2E8
330
AB
100
AcDbEntity
  8
0
100
AcDbLine
 10
192.5
 20
287.0
 30
0.0
 11
192.5
 21
10.0
 31
0.0
1001
AcDbBlockRepETag
1070
     1
1071
        3
1005
2E8
  0
LINE
  5
2E9
330
AB
100
AcDbEntity
  8
0
100
AcDbLine
 10
192.5
 20
10.0
 30
0.0
 11
17.5
 21
10.0
 31
0.0
1001
AcDbBlockRepETag
1070
     1
1071
        4
1005
2E9
  0
LINE
  5
2EA
330
AB
100
AcDbEntity
  8
0
100
AcDbLine
 10
25.0
 20
0.0
 30
0.0
 11
0.0
 21
0.0
 31
0.0
1001
AcDbBlockRepETag
1070
     1
1071
        5
1005
2EA
  0
LINE
  5
2EB
330
AB
100
AcDbEntity
  8
0
100
AcDbLine
 10
0.0
 20
0.0
 30
0.0
 11
0.0
 21
10.0
 31
0.0
1001
AcDbBlockRepETag
1070
     1
1071
        6
1005
2EB
  0
LINE
  5
2EC
330
AB
100
AcDbEntity
  8
0
100
AcDbLine
 10
61.25
 20
10.0
 30
0.0
 11
61.25
 21
5.0
 31
0.0
1001
AcDbBlockRepETag
1070
     1
1071
        7
1005
2EC
  0
LINE
  5
2ED
330
AB
100
AcDbEntity
  8
0
100
AcDbLine
 10
17.5
 20
148.5
 30
0.0
 11
0.0
 21
148.5
 31
0.0
1001
AcDbBlockRepETag
1070
     1
1071
        8
1005
2ED
  0
LINE
  5
2EE
330
AB
100
AcDbEntity
  8
0
100
AcDbLine
 10
17.5
 20
56.16666666666668
 30
0.0
 11
12.5
 21
56.16666666666668
 31
0.0
1001
AcDbBlockRepETag
1070
     1
1071
        9
1005
2EE
  0
LINE
  5
2EF
330
AB
100
AcDbEntity
  8
0
100
AcDbLine
 10
17.5
 20
102.3333333333333
 30
0.0
 11
12.5
 21
102.3333333333333
 31
0.0
1001
AcDbBlockRepETag
1070
     1
1071
       10
1005
2EF
  0
LINE
  5
2F0
330
AB
100
AcDbEntity
  8
0
100
AcDbLine
 10
17.5
 20
148.5
 30
0.0
 11
12.5
 21
148.5
 31
0.0
1001
AcDbBlockRepETag
1070
     1
1071
       11
1005
2F0
  0
LINE
  5
2F1
330
AB
100
AcDbEntity
  8
0
100
AcDbLine
 10
105.0
 20
10.0
 30
0.0
 11
105.0
 21
0.0
 31
0.0
1001
AcDbBlockRepETag
1070
     1
1071
       12
1005
2F1
  0
LINE
  5
2F2
330
AB
100
AcDbEntity
  8
0
100
AcDbLine
 10
210.0
 20
10.0
 30
0.0
 11
210.0
 21
0.0
 31
0.0
1001
AcDbBlockRepETag
1070
     1
1071
       13
1005
2F2
  0
LINE
  5
2F3
330
AB
100
AcDbEntity
  8
0
100
AcDbLine
 10
148.75
 20
10.0
 30
0.0
 11
148.75
 21
5.0
 31
0.0
1001
AcDbBlockRepETag
1070
     1
1071
       14
1005
2F3
  0
LINE
  5
2F4
330
AB
100
AcDbEntity
  8
0
100
AcDbLine
 10
210.0
 20
0.0
 30
0.0
 11
200.0
 21
0.0
 31
0.0
1001
AcDbBlockRepETag
1070
     1
1071
       15
1005
2F4
  0
LINE
  5
2F5
330
AB
100
AcDbEntity
  8
0
100
AcDbLine
 10
192.5
 20
56.16666666666668
 30
0.0
 11
197.5
 21
56.16666666666668
 31
0.0
1001
AcDbBlockRepETag
1070
     1
1071
       16
1005
2F5
  0
LINE
  5
2F6
330
AB
100
AcDbEntity
  8
0
100
AcDbLine
 10
192.5
 20
102.3333333333333
 30
0.0
 11
197.5
 21
102.3333333333333
 31
0.0
1001
AcDbBlockRepETag
1070
     1
1071
       17
1005
2F6
  0
LINE
  5
2F7
330
AB
100
AcDbEntity
  8
0
100
AcDbLine
 10
192.5
 20
148.5
 30
0.0
 11
210.0
 21
148.5
 31
0.0
1001
AcDbBlockRepETag
1070
     1
1071
       18
1005
2F7
  0
LINE
  5
2F8
330
AB
100
AcDbEntity
  8
0
100
AcDbLine
 10
192.5
 20
148.5
 30
0.0
 11
197.5
 21
148.5
 31
0.0
1001
AcDbBlockRepETag
1070
     1
1071
       19
1005
2F8
  0
LINE
  5
2F9
330
AB
100
AcDbEntity
  8
0
100
AcDbLine
 10
17.5
 20
287.0
 30
0.0
 11
192.5
 21
287.0
 31
0.0
1001
AcDbBlockRepETag
1070
     1
1071
       20
1005
2F9
  0
LINE
  5
2FA
330
AB
100
AcDbEntity
  8
0
100
AcDbLine
 10
17.5
 20
194.6666666666666
 30
0.0
 11
12.5
 21
194.6666666666666
 31
0.0
1001
AcDbBlockRepETag
1070
     1
1071
       21
1005
2FA
  0
LINE
  5
2FB
330
AB
100
AcDbEntity
  8
0
100
AcDbLine
 10
17.5
 20
240.8333333333333
 30
0.0
 11
12.5
 21
240.8333333333333
 31
0.0
1001
AcDbBlockRepETag
1070
     1
1071
       22
1005
2FB
  0
LINE
  5
2FC
330
AB
100
AcDbEntity
  8
0
100
AcDbLine
 10
61.25
 20
287.0
 30
0.0
 11
61.25
 21
292.0
 31
0.0
1001
AcDbBlockRepETag
1070
     1
1071
       24
1005
2FC
  0
ATTDEF
  5
2FD
330
AB
100
AcDbEntity
  8
0
 62
     0
380
     1
100
AcDbText
 10
17.5
 20
293.0
 30
0.0
 40
3.0
  1

  7
Roman
100
AcDbAttributeDefinition
  3
Author:
  2
USER
 70
     8
1001
AcDbBlockRepETag
1070
     1
1071
       25
1005
0
  0
LINE
  5
2FE
330
AB
100
AcDbEntity
  8
0
100
AcDbLine
 10
192.5
 20
194.6666666666667
 30
0.0
 11
197.5
 21
194.6666666666667
 31
0.0
1001
AcDbBlockRepETag
1070
     1
1071
       26
1005
2FE
  0
LINE
  5
2FF
330
AB
100
AcDbEntity
  8
0
100
AcDbLine
 10
192.5
 20
240.8333333333334
 30
0.0
 11
197.5
 21
240.8333333333334
 31
0.0
1001
AcDbBlockRepETag
1070
     1
1071
       27
1005
2FF
  0
ATTDEF
  5
300
330
AB
100
AcDbEntity
  8
0
 62
     0
380
     1
100
AcDbText
 10
125.5
 20
293.0
 30
0.0
 40
3.0
  1

  7
Roman
100
AcDbAttributeDefinition
  3
File name:
  2
FNAME
 70
     8
1001
AcDbBlockRepETag
1070
     1
1071
       28
1005
0
  0
LINE
  5
301
330
AB
100
AcDbEntity
  8
0
100
AcDbLine
 10
105.0
 20
287.0
 30
0.0
 11
105.0
 21
297.0
 31
0.0
1001
AcDbBlockRepETag
1070
     1
1071
       29
1005
301
  0
LINE
  5
302
330
AB
100
AcDbEntity
  8
0
100
AcDbLine
 10
105.0
 20
287.0
 30
0.0
 11
105.0
 21
292.0
 31
0.0
1001
AcDbBlockRepETag
1070
     1
1071
       30
1005
302
  0
ATTDEF
  5
303
330
AB
100
AcDbEntity
  8
0
 62
     0
380
     1
100
AcDbText
 10
77.5
 20
293.0
 30
0.0
 40
3.0
  1

  7
Roman
100
AcDbAttributeDefinition
  3
Revision date:
  2
REVDATE
 70
     8
1001
AcDbBlockRepETag
1070
     1
1071
       31
1005
0
  0
LINE
  5
304
330
AB
100
AcDbEntity
  8
0
100
AcDbLine
 10
210.0
 20
297.0
 30
0.0
 11
210.0
 21
287.0
 31
0.0
1001
AcDbBlockRepETag
1070
     1
1071
       32
1005
304
  0
LINE
  5
305
330
AB
100
AcDbEntity
  8
0
100
AcDbLine
 10
148.75
 20
287.0
 30
0.0
 11
148.75
 21
292.0
 31
0.0
1001
AcDbBlockRepETag
1070
     1
1071
       33
1005
305
  0
LINE
  5
306
330
AB
100
AcDbEntity
  8
0
100
AcDbLine
 10
200.0
 20
297.0
 30
0.0
 11
210.0
 21
297.0
 31
0.0
1001
AcDbBlockRepETag
1070
     1
1071
       34
1005
306
  0
TEXT
  5
307
330
AB
100
AcDbEntity
  8
0
100
AcDbText
 10
13.87568307432493
 20
120.75
 30
0.0
 40
3.0
  1
D
  7
Roman
 72
     1
 11
15.4471116457535
 21
120.75
 31
0.0
100
AcDbText
1001
AcDbBlockRepETag
1070
     1
1071
       35
1005
307
  0
TEXT
  5
308
330
AB
100
AcDbEntity
  8
0
100
AcDbText
 10
13.9471116457535
 20
168.25
 30
0.0
 40
3.0
  1
C
  7
Roman
 72
     1
 11
15.4471116457535
 21
168.25
 31
0.0
100
AcDbText
1001
AcDbBlockRepETag
1070
     1
1071
       36
1005
308
  0
TEXT
  5
309
330
AB
100
AcDbEntity
  8
0
100
AcDbText
 10
13.87568307432493
 20
215.75
 30
0.0
 40
3.0
  1
B
  7
Roman
 72
     1
 11
15.4471116457535
 21
215.75
 31
0.0
100
AcDbText
1001
AcDbBlockRepETag
1070
     1
1071
       37
1005
309
  0
TEXT
  5
30A
330
AB
100
AcDbEntity
  8
0
100
AcDbText
 10
14.16139736003921
 20
263.25
 30
0.0
 40
3.0
  1
A
  7
Roman
 72
     1
 11
15.4471116457535
 21
263.25
 31
0.0
100
AcDbText
1001
AcDbBlockRepETag
1070
     1
1071
       38
1005
30A
  0
TEXT
  5
30B
330
AB
100
AcDbEntity
  8
0
100
AcDbText
 10
38.11904761904761
 20
288.0
 30
0.0
 40
3.0
  1
1
  7
Roman
 72
     1
 11
39.33333333333332
 21
288.0
 31
0.0
100
AcDbText
1001
AcDbBlockRepETag
1070
     1
1071
       39
1005
30B
  0
TEXT
  5
30C
330
AB
100
AcDbEntity
  8
0
100
AcDbText
 10
81.57142857142856
 20
288.0
 30
0.0
 40
3.0
  1
2
  7
Roman
 72
     1
 11
83.0
 21
288.0
 31
0.0
100
AcDbText
1001
AcDbBlockRepETag
1070
     1
1071
       40
1005
30C
  0
TEXT
  5
30D
330
AB
100
AcDbEntity
  8
0
100
AcDbText
 10
125.2380952380953
 20
288.0
 30
0.0
 40
3.0
  1
3
  7
Roman
 72
     1
 11
126.6666666666667
 21
288.0
 31
0.0
100
AcDbText
1001
AcDbBlockRepETag
1070
     1
1071
       41
1005
30D
  0
TEXT
  5
30E
330
AB
100
AcDbEntity
  8
0
100
AcDbText
 10
168.8333333333333
 20
288.0
 30
0.0
 40
3.0
  1
4
  7
Roman
 72
     1
 11
170.3333333333333
 21
288.0
 31
0.0
100
AcDbText
1001
AcDbBlockRepETag
1070
     1
1071
       42
1005
30E
  0
TEXT
  5
30F
330
AB
100
AcDbEntity
  8
0
100
AcDbText
 10
13.9471116457535
 20
28.41666666666668
 30
0.0
 40
3.0
  1
F
  7
Roman
 72
     1
 11
15.4471116457535
 21
28.41666666666668
 31
0.0
100
AcDbText
1001
AcDbBlockRepETag
1070
     1
1071
       43
1005
30F
  0
TEXT
  5
310
330
AB
100
AcDbEntity
  8
0
100
AcDbText
 10
13.9471116457535
 20
75.91666666666668
 30
0.0
 40
3.0
  1
E
  7
Roman
 72
     1
 11
15.4471116457535
 21
75.91666666666668
 31
0.0
100
AcDbText
1001
AcDbBlockRepETag
1070
     1
1071
       44
1005
310
  0
LINE
  5
311
330
AB
100
AcDbEntity
  8
0
100
AcDbLine
 10
192.4978723404242
 20
19.0
 30
0.0
 11
75.49787234042418
 21
19.0
 31
0.0
1001
AcDbBlockRepETag
1070
     1
1071
      166
1005
311
  0
LINE
  5
312
330
AB
100
AcDbEntity
  8
0
100
AcDbLine
 10
115.4978723404242
 20
28.0
 30
0.0
 11
75.49787234042418
 21
28.0
 31
0.0
1001
AcDbBlockRepETag
1070
     1
1071
      168
1005
312
  0
LINE
  5
313
330
AB
100
AcDbEntity
  8
0
100
AcDbLine
 10
192.4978723404242
 20
37.0
 30
0.0
 11
75.49787234042418
 21
37.0
 31
0.0
1001
AcDbBlockRepETag
1070
     1
1071
      169
1005
313
  0
LINE
  5
314
330
AB
100
AcDbEntity
  8
0
100
AcDbLine
 10
192.4978723404242
 20
46.0
 30
0.0
 11
75.49787234042418
 21
46.0
 31
0.0
1001
AcDbBlockRepETag
1070
     1
1071
      170
1005
314
  0
MTEXT
  5
315
330
AB
100
AcDbEntity
  8
0
100
AcDbMText
 10
100.9978723404242
 20
14.5
 30
0.0
 40
4.0
 41
51.0
 71
     5
 72
     5
  1
富国石油株式会社
 73
     1
 44
1.0
1001
AcDbBlockRepETag
1070
     1
1071
      171
1005
315
1001
ACAD
1000
MTEXTBEGIN
1070
    73
1070
     1
1070
    44
1040
1.0
1070
    74
1070
     0
1000
MTEXTEND
  0
MTEXT
  5
316
102
{ACAD_XDICTIONARY
360
140CE
102
}
330
AB
100
AcDbEntity
  8
0
100
AcDbMText
 10
78.47796344079569
 20
23.5
 30
0.0
 40
2.0
 41
3.96018220074299
 71
     5
 72
     5
  1
検\P図
 73
     1
 44
1.0
1001
AcDbBlockRepETag
1070
     1
1071
      172
1005
316
1001
ACAD
1000
MTEXTBEGIN
1070
    73
1070
     1
1070
    44
1040
1.0
1070
    74
1070
     0
1000
MTEXTEND
1000
ACAD_MTEXT_DEFINED_HEIGHT_BEGIN
1070
    46
1040
9.0
1000
ACAD_MTEXT_DEFINED_HEIGHT_END
  0
MTEXT
  5
317
330
AB
100
AcDbEntity
  8
0
100
AcDbMText
 10
78.47796344079569
 20
32.5
 30
0.0
 40
2.0
 41
3.96018220074299
 71
     5
 72
     5
  1
確\P認
 73
     1
 44
1.0
1001
AcDbBlockRepETag
1070
     1
1071
      173
1005
317
1001
ACAD
1000
MTEXTBEGIN
1070
    73
1070
     1
1070
    44
1040
1.0
1070
    74
1070
     0
1000
MTEXTEND
1000
ACAD_MTEXT_DEFINED_HEIGHT_BEGIN
1070
    46
1040
9.0
1000
ACAD_MTEXT_DEFINED_HEIGHT_END
  0
MTEXT
  5
318
330
AB
100
AcDbEntity
  8
0
100
AcDbMText
 10
78.47796344079569
 20
41.5
 30
0.0
 40
2.0
 41
3.96018220074299
 71
     5
 72
     5
  1
縮\P尺
 73
     1
 44
1.0
1001
AcDbBlockRepETag
1070
     1
1071
      174
1005
318
1001
ACAD
1000
MTEXTBEGIN
1070
    73
1070
     1
1070
    44
1040
1.0
1070
    74
1070
     0
1000
MTEXTEND
1000
ACAD_MTEXT_DEFINED_HEIGHT_BEGIN
1070
    46
1040
9.0
1000
ACAD_MTEXT_DEFINED_HEIGHT_END
  0
LINE
  5
319
330
AB
100
AcDbEntity
  8
0
100
AcDbLine
 10
95.49787234042415
 20
19.0
 30
0.0
 11
95.49787234042415
 21
46.0
 31
0.0
1001
AcDbBlockRepETag
1070
     1
1071
      175
1005
319
  0
LINE
  5
31A
330
AB
100
AcDbEntity
  8
0
100
AcDbLine
 10
115.4978723404242
 20
19.0
 30
0.0
 11
115.4978723404242
 21
46.0
 31
0.0
1001
AcDbBlockRepETag
1070
     1
1071
      176
1005
31A
  0
LINE
  5
31B
330
AB
100
AcDbEntity
  8
0
100
AcDbLine
 10
147.4978723404241
 20
37.0
 30
0.0
 11
147.4978723404241
 21
46.0
 31
0.0
1001
AcDbBlockRepETag
1070
     1
1071
      194
1005
31B
  0
MTEXT
  5
31C
330
AB
100
AcDbEntity
  8
0
100
AcDbMText
 10
98.47796344079569
 20
32.5
 30
0.0
 40
2.0
 41
3.96018220074299
 71
     5
 72
     5
  1
設\P計
 73
     1
 44
1.0
1001
AcDbBlockRepETag
1070
     1
1071
      177
1005
31C
1001
ACAD
1000
MTEXTBEGIN
1070
    73
1070
     1
1070
    44
1040
1.0
1070
    74
1070
     0
1000
MTEXTEND
1000
ACAD_MTEXT_DEFINED_HEIGHT_BEGIN
1070
    46
1040
9.0
1000
ACAD_MTEXT_DEFINED_HEIGHT_END
  0
MTEXT
  5
31D
330
AB
100
AcDbEntity
  8
0
100
AcDbMText
 10
98.47796344079569
 20
23.5
 30
0.0
 40
2.0
 41
3.96018220074299
 71
     5
 72
     5
  1
製\P図
 73
     1
 44
1.0
1001
AcDbBlockRepETag
1070
     1
1071
      178
1005
31D
1001
ACAD
1000
MTEXTBEGIN
1070
    73
1070
     1
1070
    44
1040
1.0
1070
    74
1070
     0
1000
MTEXTEND
1000
ACAD_MTEXT_DEFINED_HEIGHT_BEGIN
1070
    46
1040
9.0
1000
ACAD_MTEXT_DEFINED_HEIGHT_END
  0
MTEXT
  5
31E
330
AB
100
AcDbEntity
  8
0
100
AcDbMText
 10
118.4779634407957
 20
41.5
 30
0.0
 40
2.0
 41
3.96018220074299
 71
     5
 72
     5
  1
材\P料
 73
     1
 44
1.0
1001
AcDbBlockRepETag
1070
     1
1071
      179
1005
31E
1001
ACAD
1000
MTEXTBEGIN
1070
    73
1070
     1
1070
    44
1040
1.0
1070
    74
1070
     0
1000
MTEXTEND
1000
ACAD_MTEXT_DEFINED_HEIGHT_BEGIN
1070
    46
1040
9.0
1000
ACAD_MTEXT_DEFINED_HEIGHT_END
  0
LINE
  5
31F
330
AB
100
AcDbEntity
  8
0
  6
HIDDEN2
 48
0.5
100
AcDbLine
 10
192.4978723404242
 20
32.5
 30
0.0
 11
115.4978723404242
 21
32.5
 31
0.0
1001
AcDbBlockRepETag
1070
     1
1071
      180
1005
31F
  0
POINT
  5
320
330
AB
100
AcDbEntity
  8
0
100
AcDbPoint
 10
101.2478723404242
 20
37.0
 30
0.0
1001
AcDbBlockRepETag
1070
     1
1071
      189
1005
320
  0
POINT
  5
321
330
AB
100
AcDbEntity
  8
0
100
AcDbPoint
 10
101.2478723404242
 20
28.0
 30
0.0
1001
AcDbBlockRepETag
1070
     1
1071
      190
1005
321
  0
MTEXT
  5
322
330
AB
100
AcDbEntity
  8
0
100
AcDbMText
 10
108.3728723404242
 20
23.5
 30
0.0
 40
3.0
 41
14.25
 71
     5
 72
     5
  1
齊藤
 73
     1
 44
1.0
1001
AcDbBlockRepETag
1070
     1
1071
      192
1005
322
1001
ACAD
1000
MTEXTBEGIN
1070
    73
1070
     1
1070
    44
1040
1.0
1070
    74
1070
     0
1000
MTEXTEND
1000
ACAD_MTEXT_DEFINED_HEIGHT_BEGIN
1070
    46
1040
9.0
1000
ACAD_MTEXT_DEFINED_HEIGHT_END
  0
TEXT
  5
323
330
AB
100
AcDbEntity
  8
0
100
AcDbText
 10
38.45238095238097
 20
6.230338100985591
 30
0.0
 40
3.0
  1
1
  7
Roman
 72
     1
 11
39.66666666666668
 21
6.230338100985591
 31
0.0
100
AcDbText
1001
AcDbBlockRepETag
1070
     1
1071
       45
1005
323
  0
TEXT
  5
324
330
AB
100
AcDbEntity
  8
0
100
AcDbText
 10
81.90476190476188
 20
6.230338100985591
 30
0.0
 40
3.0
  1
2
  7
Roman
 72
     1
 11
83.33333333333332
 21
6.230338100985591
 31
0.0
100
AcDbText
1001
AcDbBlockRepETag
1070
     1
1071
       46
1005
324
  0
TEXT
  5
325
330
AB
100
AcDbEntity
  8
0
100
AcDbText
 10
125.5714285714286
 20
6.230338100985591
 30
0.0
 40
3.0
  1
3
  7
Roman
 72
     1
 11
127.0
 21
6.230338100985591
 31
0.0
100
AcDbText
1001
AcDbBlockRepETag
1070
     1
1071
       47
1005
325
  0
TEXT
  5
326
330
AB
100
AcDbEntity
  8
0
100
AcDbText
 10
169.1666666666667
 20
6.230338100985591
 30
0.0
 40
3.0
  1
4
  7
Roman
 72
     1
 11
170.6666666666667
 21
6.230338100985591
 31
0.0
100
AcDbText
1001
AcDbBlockRepETag
1070
     1
1071
       48
1005
326
  0
TEXT
  5
327
330
AB
100
AcDbEntity
  8
0
100
AcDbText
 10
193.2387724536951
 20
33.75
 30
0.0
 40
3.0
  1
F
  7
Roman
 72
     1
 11
194.7387724536952
 21
33.75
 31
0.0
100
AcDbText
1001
AcDbBlockRepETag
1070
     1
1071
       49
1005
327
  0
TEXT
  5
328
330
AB
100
AcDbEntity
  8
0
100
AcDbText
 10
193.2387724536951
 20
81.25
 30
0.0
 40
3.0
  1
E
  7
Roman
 72
     1
 11
194.7387724536952
 21
81.25
 31
0.0
100
AcDbText
1001
AcDbBlockRepETag
1070
     1
1071
       50
1005
328
  0
TEXT
  5
329
330
AB
100
AcDbEntity
  8
0
100
AcDbText
 10
193.1673438822666
 20
221.0833333333333
 30
0.0
 40
3.0
  1
B
  7
Roman
 72
     1
 11
194.7387724536952
 21
221.0833333333333
 31
0.0
100
AcDbText
1001
AcDbBlockRepETag
1070
     1
1071
       51
1005
329
  0
TEXT
  5
32A
330
AB
100
AcDbEntity
  8
0
100
AcDbText
 10
193.4530581679809
 20
268.5833333333333
 30
0.0
 40
3.0
  1
A
  7
Roman
 72
     1
 11
194.7387724536952
 21
268.5833333333333
 31
0.0
100
AcDbText
1001
AcDbBlockRepETag
1070
     1
1071
       52
1005
32A
  0
LINE
  5
32B
330
AB
100
AcDbEntity
  8
0
100
AcDbLine
 10
75.49787234042418
 20
10.0
 30
0.0
 11
75.49787234042418
 21
46.0
 31
0.0
1001
AcDbBlockRepETag
1070
     1
1071
      162
1005
32B
  0
LINE
  5
32C
330
AB
100
AcDbEntity
  8
0
100
AcDbLine
 10
126.4978723404242
 20
10.0
 30
0.0
 11
126.4978723404242
 21
19.0
 31
0.0
1001
AcDbBlockRepETag
1070
     1
1071
      167
1005
32C
  0
TEXT
  5
32D
330
AB
100
AcDbEntity
  8
0
100
AcDbText
 10
193.1673438822666
 20
126.0833333333333
 30
0.0
 40
3.0
  1
D
  7
Roman
 72
     1
 11
194.7387724536952
 21
126.0833333333333
 31
0.0
100
AcDbText
1001
AcDbBlockRepETag
1070
     1
1071
       54
1005
32D
  0
TEXT
  5
32E
330
AB
100
AcDbEntity
  8
0
100
AcDbText
 10
193.2387724536951
 20
173.5833333333333
 30
0.0
 40
3.0
  1
C
  7
Roman
 72
     1
 11
194.7387724536952
 21
173.5833333333333
 31
0.0
100
AcDbText
1001
AcDbBlockRepETag
1070
     1
1071
       53
1005
32E
  0
ENDBLK
  5
117
330
AB
100
AcDbEntity
  8
0
100
AcDbBlockEnd
  0
BLOCK
  5
340
330
33F
100
AcDbEntity
  8
0
100
AcDbBlockBegin
  2
_Open30
 70
     0
 10
0.0
 20
0.0
 30
0.0
  3
_Open30
  1

  0
LINE
  5
341
330
33F
100
AcDbEntity
  8
0
  6
ByBlock
 62
     0
370
    -2
100
AcDbLine
 10
-1.0
 20
0.26794919
 30
0.0
 11
0.0
 21
0.0
 31
0.0
  0
LINE
  5
342
330
33F
100
AcDbEntity
  8
0
  6
ByBlock
 62
     0
370
    -2
100
AcDbLine
 10
0.0
 20
0.0
 30
0.0
 11
-1.0
 21
-0.26794919
 31
0.0
  0
LINE
  5
343
330
33F
100
AcDbEntity
  8
0
  6
ByBlock
 62
     0
370
    -2
100
AcDbLine
 10
0.0
 20
0.0
 30
0.0
 11
-1.0
 21
0.0
 31
0.0
  0
ENDBLK
  5
344
330
33F
100
AcDbEntity
  8
0
100
AcDbBlockEnd
  0
BLOCK
  5
4EA
330
4E7
100
AcDbEntity
  8
0
100
AcDbBlockBegin
  2
JIS A3 title block
 70
     2
 10
0.0
 20
0.0
 30
0.0
  3
JIS A3 title block
  1

  4
JIS A3 title block and attributes
  0
LINE
  5
4EB
330
4E7
100
AcDbEntity
  8
0
100
AcDbLine
 10
402.5
 20
10.0
 30
0.0
 11
17.49999999999999
 21
10.0
 31
0.0
1001
AcDbBlockRepETag
1070
     1
1071
        0
1005
4EB
  0
LINE
  5
4EC
330
4E7
100
AcDbEntity
  8
0
100
AcDbLine
 10
17.5
 20
287.0
 30
0.0
 11
402.5
 21
287.0
 31
0.0
1001
AcDbBlockRepETag
1070
     1
1071
        1
1005
4EC
  0
LINE
  5
4ED
330
4E7
100
AcDbEntity
  8
0
100
AcDbLine
 10
25.0
 20
0.0
 30
0.0
 11
0.0
 21
0.0
 31
0.0
1001
AcDbBlockRepETag
1070
     1
1071
        3
1005
4ED
  0
LINE
  5
4EE
330
4E7
100
AcDbEntity
  8
0
100
AcDbLine
 10
0.0
 20
0.0
 30
0.0
 11
0.0
 21
10.0
 31
0.0
1001
AcDbBlockRepETag
1070
     1
1071
        4
1005
4EE
  0
LINE
  5
4EF
330
4E7
100
AcDbEntity
  8
0
100
AcDbLine
 10
65.625
 20
10.0
 30
0.0
 11
65.625
 21
5.0
 31
0.0
1001
AcDbBlockRepETag
1070
     1
1071
        5
1005
4EF
  0
TEXT
  5
4F0
330
4E7
100
AcDbEntity
  8
0
100
AcDbText
 10
40.34821428571429
 20
6.019997240728746
 30
0.0
 40
3.0
  1
1
  7
Roman
 72
     1
 11
41.5625
 21
6.019997240728746
 31
0.0
100
AcDbText
1001
AcDbBlockRepETag
1070
     1
1071
        6
1005
4F0
  0
ATTDEF
  5
4F1
330
4E7
100
AcDbEntity
  8
0
 62
     0
380
     1
100
AcDbText
 10
11.49999999999999
 20
10.0
 30
0.0
 40
3.0
  1

 50
90.0
  7
Roman
100
AcDbAttributeDefinition
  3
Author:
  2
USER
 70
     8
1001
AcDbBlockRepETag
1070
     1
1071
        7
1005
0
  0
TEXT
  5
4F2
330
4E7
100
AcDbEntity
  8
0
100
AcDbText
 10
13.60716135953388
 20
33.08333333333334
 30
0.0
 40
3.0
  1
F
  7
Roman
 72
     1
 11
15.10716135953388
 21
33.08333333333334
 31
0.0
100
AcDbText
1001
AcDbBlockRepETag
1070
     1
1071
        8
1005
4F2
  0
LINE
  5
4F3
330
4E7
100
AcDbEntity
  8
0
100
AcDbLine
 10
17.49999999999999
 20
148.5
 30
0.0
 11
0.0
 21
148.5
 31
0.0
1001
AcDbBlockRepETag
1070
     1
1071
        9
1005
4F3
  0
ATTDEF
  5
4F4
330
4E7
100
AcDbEntity
  8
0
 62
     0
380
     1
100
AcDbText
 10
11.49999999999999
 20
70.0
 30
0.0
 40
3.0
  1

 50
90.0
  7
Roman
100
AcDbAttributeDefinition
  3
Revision date:
  2
REVDATE
 70
     8
1001
AcDbBlockRepETag
1070
     1
1071
       10
1005
0
  0
LINE
  5
4F5
330
4E7
100
AcDbEntity
  8
0
100
AcDbLine
 10
17.49999999999999
 20
56.16666666666667
 30
0.0
 11
12.49999999999999
 21
56.16666666666667
 31
0.0
1001
AcDbBlockRepETag
1070
     1
1071
       11
1005
4F5
  0
TEXT
  5
4F6
330
4E7
100
AcDbEntity
  8
0
100
AcDbText
 10
13.60716135953388
 20
79.25
 30
0.0
 40
3.0
  1
E
  7
Roman
 72
     1
 11
15.10716135953388
 21
79.25
 31
0.0
100
AcDbText
1001
AcDbBlockRepETag
1070
     1
1071
       12
1005
4F6
  0
ATTDEF
  5
4F7
330
4E7
100
AcDbEntity
  8
0
 62
     0
380
     1
100
AcDbText
 10
11.49999999999999
 20
118.0
 30
0.0
 40
3.0
  1

 50
90.0
  7
Roman
100
AcDbAttributeDefinition
  3
File name:
  2
FNAME
 70
     8
1001
AcDbBlockRepETag
1070
     1
1071
       13
1005
0
  0
LINE
  5
4F8
330
4E7
100
AcDbEntity
  8
0
100
AcDbLine
 10
17.49999999999999
 20
102.3333333333333
 30
0.0
 11
12.49999999999999
 21
102.3333333333333
 31
0.0
1001
AcDbBlockRepETag
1070
     1
1071
       14
1005
4F8
  0
TEXT
  5
4F9
330
4E7
100
AcDbEntity
  8
0
100
AcDbText
 10
13.53573278810531
 20
125.4166666666666
 30
0.0
 40
3.0
  1
D
  7
Roman
 72
     1
 11
15.10716135953388
 21
125.4166666666666
 31
0.0
100
AcDbText
1001
AcDbBlockRepETag
1070
     1
1071
       15
1005
4F9
  0
LINE
  5
4FA
330
4E7
100
AcDbEntity
  8
0
100
AcDbLine
 10
17.49999999999999
 20
148.5
 30
0.0
 11
12.49999999999999
 21
148.5
 31
0.0
1001
AcDbBlockRepETag
1070
     1
1071
       16
1005
4FA
  0
TEXT
  5
4FB
330
4E7
100
AcDbEntity
  8
0
100
AcDbText
 10
136.3839285714286
 20
6.019997240728746
 30
0.0
 40
3.0
  1
3
  7
Roman
 72
     1
 11
137.8125
 21
6.019997240728746
 31
0.0
100
AcDbText
1001
AcDbBlockRepETag
1070
     1
1071
       17
1005
4FB
  0
LINE
  5
4FC
330
4E7
100
AcDbEntity
  8
0
100
AcDbLine
 10
113.75
 20
10.0
 30
0.0
 11
113.75
 21
5.0
 31
0.0
1001
AcDbBlockRepETag
1070
     1
1071
       18
1005
4FC
  0
TEXT
  5
4FD
330
4E7
100
AcDbEntity
  8
0
100
AcDbText
 10
88.25892857142857
 20
6.019997240728746
 30
0.0
 40
3.0
  1
2
  7
Roman
 72
     1
 11
89.6875
 21
6.019997240728746
 31
0.0
100
AcDbText
1001
AcDbBlockRepETag
1070
     1
1071
       19
1005
4FD
  0
LINE
  5
4FE
330
4E7
100
AcDbEntity
  8
0
100
AcDbLine
 10
161.875
 20
10.0
 30
0.0
 11
161.875
 21
5.0
 31
0.0
1001
AcDbBlockRepETag
1070
     1
1071
       20
1005
4FE
  0
TEXT
  5
4FF
330
4E7
100
AcDbEntity
  8
0
100
AcDbText
 10
184.4375
 20
6.019997240728746
 30
0.0
 40
3.0
  1
4
  7
Roman
 72
     1
 11
185.9375
 21
6.019997240728746
 31
0.0
100
AcDbText
1001
AcDbBlockRepETag
1070
     1
1071
       21
1005
4FF
  0
TEXT
  5
500
330
4E7
100
AcDbEntity
  8
0
100
AcDbText
 10
13.60716135953388
 20
171.5833333333333
 30
0.0
 40
3.0
  1
C
  7
Roman
 72
     1
 11
15.10716135953388
 21
171.5833333333333
 31
0.0
100
AcDbText
1001
AcDbBlockRepETag
1070
     1
1071
       22
1005
500
  0
LINE
  5
501
330
4E7
100
AcDbEntity
  8
0
100
AcDbLine
 10
17.49999999999999
 20
194.6666666666666
 30
0.0
 11
12.49999999999999
 21
194.6666666666666
 31
0.0
1001
AcDbBlockRepETag
1070
     1
1071
       23
1005
501
  0
TEXT
  5
502
330
4E7
100
AcDbEntity
  8
0
100
AcDbText
 10
13.53573278810531
 20
217.75
 30
0.0
 40
3.0
  1
B
  7
Roman
 72
     1
 11
15.10716135953388
 21
217.75
 31
0.0
100
AcDbText
1001
AcDbBlockRepETag
1070
     1
1071
       24
1005
502
  0
LINE
  5
503
330
4E7
100
AcDbEntity
  8
0
100
AcDbLine
 10
17.49999999999999
 20
240.8333333333333
 30
0.0
 11
12.49999999999999
 21
240.8333333333333
 31
0.0
1001
AcDbBlockRepETag
1070
     1
1071
       25
1005
503
  0
LINE
  5
504
330
4E7
100
AcDbEntity
  8
0
100
AcDbLine
 10
0.0
 20
297.0
 30
0.0
 11
25.0
 21
297.0
 31
0.0
1001
AcDbBlockRepETag
1070
     1
1071
       26
1005
504
  0
LINE
  5
505
330
4E7
100
AcDbEntity
  8
0
100
AcDbLine
 10
0.0
 20
287.0
 30
0.0
 11
0.0
 21
297.0
 31
0.0
1001
AcDbBlockRepETag
1070
     1
1071
       27
1005
505
  0
LINE
  5
506
330
4E7
100
AcDbEntity
  8
0
100
AcDbLine
 10
65.625
 20
287.0
 30
0.0
 11
65.625
 21
292.0
 31
0.0
1001
AcDbBlockRepETag
1070
     1
1071
       28
1005
506
  0
TEXT
  5
507
330
4E7
100
AcDbEntity
  8
0
100
AcDbText
 10
13.82144707381959
 20
263.9166666666666
 30
0.0
 40
3.0
  1
A
  7
Roman
 72
     1
 11
15.10716135953388
 21
263.9166666666666
 31
0.0
100
AcDbText
1001
AcDbBlockRepETag
1070
     1
1071
       29
1005
507
  0
TEXT
  5
508
330
4E7
100
AcDbEntity
  8
0
100
AcDbText
 10
40.34821428571429
 20
288.0
 30
0.0
 40
3.0
  1
1
  7
Roman
 72
     1
 11
41.5625
 21
288.0
 31
0.0
100
AcDbText
1001
AcDbBlockRepETag
1070
     1
1071
       30
1005
508
  0
TEXT
  5
509
330
4E7
100
AcDbEntity
  8
0
100
AcDbText
 10
136.3839285714286
 20
288.0
 30
0.0
 40
3.0
  1
3
  7
Roman
 72
     1
 11
137.8125
 21
288.0
 31
0.0
100
AcDbText
1001
AcDbBlockRepETag
1070
     1
1071
       31
1005
509
  0
LINE
  5
50A
330
4E7
100
AcDbEntity
  8
0
100
AcDbLine
 10
113.75
 20
287.0
 30
0.0
 11
113.75
 21
292.0
 31
0.0
1001
AcDbBlockRepETag
1070
     1
1071
       32
1005
50A
  0
TEXT
  5
50B
330
4E7
100
AcDbEntity
  8
0
100
AcDbText
 10
88.25892857142857
 20
288.0
 30
0.0
 40
3.0
  1
2
  7
Roman
 72
     1
 11
89.6875
 21
288.0
 31
0.0
100
AcDbText
1001
AcDbBlockRepETag
1070
     1
1071
       33
1005
50B
  0
LINE
  5
50C
330
4E7
100
AcDbEntity
  8
0
100
AcDbLine
 10
161.875
 20
287.0
 30
0.0
 11
161.875
 21
292.0
 31
0.0
1001
AcDbBlockRepETag
1070
     1
1071
       34
1005
50C
  0
TEXT
  5
50D
330
4E7
100
AcDbEntity
  8
0
100
AcDbText
 10
184.4375
 20
288.0
 30
0.0
 40
3.0
  1
4
  7
Roman
 72
     1
 11
185.9375
 21
288.0
 31
0.0
100
AcDbText
1001
AcDbBlockRepETag
1070
     1
1071
       35
1005
50D
  0
LINE
  5
50E
330
4E7
100
AcDbEntity
  8
0
100
AcDbLine
 10
402.5
 20
287.0
 30
0.0
 11
402.5
 21
10.0
 31
0.0
1001
AcDbBlockRepETag
1070
     1
1071
       36
1005
50E
  0
LINE
  5
50F
330
4E7
100
AcDbEntity
  8
0
100
AcDbLine
 10
210.0
 20
10.0
 30
0.0
 11
210.0
 21
0.0
 31
0.0
1001
AcDbBlockRepETag
1070
     1
1071
       37
1005
50F
  0
LINE
  5
510
330
4E7
100
AcDbEntity
  8
0
100
AcDbLine
 10
258.125
 20
10.0
 30
0.0
 11
258.125
 21
5.0
 31
0.0
1001
AcDbBlockRepETag
1070
     1
1071
       39
1005
510
  0
TEXT
  5
511
330
4E7
100
AcDbEntity
  8
0
100
AcDbText
 10
232.6339285714286
 20
6.019997240728746
 30
0.0
 40
3.0
  1
5
  7
Roman
 72
     1
 11
234.0625
 21
6.019997240728746
 31
0.0
100
AcDbText
1001
AcDbBlockRepETag
1070
     1
1071
       40
1005
511
  0
LINE
  5
512
330
4E7
100
AcDbEntity
  8
0
100
AcDbLine
 10
306.25
 20
10.0
 30
0.0
 11
306.25
 21
5.0
 31
0.0
1001
AcDbBlockRepETag
1070
     1
1071
       41
1005
512
  0
TEXT
  5
513
330
4E7
100
AcDbEntity
  8
0
100
AcDbText
 10
280.6875
 20
6.019997240728746
 30
0.0
 40
3.0
  1
6
  7
Roman
 72
     1
 11
282.1875
 21
6.019997240728746
 31
0.0
100
AcDbText
1001
AcDbBlockRepETag
1070
     1
1071
       42
1005
513
  0
TEXT
  5
514
330
4E7
100
AcDbEntity
  8
0
100
AcDbText
 10
328.8839285714285
 20
6.019997240728746
 30
0.0
 40
3.0
  1
7
  7
Roman
 72
     1
 11
330.3125
 21
6.019997240728746
 31
0.0
100
AcDbText
1001
AcDbBlockRepETag
1070
     1
1071
       43
1005
514
  0
LINE
  5
515
330
4E7
100
AcDbEntity
  8
0
100
AcDbLine
 10
354.375
 20
10.0
 30
0.0
 11
354.375
 21
5.0
 31
0.0
1001
AcDbBlockRepETag
1070
     1
1071
       44
1005
515
  0
TEXT
  5
516
330
4E7
100
AcDbEntity
  8
0
100
AcDbText
 10
377.0089285714286
 20
6.019997240728746
 30
0.0
 40
3.0
  1
8
  7
Roman
 72
     1
 11
378.4375
 21
6.019997240728746
 31
0.0
100
AcDbText
1001
AcDbBlockRepETag
1070
     1
1071
       45
1005
516
  0
LINE
  5
517
330
4E7
100
AcDbEntity
  8
0
100
AcDbLine
 10
420.0
 20
10.0
 30
0.0
 11
420.0
 21
0.0
 31
0.0
1001
AcDbBlockRepETag
1070
     1
1071
       46
1005
517
  0
LINE
  5
518
330
4E7
100
AcDbEntity
  8
0
100
AcDbLine
 10
420.0
 20
0.0
 30
0.0
 11
410.0
 21
0.0
 31
0.0
1001
AcDbBlockRepETag
1070
     1
1071
       47
1005
518
  0
LINE
  5
519
330
4E7
100
AcDbEntity
  8
0
 62
     0
380
     1
100
AcDbLine
 10
402.5
 20
49.00000000000036
 30
0.0
 11
402.5
 21
10.0
 31
0.0
1001
AcDbBlockRepETag
1070
     1
1071
       48
1005
519
  0
LINE
  5
51A
330
4E7
100
AcDbEntity
  8
0
 62
     0
380
     1
100
AcDbLine
 10
402.5
 20
10.0
 30
0.0
 11
402.5
 21
49.00000000000036
 31
0.0
1001
AcDbBlockRepETag
1070
     1
1071
       49
1005
51A
  0
TEXT
  5
51B
330
4E7
100
AcDbEntity
  8
0
100
AcDbText
 10
403.8708251683468
 20
33.08333333333334
 30
0.0
 40
3.0
  1
F
  7
Roman
 72
     1
 11
405.3708251683468
 21
33.08333333333334
 31
0.0
100
AcDbText
1001
AcDbBlockRepETag
1070
     1
1071
       50
1005
51B
  0
LINE
  5
51C
330
4E7
100
AcDbEntity
  8
0
100
AcDbLine
 10
402.5
 20
56.16666666666668
 30
0.0
 11
407.5
 21
56.16666666666668
 31
0.0
1001
AcDbBlockRepETag
1070
     1
1071
       51
1005
51C
  0
TEXT
  5
51D
330
4E7
100
AcDbEntity
  8
0
100
AcDbText
 10
403.8708251683468
 20
79.25
 30
0.0
 40
3.0
  1
E
  7
Roman
 72
     1
 11
405.3708251683468
 21
79.25
 31
0.0
100
AcDbText
1001
AcDbBlockRepETag
1070
     1
1071
       52
1005
51D
  0
LINE
  5
51E
330
4E7
100
AcDbEntity
  8
0
100
AcDbLine
 10
402.5
 20
102.3333333333333
 30
0.0
 11
407.5
 21
102.3333333333333
 31
0.0
1001
AcDbBlockRepETag
1070
     1
1071
       53
1005
51E
  0
TEXT
  5
51F
330
4E7
100
AcDbEntity
  8
0
100
AcDbText
 10
403.7993965969183
 20
125.4166666666666
 30
0.0
 40
3.0
  1
D
  7
Roman
 72
     1
 11
405.3708251683468
 21
125.4166666666666
 31
0.0
100
AcDbText
1001
AcDbBlockRepETag
1070
     1
1071
       54
1005
51F
  0
LINE
  5
520
330
4E7
100
AcDbEntity
  8
0
100
AcDbLine
 10
402.5
 20
148.5
 30
0.0
 11
420.0
 21
148.5
 31
0.0
1001
AcDbBlockRepETag
1070
     1
1071
       56
1005
520
  0
LINE
  5
521
330
4E7
100
AcDbEntity
  8
0
100
AcDbLine
 10
210.0
 20
287.0
 30
0.0
 11
210.0
 21
297.0
 31
0.0
1001
AcDbBlockRepETag
1070
     1
1071
       57
1005
521
  0
LINE
  5
522
330
4E7
100
AcDbEntity
  8
0
100
AcDbLine
 10
258.125
 20
287.0
 30
0.0
 11
258.125
 21
292.0
 31
0.0
1001
AcDbBlockRepETag
1070
     1
1071
       58
1005
522
  0
LINE
  5
523
330
4E7
100
AcDbEntity
  8
0
100
AcDbLine
 10
210.0
 20
287.0
 30
0.0
 11
210.0
 21
292.0
 31
0.0
1001
AcDbBlockRepETag
1070
     1
1071
       59
1005
523
  0
TEXT
  5
524
330
4E7
100
AcDbEntity
  8
0
100
AcDbText
 10
232.6339285714286
 20
288.0
 30
0.0
 40
3.0
  1
5
  7
Roman
 72
     1
 11
234.0625
 21
288.0
 31
0.0
100
AcDbText
1001
AcDbBlockRepETag
1070
     1
1071
       60
1005
524
  0
LINE
  5
525
330
4E7
100
AcDbEntity
  8
0
100
AcDbLine
 10
306.25
 20
287.0
 30
0.0
 11
306.25
 21
292.0
 31
0.0
1001
AcDbBlockRepETag
1070
     1
1071
       61
1005
525
  0
TEXT
  5
526
330
4E7
100
AcDbEntity
  8
0
100
AcDbText
 10
280.6875
 20
288.0
 30
0.0
 40
3.0
  1
6
  7
Roman
 72
     1
 11
282.1875
 21
288.0
 31
0.0
100
AcDbText
1001
AcDbBlockRepETag
1070
     1
1071
       62
1005
526
  0
TEXT
  5
527
330
4E7
100
AcDbEntity
  8
0
100
AcDbText
 10
328.8839285714285
 20
288.0
 30
0.0
 40
3.0
  1
7
  7
Roman
 72
     1
 11
330.3125
 21
288.0
 31
0.0
100
AcDbText
1001
AcDbBlockRepETag
1070
     1
1071
       63
1005
527
  0
TEXT
  5
528
330
4E7
100
AcDbEntity
  8
0
100
AcDbText
 10
403.8708251683468
 20
171.5833333333333
 30
0.0
 40
3.0
  1
C
  7
Roman
 72
     1
 11
405.3708251683468
 21
171.5833333333333
 31
0.0
100
AcDbText
1001
AcDbBlockRepETag
1070
     1
1071
       64
1005
528
  0
LINE
  5
529
330
4E7
100
AcDbEntity
  8
0
100
AcDbLine
 10
402.5
 20
194.6666666666667
 30
0.0
 11
407.5
 21
194.6666666666667
 31
0.0
1001
AcDbBlockRepETag
1070
     1
1071
       65
1005
529
  0
TEXT
  5
52A
330
4E7
100
AcDbEntity
  8
0
100
AcDbText
 10
403.7993965969183
 20
217.75
 30
0.0
 40
3.0
  1
B
  7
Roman
 72
     1
 11
405.3708251683468
 21
217.75
 31
0.0
100
AcDbText
1001
AcDbBlockRepETag
1070
     1
1071
       66
1005
52A
  0
LINE
  5
52B
330
4E7
100
AcDbEntity
  8
0
100
AcDbLine
 10
402.5
 20
240.8333333333334
 30
0.0
 11
407.5
 21
240.8333333333334
 31
0.0
1001
AcDbBlockRepETag
1070
     1
1071
       67
1005
52B
  0
LINE
  5
52C
330
4E7
100
AcDbEntity
  8
0
100
AcDbLine
 10
354.375
 20
287.0
 30
0.0
 11
354.375
 21
292.0
 31
0.0
1001
AcDbBlockRepETag
1070
     1
1071
       68
1005
52C
  0
TEXT
  5
52D
330
4E7
100
AcDbEntity
  8
0
100
AcDbText
 10
377.0089285714286
 20
288.0
 30
0.0
 40
3.0
  1
8
  7
Roman
 72
     1
 11
378.4375
 21
288.0
 31
0.0
100
AcDbText
1001
AcDbBlockRepETag
1070
     1
1071
       69
1005
52D
  0
LINE
  5
52E
330
4E7
100
AcDbEntity
  8
0
100
AcDbLine
 10
420.0
 20
297.0
 30
0.0
 11
420.0
 21
287.0
 31
0.0
1001
AcDbBlockRepETag
1070
     1
1071
       70
1005
52E
  0
TEXT
  5
52F
330
4E7
100
AcDbEntity
  8
0
100
AcDbText
 10
404.0851108826325
 20
263.9166666666666
 30
0.0
 40
3.0
  1
A
  7
Roman
 72
     1
 11
405.3708251683468
 21
263.9166666666666
 31
0.0
100
AcDbText
1001
AcDbBlockRepETag
1070
     1
1071
       71
1005
52F
  0
LINE
  5
530
330
4E7
100
AcDbEntity
  8
0
100
AcDbLine
 10
410.0
 20
297.0
 30
0.0
 11
420.0
 21
297.0
 31
0.0
1001
AcDbBlockRepETag
1070
     1
1071
       72
1005
530
  0
LINE
  5
531
330
4E7
100
AcDbEntity
  8
0
100
AcDbLine
 10
286.4978723404242
 20
10.0
 30
0.0
 11
286.4978723404242
 21
10.0
 31
0.0
1001
AcDbBlockRepETag
1070
     1
1071
      161
1005
531
  0
LINE
  5
532
330
4E7
100
AcDbEntity
  8
0
100
AcDbLine
 10
285.4978723404242
 20
10.0
 30
0.0
 11
285.4978723404242
 21
46.0
 31
0.0
1001
AcDbBlockRepETag
1070
     1
1071
      162
1005
532
  0
LINE
  5
533
330
4E7
100
AcDbEntity
  8
0
100
AcDbLine
 10
402.4978723404242
 20
19.0
 30
0.0
 11
285.4978723404242
 21
19.0
 31
0.0
1001
AcDbBlockRepETag
1070
     1
1071
      166
1005
533
  0
LINE
  5
534
330
4E7
100
AcDbEntity
  8
0
100
AcDbLine
 10
336.4978723404242
 20
10.0
 30
0.0
 11
336.4978723404242
 21
19.0
 31
0.0
1001
AcDbBlockRepETag
1070
     1
1071
      167
1005
534
  0
LINE
  5
535
330
4E7
100
AcDbEntity
  8
0
100
AcDbLine
 10
325.4978723404242
 20
28.0
 30
0.0
 11
285.4978723404242
 21
28.0
 31
0.0
1001
AcDbBlockRepETag
1070
     1
1071
      168
1005
535
  0
LINE
  5
536
330
4E7
100
AcDbEntity
  8
0
100
AcDbLine
 10
402.4978723404242
 20
37.0
 30
0.0
 11
285.4978723404242
 21
37.0
 31
0.0
1001
AcDbBlockRepETag
1070
     1
1071
      169
1005
536
  0
LINE
  5
537
330
4E7
100
AcDbEntity
  8
0
100
AcDbLine
 10
402.4978723404242
 20
46.0
 30
0.0
 11
285.4978723404242
 21
46.0
 31
0.0
1001
AcDbBlockRepETag
1070
     1
1071
      170
1005
537
  0
MTEXT
  5
538
330
4E7
100
AcDbEntity
  8
0
100
AcDbMText
 10
310.9978723404242
 20
14.5
 30
0.0
 40
4.0
 41
51.0
 71
     5
 72
     5
  1
富国石油株式会社
 73
     1
 44
1.0
1001
AcDbBlockRepETag
1070
     1
1071
      171
1005
538
1001
ACAD
1000
MTEXTBEGIN
1070
    73
1070
     1
1070
    44
1040
1.0
1070
    74
1070
     0
1000
MTEXTEND
  0
MTEXT
  5
539
102
{ACAD_XDICTIONARY
360
140D2
102
}
330
4E7
100
AcDbEntity
  8
0
100
AcDbMText
 10
288.4779634407957
 20
23.5
 30
0.0
 40
2.0
 41
3.96018220074299
 71
     5
 72
     5
  1
検\P図
 73
     1
 44
1.0
1001
AcDbBlockRepETag
1070
     1
1071
      172
1005
539
1001
ACAD
1000
MTEXTBEGIN
1070
    73
1070
     1
1070
    44
1040
1.0
1070
    74
1070
     0
1000
MTEXTEND
1000
ACAD_MTEXT_DEFINED_HEIGHT_BEGIN
1070
    46
1040
9.0
1000
ACAD_MTEXT_DEFINED_HEIGHT_END
  0
MTEXT
  5
53A
330
4E7
100
AcDbEntity
  8
0
100
AcDbMText
 10
288.4779634407957
 20
32.5
 30
0.0
 40
2.0
 41
3.96018220074299
 71
     5
 72
     5
  1
確\P認
 73
     1
 44
1.0
1001
AcDbBlockRepETag
1070
     1
1071
      173
1005
53A
1001
ACAD
1000
MTEXTBEGIN
1070
    73
1070
     1
1070
    44
1040
1.0
1070
    74
1070
     0
1000
MTEXTEND
1000
ACAD_MTEXT_DEFINED_HEIGHT_BEGIN
1070
    46
1040
9.0
1000
ACAD_MTEXT_DEFINED_HEIGHT_END
  0
MTEXT
  5
53B
330
4E7
100
AcDbEntity
  8
0
100
AcDbMText
 10
288.4779634407957
 20
41.5
 30
0.0
 40
2.0
 41
3.96018220074299
 71
     5
 72
     5
  1
縮\P尺
 73
     1
 44
1.0
1001
AcDbBlockRepETag
1070
     1
1071
      174
1005
53B
1001
ACAD
1000
MTEXTBEGIN
1070
    73
1070
     1
1070
    44
1040
1.0
1070
    74
1070
     0
1000
MTEXTEND
1000
ACAD_MTEXT_DEFINED_HEIGHT_BEGIN
1070
    46
1040
9.0
1000
ACAD_MTEXT_DEFINED_HEIGHT_END
  0
LINE
  5
53C
330
4E7
100
AcDbEntity
  8
0
100
AcDbLine
 10
305.4978723404242
 20
19.0
 30
0.0
 11
305.4978723404242
 21
46.0
 31
0.0
1001
AcDbBlockRepETag
1070
     1
1071
      175
1005
53C
  0
LINE
  5
53D
330
4E7
100
AcDbEntity
  8
0
100
AcDbLine
 10
325.4978723404242
 20
19.0
 30
0.0
 11
325.4978723404242
 21
46.0
 31
0.0
1001
AcDbBlockRepETag
1070
     1
1071
      176
1005
53D
  0
LINE
  5
53E
330
4E7
100
AcDbEntity
  8
0
100
AcDbLine
 10
357.4978723404242
 20
37.0
 30
0.0
 11
357.4978723404242
 21
46.0
 31
0.0
1001
AcDbBlockRepETag
1070
     1
1071
      194
1005
53E
  0
MTEXT
  5
53F
330
4E7
100
AcDbEntity
  8
0
100
AcDbMText
 10
308.4779634407957
 20
32.5
 30
0.0
 40
2.0
 41
3.96018220074299
 71
     5
 72
     5
  1
設\P計
 73
     1
 44
1.0
1001
AcDbBlockRepETag
1070
     1
1071
      177
1005
53F
1001
ACAD
1000
MTEXTBEGIN
1070
    73
1070
     1
1070
    44
1040
1.0
1070
    74
1070
     0
1000
MTEXTEND
1000
ACAD_MTEXT_DEFINED_HEIGHT_BEGIN
1070
    46
1040
9.0
1000
ACAD_MTEXT_DEFINED_HEIGHT_END
  0
MTEXT
  5
540
330
4E7
100
AcDbEntity
  8
0
100
AcDbMText
 10
308.4779634407957
 20
23.5
 30
0.0
 40
2.0
 41
3.96018220074299
 71
     5
 72
     5
  1
製\P図
 73
     1
 44
1.0
1001
AcDbBlockRepETag
1070
     1
1071
      178
1005
540
1001
ACAD
1000
MTEXTBEGIN
1070
    73
1070
     1
1070
    44
1040
1.0
1070
    74
1070
     0
1000
MTEXTEND
1000
ACAD_MTEXT_DEFINED_HEIGHT_BEGIN
1070
    46
1040
9.0
1000
ACAD_MTEXT_DEFINED_HEIGHT_END
  0
MTEXT
  5
541
330
4E7
100
AcDbEntity
  8
0
100
AcDbMText
 10
328.4779634407957
 20
41.5
 30
0.0
 40
2.0
 41
3.96018220074299
 71
     5
 72
     5
  1
材\P料
 73
     1
 44
1.0
1001
AcDbBlockRepETag
1070
     1
1071
      179
1005
541
1001
ACAD
1000
MTEXTBEGIN
1070
    73
1070
     1
1070
    44
1040
1.0
1070
    74
1070
     0
1000
MTEXTEND
1000
ACAD_MTEXT_DEFINED_HEIGHT_BEGIN
1070
    46
1040
9.0
1000
ACAD_MTEXT_DEFINED_HEIGHT_END
  0
LINE
  5
542
330
4E7
100
AcDbEntity
  8
0
  6
HIDDEN2
 48
0.5
100
AcDbLine
 10
402.4978723404242
 20
32.5
 30
0.0
 11
325.4978723404242
 21
32.5
 31
0.0
1001
AcDbBlockRepETag
1070
     1
1071
      180
1005
542
  0
POINT
  5
543
330
4E7
100
AcDbEntity
  8
0
100
AcDbPoint
 10
311.2478723404242
 20
37.0
 30
0.0
1001
AcDbBlockRepETag
1070
     1
1071
      189
1005
543
  0
POINT
  5
544
330
4E7
100
AcDbEntity
  8
0
100
AcDbPoint
 10
311.2478723404242
 20
28.0
 30
0.0
1001
AcDbBlockRepETag
1070
     1
1071
      190
1005
544
  0
LINE
  5
545
330
4E7
100
AcDbEntity
  8
0
100
AcDbLine
 10
17.5
 20
10.0
 30
0.0
 11
17.5
 21
287.0
 31
0.0
1001
AcDbBlockRepETag
1070
     1
1071
       74
1005
545
  0
ENDBLK
  5
546
330
4E7
100
AcDbEntity
  8
0
100
AcDbBlockEnd
  0
BLOCK
  5
6F0
330
6ED
100
AcDbEntity
  8
0
100
AcDbBlockBegin
  2
JIS A4 title block (landscape)
 70
     2
 10
0.0
 20
0.0
 30
0.0
  3
JIS A4 title block (landscape)
  1

  4
JIS A3 title block and attributes
  0
LINE
  5
92E
330
6ED
100
AcDbEntity
  8
0
100
AcDbLine
 10
0.0
 20
297.0
 30
0.0
 11
25.0
 21
297.0
 31
0.0
1001
AcDbBlockRepETag
1070
     1
1071
       26
1005
92E
  0
LINE
  5
92F
330
6ED
100
AcDbEntity
  8
0
100
AcDbLine
 10
0.0
 20
287.0
 30
0.0
 11
0.0
 21
297.0
 31
0.0
1001
AcDbBlockRepETag
1070
     1
1071
       27
1005
92F
  0
LINE
  5
989
330
6ED
100
AcDbEntity
  8
0
100
AcDbLine
 10
279.5
 20
97.0
 30
0.0
 11
17.5
 21
97.0
 31
0.0
1001
AcDbBlockRepETag
1070
     1
1071
        0
1005
989
  0
LINE
  5
98A
330
6ED
100
AcDbEntity
  8
0
100
AcDbLine
 10
17.5
 20
287.0
 30
0.0
 11
279.5
 21
287.0
 31
0.0
1001
AcDbBlockRepETag
1070
     1
1071
        1
1005
98A
  0
LINE
  5
98B
330
6ED
100
AcDbEntity
  8
0
100
AcDbLine
 10
17.5
 20
97.0
 30
0.0
 11
17.5
 21
287.0
 31
0.0
1001
AcDbBlockRepETag
1070
     1
1071
        2
1005
98B
  0
LINE
  5
98C
330
6ED
100
AcDbEntity
  8
0
100
AcDbLine
 10
25.0
 20
87.0
 30
0.0
 11
0.0
 21
87.0
 31
0.0
1001
AcDbBlockRepETag
1070
     1
1071
        3
1005
98C
  0
LINE
  5
98D
330
6ED
100
AcDbEntity
  8
0
100
AcDbLine
 10
0.0
 20
87.0
 30
0.0
 11
0.0
 21
97.0
 31
0.0
1001
AcDbBlockRepETag
1070
     1
1071
        4
1005
98D
  0
LINE
  5
98E
330
6ED
100
AcDbEntity
  8
0
100
AcDbLine
 10
61.16666666666668
 20
97.0
 30
0.0
 11
61.16666666666668
 21
92.0
 31
0.0
1001
AcDbBlockRepETag
1070
     1
1071
        5
1005
98E
  0
TEXT
  5
98F
330
6ED
100
AcDbEntity
  8
0
100
AcDbText
 10
38.11904761904761
 20
93.23033810098564
 30
0.0
 40
3.0
  1
1
  7
Roman
 72
     1
 11
39.33333333333332
 21
93.23033810098564
 31
0.0
100
AcDbText
1001
AcDbBlockRepETag
1070
     1
1071
        6
1005
98F
  0
ATTDEF
  5
990
330
6ED
100
AcDbEntity
  8
0
 62
     0
100
AcDbText
 10
11.5
 20
97.0
 30
0.0
 40
3.0
  1

 50
90.0
  7
Roman
100
AcDbAttributeDefinition
  3
Author:
  2
USER
 70
     8
1001
AcDbBlockRepETag
1070
     1
1071
        7
1005
0
  0
TEXT
  5
991
330
6ED
100
AcDbEntity
  8
0
100
AcDbText
 10
13.87568307432493
 20
120.75
 30
0.0
 40
3.0
  1
D
  7
Roman
 72
     1
 11
15.4471116457535
 21
120.75
 31
0.0
100
AcDbText
1001
AcDbBlockRepETag
1070
     1
1071
        8
1005
991
  0
LINE
  5
992
330
6ED
100
AcDbEntity
  8
0
100
AcDbLine
 10
17.5
 20
192.0
 30
0.0
 11
0.0
 21
192.0
 31
0.0
1001
AcDbBlockRepETag
1070
     1
1071
        9
1005
992
  0
ATTDEF
  5
993
330
6ED
100
AcDbEntity
  8
0
 62
     0
100
AcDbText
 10
11.5
 20
157.0
 30
0.0
 40
3.0
  1

 50
90.0
  7
Roman
100
AcDbAttributeDefinition
  3
Revision date:
  2
REVDATE
 70
     8
1001
AcDbBlockRepETag
1070
     1
1071
       10
1005
0
  0
LINE
  5
994
330
6ED
100
AcDbEntity
  8
0
100
AcDbLine
 10
17.5
 20
144.5
 30
0.0
 11
12.5
 21
144.5
 31
0.0
1001
AcDbBlockRepETag
1070
     1
1071
       11
1005
994
  0
TEXT
  5
995
330
6ED
100
AcDbEntity
  8
0
100
AcDbText
 10
13.9471116457535
 20
168.25
 30
0.0
 40
3.0
  1
C
  7
Roman
 72
     1
 11
15.4471116457535
 21
168.25
 31
0.0
100
AcDbText
1001
AcDbBlockRepETag
1070
     1
1071
       12
1005
995
  0
ATTDEF
  5
996
330
6ED
100
AcDbEntity
  8
0
 62
     0
100
AcDbText
 10
11.5
 20
205.0
 30
0.0
 40
3.0
  1

 50
90.0
  7
Roman
100
AcDbAttributeDefinition
  3
File name:
  2
FNAME
 70
     8
1001
AcDbBlockRepETag
1070
     1
1071
       13
1005
0
  0
LINE
  5
997
330
6ED
100
AcDbEntity
  8
0
100
AcDbLine
 10
17.5
 20
192.0
 30
0.0
 11
12.5
 21
192.0
 31
0.0
1001
AcDbBlockRepETag
1070
     1
1071
       14
1005
997
  0
TEXT
  5
998
330
6ED
100
AcDbEntity
  8
0
100
AcDbText
 10
13.87568307432493
 20
215.75
 30
0.0
 40
3.0
  1
B
  7
Roman
 72
     1
 11
15.4471116457535
 21
215.75
 31
0.0
100
AcDbText
1001
AcDbBlockRepETag
1070
     1
1071
       15
1005
998
  0
LINE
  5
999
330
6ED
100
AcDbEntity
  8
0
100
AcDbLine
 10
104.8333333333333
 20
97.0
 30
0.0
 11
104.8333333333333
 21
92.0
 31
0.0
1001
AcDbBlockRepETag
1070
     1
1071
       16
1005
999
  0
TEXT
  5
99A
330
6ED
100
AcDbEntity
  8
0
100
AcDbText
 10
81.57142857142856
 20
93.23033810098564
 30
0.0
 40
3.0
  1
2
  7
Roman
 72
     1
 11
83.0
 21
93.23033810098564
 31
0.0
100
AcDbText
1001
AcDbBlockRepETag
1070
     1
1071
       17
1005
99A
  0
TEXT
  5
99B
330
6ED
100
AcDbEntity
  8
0
100
AcDbText
 10
125.2380952380953
 20
93.23033810098564
 30
0.0
 40
3.0
  1
3
  7
Roman
 72
     1
 11
126.6666666666667
 21
93.23033810098564
 31
0.0
100
AcDbText
1001
AcDbBlockRepETag
1070
     1
1071
       18
1005
99B
  0
LINE
  5
99C
330
6ED
100
AcDbEntity
  8
0
100
AcDbLine
 10
148.5
 20
97.0
 30
0.0
 11
148.5
 21
87.0
 31
0.0
1001
AcDbBlockRepETag
1070
     1
1071
       19
1005
99C
  0
LINE
  5
99D
330
6ED
100
AcDbEntity
  8
0
100
AcDbLine
 10
148.5
 20
97.0
 30
0.0
 11
148.5
 21
92.0
 31
0.0
1001
AcDbBlockRepETag
1070
     1
1071
       20
1005
99D
  0
LINE
  5
99E
330
6ED
100
AcDbEntity
  8
0
100
AcDbLine
 10
192.1666666666667
 20
97.0
 30
0.0
 11
192.1666666666667
 21
92.0
 31
0.0
1001
AcDbBlockRepETag
1070
     1
1071
       21
1005
99E
  0
TEXT
  5
99F
330
6ED
100
AcDbEntity
  8
0
100
AcDbText
 10
168.8333333333333
 20
93.23033810098564
 30
0.0
 40
3.0
  1
4
  7
Roman
 72
     1
 11
170.3333333333333
 21
93.23033810098564
 31
0.0
100
AcDbText
1001
AcDbBlockRepETag
1070
     1
1071
       22
1005
99F
  0
LINE
  5
9A0
330
6ED
100
AcDbEntity
  8
0
100
AcDbLine
 10
17.5
 20
239.5
 30
0.0
 11
12.5
 21
239.5
 31
0.0
1001
AcDbBlockRepETag
1070
     1
1071
       25
1005
9A0
  0
TEXT
  5
9A1
330
6ED
100
AcDbEntity
  8
0
100
AcDbText
 10
14.16139736003921
 20
263.25
 30
0.0
 40
3.0
  1
A
  7
Roman
 72
     1
 11
15.4471116457535
 21
263.25
 31
0.0
100
AcDbText
1001
AcDbBlockRepETag
1070
     1
1071
       75
1005
9A1
  0
TEXT
  5
9A2
330
6ED
100
AcDbEntity
  8
0
100
AcDbText
 10
38.11904761904761
 20
288.0
 30
0.0
 40
3.0
  1
1
  7
Roman
 72
     1
 11
39.33333333333332
 21
288.0
 31
0.0
100
AcDbText
1001
AcDbBlockRepETag
1070
     1
1071
       76
1005
9A2
  0
LINE
  5
9A3
330
6ED
100
AcDbEntity
  8
0
100
AcDbLine
 10
61.16666666666666
 20
287.0
 30
0.0
 11
61.16666666666666
 21
292.0
 31
0.0
1001
AcDbBlockRepETag
1070
     1
1071
       28
1005
9A3
  0
TEXT
  5
9A4
330
6ED
100
AcDbEntity
  8
0
100
AcDbText
 10
81.57142857142856
 20
288.0
 30
0.0
 40
3.0
  1
2
  7
Roman
 72
     1
 11
83.0
 21
288.0
 31
0.0
100
AcDbText
1001
AcDbBlockRepETag
1070
     1
1071
       29
1005
9A4
  0
LINE
  5
9A5
330
6ED
100
AcDbEntity
  8
0
100
AcDbLine
 10
104.8333333333333
 20
287.0
 30
0.0
 11
104.8333333333333
 21
292.0
 31
0.0
1001
AcDbBlockRepETag
1070
     1
1071
       30
1005
9A5
  0
TEXT
  5
9A6
330
6ED
100
AcDbEntity
  8
0
100
AcDbText
 10
125.2380952380953
 20
288.0
 30
0.0
 40
3.0
  1
3
  7
Roman
 72
     1
 11
126.6666666666667
 21
288.0
 31
0.0
100
AcDbText
1001
AcDbBlockRepETag
1070
     1
1071
       31
1005
9A6
  0
TEXT
  5
9A7
330
6ED
100
AcDbEntity
  8
0
100
AcDbText
 10
168.8333333333333
 20
288.0
 30
0.0
 40
3.0
  1
4
  7
Roman
 72
     1
 11
170.3333333333333
 21
288.0
 31
0.0
100
AcDbText
1001
AcDbBlockRepETag
1070
     1
1071
       32
1005
9A7
  0
LINE
  5
9A8
330
6ED
100
AcDbEntity
  8
0
100
AcDbLine
 10
148.5
 20
287.0
 30
0.0
 11
148.5
 21
297.0
 31
0.0
1001
AcDbBlockRepETag
1070
     1
1071
       33
1005
9A8
  0
LINE
  5
9A9
330
6ED
100
AcDbEntity
  8
0
100
AcDbLine
 10
148.5
 20
287.0
 30
0.0
 11
148.5
 21
292.0
 31
0.0
1001
AcDbBlockRepETag
1070
     1
1071
       34
1005
9A9
  0
LINE
  5
9AA
330
6ED
100
AcDbEntity
  8
0
100
AcDbLine
 10
192.1666666666666
 20
287.0
 30
0.0
 11
192.1666666666666
 21
292.0
 31
0.0
1001
AcDbBlockRepETag
1070
     1
1071
       35
1005
9AA
  0
LINE
  5
9AB
330
6ED
100
AcDbEntity
  8
0
100
AcDbLine
 10
279.5
 20
287.0
 30
0.0
 11
279.5
 21
97.0
 31
0.0
1001
AcDbBlockRepETag
1070
     1
1071
       36
1005
9AB
  0
LINE
  5
9AC
330
6ED
100
AcDbEntity
  8
0
100
AcDbLine
 10
235.8333333333334
 20
97.0
 30
0.0
 11
235.8333333333334
 21
92.0
 31
0.0
1001
AcDbBlockRepETag
1070
     1
1071
       37
1005
9AC
  0
TEXT
  5
9AD
330
6ED
100
AcDbEntity
  8
0
100
AcDbText
 10
212.5714285714286
 20
93.23033810098564
 30
0.0
 40
3.0
  1
5
  7
Roman
 72
     1
 11
214.0
 21
93.23033810098564
 31
0.0
100
AcDbText
1001
AcDbBlockRepETag
1070
     1
1071
       38
1005
9AD
  0
TEXT
  5
9AE
330
6ED
100
AcDbEntity
  8
0
100
AcDbText
 10
256.1666666666667
 20
93.23033810098564
 30
0.0
 40
3.0
  1
6
  7
Roman
 72
     1
 11
257.6666666666667
 21
93.23033810098564
 31
0.0
100
AcDbText
1001
AcDbBlockRepETag
1070
     1
1071
       39
1005
9AE
  0
LINE
  5
9AF
330
6ED
100
AcDbEntity
  8
0
100
AcDbLine
 10
297.0
 20
97.0
 30
0.0
 11
297.0
 21
87.0
 31
0.0
1001
AcDbBlockRepETag
1070
     1
1071
       40
1005
9AF
  0
LINE
  5
9B0
330
6ED
100
AcDbEntity
  8
0
100
AcDbLine
 10
297.0
 20
87.0
 30
0.0
 11
287.0
 21
87.0
 31
0.0
1001
AcDbBlockRepETag
1070
     1
1071
       41
1005
9B0
  0
TEXT
  5
9B1
330
6ED
100
AcDbEntity
  8
0
100
AcDbText
 10
280.1673438822666
 20
120.75
 30
0.0
 40
3.0
  1
D
  7
Roman
 72
     1
 11
281.7387724536952
 21
120.75
 31
0.0
100
AcDbText
1001
AcDbBlockRepETag
1070
     1
1071
       42
1005
9B1
  0
LINE
  5
9B2
330
6ED
100
AcDbEntity
  8
0
100
AcDbLine
 10
279.5
 20
144.5
 30
0.0
 11
284.5
 21
144.5
 31
0.0
1001
AcDbBlockRepETag
1070
     1
1071
       43
1005
9B2
  0
TEXT
  5
9B3
330
6ED
100
AcDbEntity
  8
0
100
AcDbText
 10
280.2387724536952
 20
168.25
 30
0.0
 40
3.0
  1
C
  7
Roman
 72
     1
 11
281.7387724536952
 21
168.25
 31
0.0
100
AcDbText
1001
AcDbBlockRepETag
1070
     1
1071
       44
1005
9B3
  0
LINE
  5
9B4
330
6ED
100
AcDbEntity
  8
0
100
AcDbLine
 10
279.5
 20
192.0
 30
0.0
 11
297.0
 21
192.0
 31
0.0
1001
AcDbBlockRepETag
1070
     1
1071
       45
1005
9B4
  0
LINE
  5
9B5
330
6ED
100
AcDbEntity
  8
0
100
AcDbLine
 10
279.5
 20
192.0
 30
0.0
 11
284.5
 21
192.0
 31
0.0
1001
AcDbBlockRepETag
1070
     1
1071
       46
1005
9B5
  0
TEXT
  5
9B6
330
6ED
100
AcDbEntity
  8
0
100
AcDbText
 10
280.1673438822666
 20
215.75
 30
0.0
 40
3.0
  1
B
  7
Roman
 72
     1
 11
281.7387724536952
 21
215.75
 31
0.0
100
AcDbText
1001
AcDbBlockRepETag
1070
     1
1071
       47
1005
9B6
  0
TEXT
  5
9B7
330
6ED
100
AcDbEntity
  8
0
100
AcDbText
 10
212.5714285714286
 20
288.0
 30
0.0
 40
3.0
  1
5
  7
Roman
 72
     1
 11
214.0
 21
288.0
 31
0.0
100
AcDbText
1001
AcDbBlockRepETag
1070
     1
1071
       48
1005
9B7
  0
LINE
  5
9B8
330
6ED
100
AcDbEntity
  8
0
100
AcDbLine
 10
235.8333333333333
 20
287.0
 30
0.0
 11
235.8333333333333
 21
292.0
 31
0.0
1001
AcDbBlockRepETag
1070
     1
1071
       49
1005
9B8
  0
TEXT
  5
9B9
330
6ED
100
AcDbEntity
  8
0
100
AcDbText
 10
256.1666666666667
 20
288.0
 30
0.0
 40
3.0
  1
6
  7
Roman
 72
     1
 11
257.6666666666667
 21
288.0
 31
0.0
100
AcDbText
1001
AcDbBlockRepETag
1070
     1
1071
       50
1005
9B9
  0
LINE
  5
9BA
330
6ED
100
AcDbEntity
  8
0
100
AcDbLine
 10
279.5
 20
239.5
 30
0.0
 11
284.5
 21
239.5
 31
0.0
1001
AcDbBlockRepETag
1070
     1
1071
       51
1005
9BA
  0
TEXT
  5
9BB
330
6ED
100
AcDbEntity
  8
0
100
AcDbText
 10
280.4530581679809
 20
263.25
 30
0.0
 40
3.0
  1
A
  7
Roman
 72
     1
 11
281.7387724536952
 21
263.25
 31
0.0
100
AcDbText
1001
AcDbBlockRepETag
1070
     1
1071
       52
1005
9BB
  0
LINE
  5
9BC
330
6ED
100
AcDbEntity
  8
0
100
AcDbLine
 10
287.0
 20
297.0
 30
0.0
 11
297.0
 21
297.0
 31
0.0
1001
AcDbBlockRepETag
1070
     1
1071
       53
1005
9BC
  0
LINE
  5
9BD
330
6ED
100
AcDbEntity
  8
0
100
AcDbLine
 10
297.0
 20
297.0
 30
0.0
 11
297.0
 21
287.0
 31
0.0
1001
AcDbBlockRepETag
1070
     1
1071
       54
1005
9BD
  0
LINE
  5
9BE
330
6ED
100
AcDbEntity
  8
0
100
AcDbLine
 10
163.4978723404242
 20
97.0
 30
0.0
 11
163.4978723404242
 21
97.0
 31
0.0
1001
AcDbBlockRepETag
1070
     1
1071
      161
1005
9BE
  0
LINE
  5
9BF
330
6ED
100
AcDbEntity
  8
0
100
AcDbLine
 10
162.4978723404242
 20
97.0
 30
0.0
 11
162.4978723404242
 21
133.0
 31
0.0
1001
AcDbBlockRepETag
1070
     1
1071
      162
1005
9BF
  0
LINE
  5
9C0
330
6ED
100
AcDbEntity
  8
0
100
AcDbLine
 10
279.4978723404242
 20
106.0
 30
0.0
 11
162.4978723404242
 21
106.0
 31
0.0
1001
AcDbBlockRepETag
1070
     1
1071
      166
1005
9C0
  0
LINE
  5
9C1
330
6ED
100
AcDbEntity
  8
0
100
AcDbLine
 10
213.4978723404242
 20
97.0
 30
0.0
 11
213.4978723404242
 21
106.0
 31
0.0
1001
AcDbBlockRepETag
1070
     1
1071
      167
1005
9C1
  0
LINE
  5
9C2
330
6ED
100
AcDbEntity
  8
0
100
AcDbLine
 10
202.4978723404242
 20
115.0
 30
0.0
 11
162.4978723404242
 21
115.0
 31
0.0
1001
AcDbBlockRepETag
1070
     1
1071
      168
1005
9C2
  0
LINE
  5
9C3
330
6ED
100
AcDbEntity
  8
0
100
AcDbLine
 10
279.4978723404242
 20
124.0
 30
0.0
 11
162.4978723404242
 21
124.0
 31
0.0
1001
AcDbBlockRepETag
1070
     1
1071
      169
1005
9C3
  0
LINE
  5
9C4
330
6ED
100
AcDbEntity
  8
0
100
AcDbLine
 10
279.4978723404242
 20
133.0
 30
0.0
 11
162.4978723404242
 21
133.0
 31
0.0
1001
AcDbBlockRepETag
1070
     1
1071
      170
1005
9C4
  0
MTEXT
  5
9C5
330
6ED
100
AcDbEntity
  8
0
100
AcDbMText
 10
187.997872340424
 20
101.5
 30
0.0
 40
4.0
 41
51.0
 71
     5
 72
     5
  1
富国石油株式会社
 73
     1
 44
1.0
1001
AcDbBlockRepETag
1070
     1
1071
      171
1005
9C5
1001
ACAD
1000
MTEXTBEGIN
1070
    73
1070
     1
1070
    44
1040
1.0
1070
    74
1070
     0
1000
MTEXTEND
  0
MTEXT
  5
9C6
102
{ACAD_XDICTIONARY
360
140DA
102
}
330
6ED
100
AcDbEntity
  8
0
100
AcDbMText
 10
165.4779634407957
 20
110.5
 30
0.0
 40
2.0
 41
3.96018220074299
 71
     5
 72
     5
  1
検\P図
 73
     1
 44
1.0
1001
AcDbBlockRepETag
1070
     1
1071
      172
1005
9C6
1001
ACAD
1000
MTEXTBEGIN
1070
    73
1070
     1
1070
    44
1040
1.0
1070
    74
1070
     0
1000
MTEXTEND
1000
ACAD_MTEXT_DEFINED_HEIGHT_BEGIN
1070
    46
1040
9.0
1000
ACAD_MTEXT_DEFINED_HEIGHT_END
  0
MTEXT
  5
9C7
330
6ED
100
AcDbEntity
  8
0
100
AcDbMText
 10
165.4779634407957
 20
119.5
 30
0.0
 40
2.0
 41
3.96018220074299
 71
     5
 72
     5
  1
確\P認
 73
     1
 44
1.0
1001
AcDbBlockRepETag
1070
     1
1071
      173
1005
9C7
1001
ACAD
1000
MTEXTBEGIN
1070
    73
1070
     1
1070
    44
1040
1.0
1070
    74
1070
     0
1000
MTEXTEND
1000
ACAD_MTEXT_DEFINED_HEIGHT_BEGIN
1070
    46
1040
9.0
1000
ACAD_MTEXT_DEFINED_HEIGHT_END
  0
MTEXT
  5
9C8
330
6ED
100
AcDbEntity
  8
0
100
AcDbMText
 10
165.4779634407957
 20
128.5
 30
0.0
 40
2.0
 41
3.96018220074299
 71
     5
 72
     5
  1
縮\P尺
 73
     1
 44
1.0
1001
AcDbBlockRepETag
1070
     1
1071
      174
1005
9C8
1001
ACAD
1000
MTEXTBEGIN
1070
    73
1070
     1
1070
    44
1040
1.0
1070
    74
1070
     0
1000
MTEXTEND
1000
ACAD_MTEXT_DEFINED_HEIGHT_BEGIN
1070
    46
1040
9.0
1000
ACAD_MTEXT_DEFINED_HEIGHT_END
  0
LINE
  5
9C9
330
6ED
100
AcDbEntity
  8
0
100
AcDbLine
 10
182.4978723404242
 20
106.0
 30
0.0
 11
182.4978723404242
 21
133.0
 31
0.0
1001
AcDbBlockRepETag
1070
     1
1071
      175
1005
9C9
  0
LINE
  5
9CA
330
6ED
100
AcDbEntity
  8
0
100
AcDbLine
 10
202.4978723404242
 20
106.0
 30
0.0
 11
202.4978723404242
 21
133.0
 31
0.0
1001
AcDbBlockRepETag
1070
     1
1071
      176
1005
9CA
  0
LINE
  5
9CB
330
6ED
100
AcDbEntity
  8
0
100
AcDbLine
 10
234.4978723404242
 20
124.0
 30
0.0
 11
234.4978723404242
 21
133.0
 31
0.0
1001
AcDbBlockRepETag
1070
     1
1071
      194
1005
9CB
  0
MTEXT
  5
9CC
330
6ED
100
AcDbEntity
  8
0
100
AcDbMText
 10
185.4779634407956
 20
119.5
 30
0.0
 40
2.0
 41
3.96018220074299
 71
     5
 72
     5
  1
設\P計
 73
     1
 44
1.0
1001
AcDbBlockRepETag
1070
     1
1071
      177
1005
9CC
1001
ACAD
1000
MTEXTBEGIN
1070
    73
1070
     1
1070
    44
1040
1.0
1070
    74
1070
     0
1000
MTEXTEND
1000
ACAD_MTEXT_DEFINED_HEIGHT_BEGIN
1070
    46
1040
9.0
1000
ACAD_MTEXT_DEFINED_HEIGHT_END
  0
MTEXT
  5
9CD
330
6ED
100
AcDbEntity
  8
0
100
AcDbMText
 10
185.4779634407956
 20
110.5
 30
0.0
 40
2.0
 41
3.96018220074299
 71
     5
 72
     5
  1
製\P図
 73
     1
 44
1.0
1001
AcDbBlockRepETag
1070
     1
1071
      178
1005
9CD
1001
ACAD
1000
MTEXTBEGIN
1070
    73
1070
     1
1070
    44
1040
1.0
1070
    74
1070
     0
1000
MTEXTEND
1000
ACAD_MTEXT_DEFINED_HEIGHT_BEGIN
1070
    46
1040
9.0
1000
ACAD_MTEXT_DEFINED_HEIGHT_END
  0
MTEXT
  5
9CE
330
6ED
100
AcDbEntity
  8
0
100
AcDbMText
 10
205.4779634407957
 20
128.5
 30
0.0
 40
2.0
 41
3.96018220074299
 71
     5
 72
     5
  1
材\P料
 73
     1
 44
1.0
1001
AcDbBlockRepETag
1070
     1
1071
      179
1005
9CE
1001
ACAD
1000
MTEXTBEGIN
1070
    73
1070
     1
1070
    44
1040
1.0
1070
    74
1070
     0
1000
MTEXTEND
1000
ACAD_MTEXT_DEFINED_HEIGHT_BEGIN
1070
    46
1040
9.0
1000
ACAD_MTEXT_DEFINED_HEIGHT_END
  0
LINE
  5
9CF
330
6ED
100
AcDbEntity
  8
0
  6
HIDDEN2
 48
0.5
100
AcDbLine
 10
279.4978723404242
 20
119.5
 30
0.0
 11
202.4978723404242
 21
119.5
 31
0.0
1001
AcDbBlockRepETag
1070
     1
1071
      180
1005
9CF
  0
POINT
  5
9D0
330
6ED
100
AcDbEntity
  8
0
100
AcDbPoint
 10
188.2478723404242
 20
124.0
 30
0.0
1001
AcDbBlockRepETag
1070
     1
1071
      189
1005
9D0
  0
POINT
  5
9D1
330
6ED
100
AcDbEntity
  8
0
100
AcDbPoint
 10
188.2478723404242
 20
115.0
 30
0.0
1001
AcDbBlockRepETag
1070
     1
1071
      190
1005
9D1
  0
ENDBLK
  5
74C
330
6ED
100
AcDbEntity
  8
0
100
AcDbBlockEnd
  0
BLOCK
  5
FBCD
330
FBCB
100
AcDbEntity
  8
0
100
AcDbBlockBegin
  2
_DotSmall
 70
     0
 10
0.0
 20
0.0
 30
0.0
  3
_DotSmall
  1

  0
LWPOLYLINE
  5
FBCC
330
FBCB
100
AcDbEntity
  8
0
  6
ByBlock
 62
     0
100
AcDbPolyline
 90
        2
 70
     1
 43
0.5
 10
-0.0625
 20
0.0
 42
1.0
 10
0.0625
 20
0.0
 42
1.0
  0
ENDBLK
  5
FBCE
330
FBCB
100
AcDbEntity
  8
0
100
AcDbBlockEnd
  0
BLOCK
  5
FCBF
330
FCBC
100
AcDbEntity
  8
0
100
AcDbBlockBegin
  2
_DotBlank
 70
     0
 10
0.0
 20
0.0
 30
0.0
  3
_DotBlank
  1

  0
CIRCLE
  5
FCBD
330
FCBC
100
AcDbEntity
  8
0
  6
ByBlock
 62
     0
370
    -2
100
AcDbCircle
 10
0.0
 20
0.0
 30
0.0
 40
0.5
  0
LINE
  5
FCBE
330
FCBC
100
AcDbEntity
  8
0
  6
ByBlock
 62
     0
370
    -2
100
AcDbLine
 10
-0.5
 20
0.0
 30
0.0
 11
-1.0
 21
0.0
 31
0.0
  0
ENDBLK
  5
FCC0
330
FCBC
100
AcDbEntity
  8
0
100
AcDbBlockEnd
  0
BLOCK
  5
FCD9
330
FCD7
100
AcDbEntity
  8
0
100
AcDbBlockBegin
  2
_Small
 70
     0
 10
0.0
 20
0.0
 30
0.0
  3
_Small
  1

  0
CIRCLE
  5
FCD8
330
FCD7
100
AcDbEntity
  8
0
  6
ByBlock
 62
     0
370
    -2
100
AcDbCircle
 10
0.0
 20
0.0
 30
0.0
 40
0.25
  0
ENDBLK
  5
FCDA
330
FCD7
100
AcDbEntity
  8
0
100
AcDbBlockEnd
  0
BLOCK
  5
FD37
330
FD33
100
AcDbEntity
  8
0
100
AcDbBlockBegin
  2
_Open90
 70
     0
 10
0.0
 20
0.0
 30
0.0
  3
_Open90
  1

  0
LINE
  5
FD34
330
FD33
100
AcDbEntity
  8
0
  6
ByBlock
 62
     0
370
    -2
100
AcDbLine
 10
-0.5
 20
0.5
 30
0.0
 11
0.0
 21
0.0
 31
0.0
  0
LINE
  5
FD35
330
FD33
100
AcDbEntity
  8
0
  6
ByBlock
 62
     0
370
    -2
100
AcDbLine
 10
0.0
 20
0.0
 30
0.0
 11
-0.5
 21
-0.5
 31
0.0
  0
LINE
  5
FD36
330
FD33
100
AcDbEntity
  8
0
  6
ByBlock
 62
     0
370
    -2
100
AcDbLine
 10
0.0
 20
0.0
 30
0.0
 11
-1.0
 21
0.0
 31
0.0
  0
ENDBLK
  5
FD38
330
FD33
100
AcDbEntity
  8
0
100
AcDbBlockEnd
  0
BLOCK
  5
10C5B
330
10C5A
100
AcDbEntity
  8
0
100
AcDbBlockBegin
  2
_None
 70
     0
 10
0.0
 20
0.0
 30
0.0
  3
_None
  1

  0
ENDBLK
  5
10C5C
330
10C5A
100
AcDbEntity
  8
0
100
AcDbBlockEnd
  0
BLOCK
  5
113A6
330
113A5
100
AcDbEntity
  8
0
100
AcDbBlockBegin
  2
*D11
 70
     1
 10
0.0
 20
0.0
 30
0.0
  3
*D11
  1

  0
ARC
  5
12899
330
113A5
100
AcDbEntity
  8
寸法線
 62
     0
370
    -2
100
AcDbCircle
 10
-25.63027107895493
 20
2248.492878458858
 30
0.0
 40
37.82515067750232
100
AcDbArc
 50
156.061840822415
 51
173.9381591775846
  0
INSERT
  5
1289A
330
113A5
100
AcDbEntity
  8
寸法線
 62
     0
370
    -2
100
AcDbBlockReference
  2
_Open30
 10
-58.38781246764597
 20
2267.405453797609
 30
0.0
 41
4.0
 42
4.0
 43
4.0
 50
63.03092041120738
  0
INSERT
  5
1289B
330
113A5
100
AcDbEntity
  8
寸法線
 62
     0
370
    -2
100
AcDbBlockReference
  2
_Open30
 10
-63.45542175645721
 20
2248.492878458858
 30
0.0
 41
4.0
 42
4.0
 43
4.0
 50
266.9690795887922
  0
MTEXT
  5
1289C
330
113A5
100
AcDbEntity
  8
寸法線
 62
     0
100
AcDbMText
 10
-65.54730139364176
 20
2259.188614495927
 30
0.0
 40
5.0
 41
0.0
 71
     5
 72
     1
  1
\A1;30°
 11
0.2588190451025199
 21
0.9659258262890686
 31
0.0
 73
     1
 44
1.0
1001
ACAD
1000
MTEXTBEGIN
1070
    73
1070
     1
1070
    44
1040
1.0
1070
    74
1070
     0
1000
MTEXTEND
  0
POINT
  5
1289D
330
113A5
100
AcDbEntity
  8
Defpoints
 62
     0
100
AcDbPoint
 10
-61.17428605071893
 20
2261.429841914893
 30
0.0
  0
POINT
  5
1289E
330
113A5
100
AcDbEntity
  8
Defpoints
 62
     0
100
AcDbPoint
 10
-75.63027107895504
 20
2248.492878458859
 30
0.0
  0
POINT
  5
1289F
330
113A5
100
AcDbEntity
  8
Defpoints
 62
     0
100
AcDbPoint
 10
-68.93154126817705
 20
2273.492878458859
 30
0.0
  0
POINT
  5
128A0
330
113A5
100
AcDbEntity
  8
Defpoints
 62
     0
100
AcDbPoint
 10
-25.63027107895482
 20
2248.492878458858
 30
0.0
  0
POINT
  5
128A1
330
113A5
100
AcDbEntity
  8
Defpoints
 62
     0
100
AcDbPoint
 10
24.36972892104484
 20
2248.492878458858
 30
0.0
  0
ENDBLK
  5
113A7
330
113A5
100
AcDbEntity
  8
0
100
AcDbBlockEnd
  0
BLOCK
  5
113D8
330
113D7
100
AcDbEntity
  8
0
100
AcDbBlockBegin
  2
*D12
 70
     1
 10
0.0
 20
0.0
 30
0.0
  3
*D12
  1

  0
ARC
  5
1288E
330
113D7
100
AcDbEntity
  8
寸法線
 62
     0
370
    -2
100
AcDbCircle
 10
-25.63027107895204
 20
2248.49287845886
 30
0.0
 40
41.24293096320594
100
AcDbArc
 50
348.8818262005232
 51
354.4409131002617
  0
ARC
  5
1288F
330
113D7
100
AcDbEntity
  8
寸法線
 62
     0
370
    -2
100
AcDbCircle
 10
-25.63027107895204
 20
2248.49287845886
 30
0.0
 40
41.24293096320594
100
AcDbArc
 50
20.55908689973792
 51
26.11817379947642
  0
ARC
  5
12890
330
113D7
100
AcDbEntity
  8
寸法線
 62
     0
370
    -2
100
AcDbCircle
 10
-25.63027107895204
 20
2248.49287845886
 30
0.0
 40
41.24293096320594
100
AcDbArc
 50
0.0000000000001527
 51
14.99999999999942
  0
INSERT
  5
12891
330
113D7
100
AcDbEntity
  8
寸法線
 62
     0
370
    -2
100
AcDbBlockReference
  2
_Open30
 10
15.61265988425396
 20
2248.49287845886
 30
0.0
 41
4.0
 42
4.0
 43
4.0
 50
87.2204565501309
  0
INSERT
  5
12892
330
113D7
100
AcDbEntity
  8
寸法線
 62
     0
370
    -2
100
AcDbBlockReference
  2
_Open30
 10
14.2073410902658
 20
2259.167334467985
 30
0.0
 41
4.0
 42
4.0
 43
4.0
 50
287.7795434498686
  0
MTEXT
  5
12893
330
113D7
100
AcDbEntity
  8
寸法線
 62
     0
100
AcDbMText
 10
18.72987790732134
 20
2254.333002866251
 30
0.0
 40
5.0
 41
0.0
 71
     5
 72
     1
  1
\A1;15°
 11
0.1305261922200533
 21
-0.9914448613738102
 31
0.0
 73
     1
 44
1.0
1001
ACAD
1000
MTEXTBEGIN
1070
    73
1070
     1
1070
    44
1040
1.0
1070
    74
1070
     0
1000
MTEXTEND
  0
POINT
  5
12894
330
113D7
100
AcDbEntity
  8
Defpoints
 62
     0
100
AcDbPoint
 10
15.45571808035765
 20
2252.087436740048
 30
0.0
  0
POINT
  5
12895
330
113D7
100
AcDbEntity
  8
Defpoints
 62
     0
100
AcDbPoint
 10
-75.63027107895516
 20
2248.492878458859
 30
0.0
  0
POINT
  5
12896
330
113D7
100
AcDbEntity
  8
Defpoints
 62
     0
100
AcDbPoint
 10
22.66602023549848
 20
2261.433830713984
 30
0.0
  0
POINT
  5
12897
330
113D7
100
AcDbEntity
  8
Defpoints
 62
     0
100
AcDbPoint
 10
-25.63027107895067
 20
2248.49287845886
 30
0.0
  0
POINT
  5
12898
330
113D7
100
AcDbEntity
  8
Defpoints
 62
     0
100
AcDbPoint
 10
24.3697289210449
 20
2248.49287845886
 30
0.0
  0
ENDBLK
  5
113D9
330
113D7
100
AcDbEntity
  8
0
100
AcDbBlockEnd
  0
BLOCK
  5
113F4
330
113F3
100
AcDbEntity
  8
0
100
AcDbBlockBegin
  2
*D13
 70
     1
 10
0.0
 20
0.0
 30
0.0
  3
*D13
  1

  0
ARC
  5
12885
330
113F3
100
AcDbEntity
  8
寸法線
 62
     0
370
    -2
100
AcDbCircle
 10
-25.63027107895619
 20
2248.49287845886
 30
0.0
 40
50.00000000000081
100
AcDbArc
 50
4.584885551911741
 51
40.41511444808754
  0
INSERT
  5
12886
330
113F3
100
AcDbEntity
  8
寸法線
 62
     0
370
    -2
100
AcDbBlockReference
  2
_Open30
 10
24.36972892104461
 20
2248.492878458859
 30
0.0
 41
4.0
 42
4.0
 43
4.0
 50
272.2924427759559
  0
INSERT
  5
12887
330
113F3
100
AcDbEntity
  8
寸法線
 62
     0
370
    -2
100
AcDbBlockReference
  2
_Open30
 10
9.725067980372273
 20
2283.848217518186
 30
0.0
 41
4.0
 42
4.0
 43
4.0
 50
132.7075572240434
  0
MTEXT
  5
12888
330
113F3
100
AcDbEntity
  8
寸法線
 62
     0
100
AcDbMText
 10
23.79728391039817
 20
2268.966442090391
 30
0.0
 40
5.0
 41
0.0
 71
     5
 72
     1
  1
\A1;45°
 11
0.3826834323650866
 21
-0.9238795325112882
 31
0.0
 73
     1
 44
1.0
1001
ACAD
1000
MTEXTBEGIN
1070
    73
1070
     1
1070
    44
1040
1.0
1070
    74
1070
     0
1000
MTEXTEND
  0
POINT
  5
12889
330
113F3
100
AcDbEntity
  8
Defpoints
 62
     0
100
AcDbPoint
 10
22.66602023549808
 20
2261.433830713985
 30
0.0
  0
POINT
  5
1288A
330
113F3
100
AcDbEntity
  8
Defpoints
 62
     0
100
AcDbPoint
 10
-75.63027107895516
 20
2248.492878458859
 30
0.0
  0
POINT
  5
1288B
330
113F3
100
AcDbEntity
  8
Defpoints
 62
     0
100
AcDbPoint
 10
-25.63027107895596
 20
2248.49287845886
 30
0.0
  0
POINT
  5
1288C
330
113F3
100
AcDbEntity
  8
Defpoints
 62
     0
100
AcDbPoint
 10
9.725067980372042
 20
2283.848217518186
 30
0.0
  0
POINT
  5
1288D
330
113F3
100
AcDbEntity
  8
Defpoints
 62
     0
100
AcDbPoint
 10
24.36972892104473
 20
2248.492878458859
 30
0.0
  0
ENDBLK
  5
113F5
330
113F3
100
AcDbEntity
  8
0
100
AcDbBlockEnd
  0
BLOCK
  5
11415
330
11414
100
AcDbEntity
  8
0
100
AcDbBlockBegin
  2
*D14
 70
     1
 10
0.0
 20
0.0
 30
0.0
  3
*D14
  1

  0
LINE
  5
1287A
330
11414
100
AcDbEntity
  8
寸法線
 62
     0
370
    -2
100
AcDbLine
 10
-51.13027107895504
 20
2292.660174051865
 30
0.0
 11
-51.50464871675445
 21
2293.308615141751
 31
0.0
  0
LINE
  5
1287B
330
11414
100
AcDbEntity
  8
寸法線
 62
     0
370
    -2
100
AcDbLine
 10
-76.63027107895539
 20
2248.492878458859
 30
0.0
 11
-77.3790263545543
 21
2248.492878458859
 31
0.0
  0
ARC
  5
1287C
330
11414
100
AcDbEntity
  8
寸法線
 62
     0
370
    -2
100
AcDbCircle
 10
-25.63027107895573
 20
2248.492878458858
 30
0.0
 40
50.74875527559862
100
AcDbArc
 50
124.5172040909233
 51
175.4827959090764
  0
INSERT
  5
1287D
330
11414
100
AcDbEntity
  8
寸法線
 62
     0
370
    -2
100
AcDbBlockReference
  2
_Open30
 10
-51.00464871675455
 20
2292.442589737967
 30
0.0
 41
4.0
 42
4.0
 43
4.0
 50
32.25860204546155
  0
INSERT
  5
1287E
330
11414
100
AcDbEntity
  8
寸法線
 62
     0
370
    -2
100
AcDbBlockReference
  2
_Open30
 10
-76.37902635455406
 20
2248.492878458858
 30
0.0
 41
4.0
 42
4.0
 43
4.0
 50
267.7413979545382
  0
MTEXT
  5
1287F
330
11414
100
AcDbEntity
  8
寸法線
 62
     0
100
AcDbMText
 10
-72.61107127130923
 20
2275.617256096658
 30
0.0
 40
5.0
 41
0.0
 71
     5
 72
     1
  1
\A1;60°
 11
0.4999999999999995
 21
0.8660254037844389
 31
0.0
 73
     1
 44
1.0
1001
ACAD
1000
MTEXTBEGIN
1070
    73
1070
     1
1070
    44
1040
1.0
1070
    74
1070
     0
1000
MTEXTEND
  0
POINT
  5
12880
330
11414
100
AcDbEntity
  8
Defpoints
 62
     0
100
AcDbPoint
 10
-64.50607305303276
 20
2281.113549557028
 30
0.0
  0
POINT
  5
12881
330
11414
100
AcDbEntity
  8
Defpoints
 62
     0
100
AcDbPoint
 10
-75.63027107895516
 20
2248.492878458859
 30
0.0
  0
POINT
  5
12882
330
11414
100
AcDbEntity
  8
Defpoints
 62
     0
100
AcDbPoint
 10
-50.63027107895515
 20
2291.79414864808
 30
0.0
  0
POINT
  5
12883
330
11414
100
AcDbEntity
  8
Defpoints
 62
     0
100
AcDbPoint
 10
-25.6302710789555
 20
2248.492878458858
 30
0.0
  0
POINT
  5
12884
330
11414
100
AcDbEntity
  8
Defpoints
 62
     0
100
AcDbPoint
 10
24.36972892104484
 20
2248.492878458859
 30
0.0
  0
ENDBLK
  5
11416
330
11414
100
AcDbEntity
  8
0
100
AcDbBlockEnd
  0
BLOCK
  5
1143E
330
1143D
100
AcDbEntity
  8
0
100
AcDbBlockBegin
  2
*D15
 70
     1
 10
0.0
 20
0.0
 30
0.0
  3
*D15
  1

  0
LINE
  5
1286D
330
1143D
100
AcDbEntity
  8
寸法線
 62
     0
370
    -2
100
AcDbLine
 10
-25.63027107895516
 20
2299.492878458859
 30
0.0
 11
-25.63027107895516
 21
2304.371451044879
 31
0.0
  0
LINE
  5
1286E
330
1143D
100
AcDbEntity
  8
寸法線
 62
     0
370
    -2
100
AcDbLine
 10
-30.07521395908009
 20
2299.298808061527
 30
0.0
 11
-30.50040957636384
 21
2304.158816205986
 31
0.0
  0
ARC
  5
1286F
330
1143D
100
AcDbEntity
  8
寸法線
 62
     0
370
    -2
100
AcDbCircle
 10
-25.63027107895505
 20
2248.492878458909
 30
0.0
 40
54.87857258596932
100
AcDbArc
 50
81.64577830522247
 51
85.82288915261131
  0
ARC
  5
12870
330
1143D
100
AcDbEntity
  8
寸法線
 62
     0
370
    -2
100
AcDbCircle
 10
-25.63027107895505
 20
2248.492878458909
 30
0.0
 40
54.87857258596932
100
AcDbArc
 50
99.17711084738858
 51
103.3542216947774
  0
ARC
  5
12871
330
1143D
100
AcDbEntity
  8
寸法線
 62
     0
370
    -2
100
AcDbCircle
 10
-25.63027107895505
 20
2248.492878458909
 30
0.0
 40
54.87857258596932
100
AcDbArc
 50
90.00000000000017
 51
94.99999999999976
  0
INSERT
  5
12872
330
1143D
100
AcDbEntity
  8
寸法線
 62
     0
370
    -2
100
AcDbBlockReference
  2
_Open30
 10
-25.63027107895516
 20
2303.371451044879
 30
0.0
 41
4.0
 42
4.0
 43
4.0
 50
177.9114445763056
  0
INSERT
  5
12873
330
1143D
100
AcDbEntity
  8
寸法線
 62
     0
370
    -2
100
AcDbBlockReference
  2
_Open30
 10
-30.41325383361618
 20
2303.162621507894
 30
0.0
 41
4.0
 42
4.0
 43
4.0
 50
7.088555423694158
  0
MTEXT
  5
12874
330
1143D
100
AcDbEntity
  8
寸法線
 62
     0
100
AcDbMText
 10
-39.87483034333911
 20
2305.106925024569
 30
0.0
 40
5.0
 41
0.0
 71
     5
 72
     1
  1
\A1;5°
 11
0.9697744233518095
 21
0.244003212709721
 31
0.0
 73
     1
 44
1.0
1001
ACAD
1000
MTEXTBEGIN
1070
    73
1070
     1
1070
    44
1040
1.0
1070
    74
1070
     0
1000
MTEXTEND
  0
POINT
  5
12875
330
1143D
100
AcDbEntity
  8
Defpoints
 62
     0
100
AcDbPoint
 10
-27.2263989276413
 20
2303.348234669257
 30
0.0
  0
POINT
  5
12876
330
1143D
100
AcDbEntity
  8
Defpoints
 62
     0
100
AcDbPoint
 10
-25.63027107895516
 20
2298.492878458858
 30
0.0
  0
POINT
  5
12877
330
1143D
100
AcDbEntity
  8
Defpoints
 62
     0
100
AcDbPoint
 10
-25.6302710789501
 20
2248.492878458854
 30
0.0
  0
POINT
  5
12878
330
1143D
100
AcDbEntity
  8
Defpoints
 62
     0
100
AcDbPoint
 10
-29.98805821633244
 20
2298.302613363436
 30
0.0
  0
POINT
  5
12879
330
1143D
100
AcDbEntity
  8
Defpoints
 62
     0
100
AcDbPoint
 10
-25.63027107895499
 20
2248.492878458859
 30
0.0
  0
ENDBLK
  5
1143F
330
1143D
100
AcDbEntity
  8
0
100
AcDbBlockEnd
  0
BLOCK
  5
11462
330
11461
100
AcDbEntity
  8
0
100
AcDbBlockBegin
  2
*D16
 70
     1
 10
0.0
 20
0.0
 30
0.0
  3
*D16
  1

  0
LINE
  5
12860
330
11461
100
AcDbEntity
  8
寸法線
 62
     0
370
    -2
100
AcDbLine
 10
-16.77421401794498
 20
2298.718073862475
 30
0.0
 11
-15.92705877876491
 21
2303.52252996883
 31
0.0
  0
LINE
  5
12861
330
11461
100
AcDbEntity
  8
寸法線
 62
     0
370
    -2
100
AcDbLine
 10
-25.63027107895502
 20
2299.492878458859
 30
0.0
 11
-25.63027107895505
 21
2304.371451044882
 31
0.0
  0
ARC
  5
12862
330
11461
100
AcDbEntity
  8
寸法線
 62
     0
370
    -2
100
AcDbCircle
 10
-25.63027107895508
 20
2248.492878458873
 30
0.0
 40
54.8785725860099
100
AcDbArc
 50
75.82288915261401
 51
79.99999999999976
  0
LINE
  5
12863
330
11461
100
AcDbEntity
  8
寸法線
 62
     0
370
    -2
100
AcDbLine
 10
-12.18940660593179
 20
2301.70002921228
 30
0.0
 11
-2.671149319491319
 21
2299.295585366013
 31
0.0
  0
ARC
  5
12864
330
11461
100
AcDbEntity
  8
寸法線
 62
     0
370
    -2
100
AcDbCircle
 10
-25.63027107895508
 20
2248.492878458873
 30
0.0
 40
54.8785725860099
100
AcDbArc
 50
84.17711084738551
 51
85.8228891526142
  0
INSERT
  5
12865
330
11461
100
AcDbEntity
  8
寸法線
 62
     0
370
    -2
100
AcDbBlockReference
  2
_Open30
 10
-16.10070695643185
 20
2302.537722215819
 30
0.0
 41
4.0
 42
4.0
 43
4.0
 50
352.0885554236926
  0
INSERT
  5
12866
330
11461
100
AcDbEntity
  8
寸法線
 62
     0
370
    -2
100
AcDbBlockReference
  2
_Open30
 10
-25.63027107895502
 20
2303.371451044883
 30
0.0
 41
4.0
 42
4.0
 43
4.0
 50
177.911444576307
  0
MTEXT
  5
12867
330
11461
100
AcDbEntity
  8
寸法線
 62
     0
100
AcDbMText
 10
-6.573057677292239
 20
2303.891208736406
 30
0.0
 40
5.0
 41
0.0
 71
     5
 72
     1
  1
\A1;10°
 11
0.9695432706456909
 21
-0.2449200815483624
 31
0.0
 73
     1
 44
1.0
1001
ACAD
1000
MTEXTBEGIN
1070
    73
1070
     1
1070
    44
1040
1.0
1070
    74
1070
     0
1000
MTEXTEND
  0
POINT
  5
12868
330
11461
100
AcDbEntity
  8
Defpoints
 62
     0
100
AcDbPoint
 10
-22.43936586509028
 20
2303.27860518577
 30
0.0
  0
POINT
  5
12869
330
11461
100
AcDbEntity
  8
Defpoints
 62
     0
100
AcDbPoint
 10
-25.63027107895502
 20
2298.492878458858
 30
0.0
  0
POINT
  5
1286A
330
11461
100
AcDbEntity
  8
Defpoints
 62
     0
100
AcDbPoint
 10
-16.94786219561189
 20
2297.733266109463
 30
0.0
  0
POINT
  5
1286B
330
11461
100
AcDbEntity
  8
Defpoints
 62
     0
100
AcDbPoint
 10
-25.63027107895783
 20
2248.492878458857
 30
0.0
  0
POINT
  5
1286C
330
11461
100
AcDbEntity
  8
Defpoints
 62
     0
100
AcDbPoint
 10
-25.63027107895502
 20
2248.492878458859
 30
0.0
  0
ENDBLK
  5
11463
330
11461
100
AcDbEntity
  8
0
100
AcDbBlockEnd
  0
BLOCK
  5
13AB9
330
13AAF
100
AcDbEntity
  8
0
100
AcDbBlockBegin
  2
*D17
 70
     1
 10
0.0
 20
0.0
 30
0.0
  3
*D17
  1

  0
LINE
  5
13D7E
330
13AAF
100
AcDbEntity
  8
Object
 62
     0
370
    -2
100
AcDbLine
 10
-125.9157251042484
 20
1858.138537619163
 30
0.0
 11
-149.8010333309116
 21
1858.138537619163
 31
0.0
  0
LINE
  5
13D7F
330
13AAF
100
AcDbEntity
  8
Object
 62
     0
370
    -2
100
AcDbLine
 10
-125.9157251042483
 20
1918.138537619163
 30
0.0
 11
-149.8010333309116
 21
1918.138537619163
 31
0.0
  0
LINE
  5
13D80
330
13AAF
100
AcDbEntity
  8
Object
 62
     0
370
    -2
100
AcDbLine
 10
-148.8010333309116
 20
1863.138537619163
 30
0.0
 11
-148.8010333309116
 21
1913.138537619163
 31
0.0
  0
MTEXT
  5
13D81
330
13AAF
100
AcDbEntity
  8
Object
 62
     0
100
AcDbMText
 10
-156.6366863443413
 20
1887.978044755881
 30
0.0
 40
7.5
 41
0.0
 71
     5
 72
     1
  1
\A1;Ａ
 11
0.9999999998476914
 21
-0.000017453292519
 31
0.0
 73
     1
 44
1.0
1001
ACAD
1000
MTEXTBEGIN
1070
    73
1070
     1
1070
    44
1040
1.0
1070
    74
1070
     0
1000
MTEXTEND
  0
INSERT
  5
13D82
330
13AAF
100
AcDbEntity
  8
Object
 62
     0
370
    -2
100
AcDbBlockReference
  2
_Open30
 10
-148.8010333309116
 20
1858.138537619163
 30
0.0
 41
5.0
 42
5.0
 43
5.0
 50
270.0
  0
INSERT
  5
13D83
330
13AAF
100
AcDbEntity
  8
Object
 62
     0
370
    -2
100
AcDbBlockReference
  2
_Open30
 10
-148.8010333309116
 20
1918.138537619163
 30
0.0
 41
5.0
 42
5.0
 43
5.0
 50
90.0
  0
POINT
  5
13D84
330
13AAF
100
AcDbEntity
  8
Defpoints
 62
     0
100
AcDbPoint
 10
-124.9157251042484
 20
1858.138537619163
 30
0.0
  0
POINT
  5
13D85
330
13AAF
100
AcDbEntity
  8
Defpoints
 62
     0
100
AcDbPoint
 10
-124.9157251042483
 20
1918.138537619163
 30
0.0
  0
POINT
  5
13D86
330
13AAF
100
AcDbEntity
  8
Defpoints
 62
     0
100
AcDbPoint
 10
-148.8010333309116
 20
1918.138537619163
 30
0.0
  0
ENDBLK
  5
13ABA
330
13AAF
100
AcDbEntity
  8
0
100
AcDbBlockEnd
  0
BLOCK
  5
13AD1
330
13AC7
100
AcDbEntity
  8
0
100
AcDbBlockBegin
  2
*D18
 70
     1
 10
0.0
 20
0.0
 30
0.0
  3
*D18
  1

  0
LINE
  5
13D9A
330
13AC7
100
AcDbEntity
  8
Object
 62
     0
370
    -2
100
AcDbLine
 10
-128.9157251042484
 20
1795.682178068304
 30
0.0
 11
-128.9157251042484
 21
1779.354293686271
 31
0.0
  0
LINE
  5
13D9B
330
13AC7
100
AcDbEntity
  8
Object
 62
     0
370
    -2
100
AcDbLine
 10
-79.91572510424828
 20
1795.682178068304
 30
0.0
 11
-79.91572510424828
 21
1779.354293686271
 31
0.0
  0
LINE
  5
13D9C
330
13AC7
100
AcDbEntity
  8
Object
 62
     0
370
    -2
100
AcDbLine
 10
-123.9157251042484
 20
1780.354293686271
 30
0.0
 11
-84.91572510424829
 21
1780.354293686271
 31
0.0
  0
INSERT
  5
13D9D
330
13AC7
100
AcDbEntity
  8
Object
 62
     0
370
    -2
100
AcDbBlockReference
  2
_Open30
 10
-128.9157251042484
 20
1780.354293686271
 30
0.0
 41
5.0
 42
5.0
 43
5.0
 50
180.0
  0
INSERT
  5
13D9E
330
13AC7
100
AcDbEntity
  8
Object
 62
     0
370
    -2
100
AcDbBlockReference
  2
_Open30
 10
-79.91572510424828
 20
1780.354293686271
 30
0.0
 41
5.0
 42
5.0
 43
5.0
  0
MTEXT
  5
13D9F
330
13AC7
100
AcDbEntity
  8
Object
 62
     0
100
AcDbMText
 10
-104.4157251042483
 20
1785.604293686271
 30
0.0
 40
7.5
 41
0.0
 71
     5
 72
     1
  1
\A1;Ｂ
 73
     1
 44
1.0
1001
ACAD
1000
MTEXTBEGIN
1070
    73
1070
     1
1070
    44
1040
1.0
1070
    74
1070
     0
1000
MTEXTEND
  0
POINT
  5
13DA0
330
13AC7
100
AcDbEntity
  8
Defpoints
 62
     0
100
AcDbPoint
 10
-128.9157251042484
 20
1796.682178068304
 30
0.0
  0
POINT
  5
13DA1
330
13AC7
100
AcDbEntity
  8
Defpoints
 62
     0
100
AcDbPoint
 10
-79.91572510424828
 20
1796.682178068304
 30
0.0
  0
POINT
  5
13DA2
330
13AC7
100
AcDbEntity
  8
Defpoints
 62
     0
100
AcDbPoint
 10
-79.91572510424828
 20
1780.354293686271
 30
0.0
  0
ENDBLK
  5
13AD2
330
13AC7
100
AcDbEntity
  8
0
100
AcDbBlockEnd
  0
BLOCK
  5
13AE9
330
13ADF
100
AcDbEntity
  8
0
100
AcDbBlockBegin
  2
*D19
 70
     1
 10
0.0
 20
0.0
 30
0.0
  3
*D19
  1

  0
LINE
  5
13DA3
330
13ADF
100
AcDbEntity
  8
Object
 62
     0
370
    -2
100
AcDbLine
 10
-126.9157251042484
 20
1793.682178068304
 30
0.0
 11
-149.8010333309116
 21
1793.682178068304
 31
0.0
  0
LINE
  5
13DA4
330
13ADF
100
AcDbEntity
  8
Object
 62
     0
370
    -2
100
AcDbLine
 10
-129.9157251042484
 20
1823.682178068304
 30
0.0
 11
-149.8010333309116
 21
1823.682178068304
 31
0.0
  0
LINE
  5
13DA5
330
13ADF
100
AcDbEntity
  8
Object
 62
     0
370
    -2
100
AcDbLine
 10
-148.8010333309116
 20
1798.682178068304
 30
0.0
 11
-148.8010333309116
 21
1802.670756747592
 31
0.0
  0
LINE
  5
13DA6
330
13ADF
100
AcDbEntity
  8
Object
 62
     0
370
    -2
100
AcDbLine
 10
-148.8010333309116
 20
1818.682178068304
 30
0.0
 11
-148.8010333309116
 21
1814.693599389017
 31
0.0
  0
INSERT
  5
13DA7
330
13ADF
100
AcDbEntity
  8
Object
 62
     0
370
    -2
100
AcDbBlockReference
  2
_Open30
 10
-148.8010333309116
 20
1793.682178068304
 30
0.0
 41
5.0
 42
5.0
 43
5.0
 50
270.0
  0
INSERT
  5
13DA8
330
13ADF
100
AcDbEntity
  8
Object
 62
     0
370
    -2
100
AcDbBlockReference
  2
_Open30
 10
-148.8010333309116
 20
1823.682178068304
 30
0.0
 41
5.0
 42
5.0
 43
5.0
 50
90.0
  0
MTEXT
  5
13DA9
330
13ADF
100
AcDbEntity
  8
Object
 62
     0
100
AcDbMText
 10
-148.8010333309119
 20
1808.682178068304
 30
0.0
 40
7.5
 41
0.0
 71
     5
 72
     1
  1
\A1;カブリ
 11
0.9999999998476914
 21
-0.000017453292519
 31
0.0
 73
     1
 44
1.0
1001
ACAD
1000
MTEXTBEGIN
1070
    73
1070
     1
1070
    44
1040
1.0
1070
    74
1070
     0
1000
MTEXTEND
  0
POINT
  5
13DAA
330
13ADF
100
AcDbEntity
  8
Defpoints
 62
     0
100
AcDbPoint
 10
-125.9157251042484
 20
1793.682178068304
 30
0.0
  0
POINT
  5
13DAB
330
13ADF
100
AcDbEntity
  8
Defpoints
 62
     0
100
AcDbPoint
 10
-128.9157251042484
 20
1823.682178068304
 30
0.0
  0
POINT
  5
13DAC
330
13ADF
100
AcDbEntity
  8
Defpoints
 62
     0
100
AcDbPoint
 10
-148.8010333309116
 20
1823.682178068304
 30
0.0
  0
ENDBLK
  5
13AEA
330
13ADF
100
AcDbEntity
  8
0
100
AcDbBlockEnd
  0
BLOCK
  5
13B01
330
13AF7
100
AcDbEntity
  8
0
100
AcDbBlockBegin
  2
*D20
 70
     1
 10
0.0
 20
0.0
 30
0.0
  3
*D20
  1

  0
LINE
  5
13DAD
330
13AF7
100
AcDbEntity
  8
Object
 62
     0
370
    -2
100
AcDbLine
 10
-237.5655642840611
 20
1793.682178068304
 30
0.0
 11
-259.5575242475188
 21
1793.682178068304
 31
0.0
  0
LINE
  5
13DAE
330
13AF7
100
AcDbEntity
  8
Object
 62
     0
370
    -2
100
AcDbLine
 10
-220.4184114113592
 20
1823.982178068304
 30
0.0
 11
-259.5575242475188
 21
1823.982178068304
 31
0.0
  0
LINE
  5
13DAF
330
13AF7
100
AcDbEntity
  8
Object
 62
     0
370
    -2
100
AcDbLine
 10
-258.5575242475188
 20
1798.682178068304
 30
0.0
 11
-258.5575242475188
 21
1802.820756747592
 31
0.0
  0
LINE
  5
13DB0
330
13AF7
100
AcDbEntity
  8
Object
 62
     0
370
    -2
100
AcDbLine
 10
-258.5575242475188
 20
1818.982178068304
 30
0.0
 11
-258.5575242475188
 21
1814.843599389017
 31
0.0
  0
INSERT
  5
13DB1
330
13AF7
100
AcDbEntity
  8
Object
 62
     0
370
    -2
100
AcDbBlockReference
  2
_Open30
 10
-258.5575242475188
 20
1793.682178068304
 30
0.0
 41
5.0
 42
5.0
 43
5.0
 50
270.0
  0
INSERT
  5
13DB2
330
13AF7
100
AcDbEntity
  8
Object
 62
     0
370
    -2
100
AcDbBlockReference
  2
_Open30
 10
-258.5575242475188
 20
1823.982178068304
 30
0.0
 41
5.0
 42
5.0
 43
5.0
 50
90.0
  0
MTEXT
  5
13DB3
330
13AF7
100
AcDbEntity
  8
Object
 62
     0
100
AcDbMText
 10
-258.5575242475191
 20
1808.832178068304
 30
0.0
 40
7.5
 41
0.0
 71
     5
 72
     1
  1
\A1;カブリ
 11
0.9999999998476914
 21
-0.000017453292519
 31
0.0
 73
     1
 44
1.0
1001
ACAD
1000
MTEXTBEGIN
1070
    73
1070
     1
1070
    44
1040
1.0
1070
    74
1070
     0
1000
MTEXTEND
  0
POINT
  5
13DB4
330
13AF7
100
AcDbEntity
  8
Defpoints
 62
     0
100
AcDbPoint
 10
-236.5655642840611
 20
1793.682178068304
 30
0.0
  0
POINT
  5
13DB5
330
13AF7
100
AcDbEntity
  8
Defpoints
 62
     0
100
AcDbPoint
 10
-219.4184114113593
 20
1823.982178068304
 30
0.0
  0
POINT
  5
13DB6
330
13AF7
100
AcDbEntity
  8
Defpoints
 62
     0
100
AcDbPoint
 10
-258.5575242475188
 20
1823.982178068304
 30
0.0
  0
ENDBLK
  5
13B02
330
13AF7
100
AcDbEntity
  8
0
100
AcDbBlockEnd
  0
BLOCK
  5
13B19
330
13B0F
100
AcDbEntity
  8
0
100
AcDbBlockBegin
  2
*D21
 70
     1
 10
0.0
 20
0.0
 30
0.0
  3
*D21
  1

  0
LINE
  5
13DB7
330
13B0F
100
AcDbEntity
  8
Object
 62
     0
370
    -2
100
AcDbLine
 10
-239.4184114113592
 20
1795.682178068305
 30
0.0
 11
-239.4184114113592
 21
1778.354293686271
 31
0.0
  0
LINE
  5
13DB8
330
13B0F
100
AcDbEntity
  8
Object
 62
     0
370
    -2
100
AcDbLine
 10
-199.4184114113592
 20
1795.682178068305
 30
0.0
 11
-199.4184114113592
 21
1778.354293686271
 31
0.0
  0
LINE
  5
13DB9
330
13B0F
100
AcDbEntity
  8
Object
 62
     0
370
    -2
100
AcDbLine
 10
-234.4184114113593
 20
1779.354293686271
 30
0.0
 11
-204.4184114113592
 21
1779.354293686271
 31
0.0
  0
INSERT
  5
13DBA
330
13B0F
100
AcDbEntity
  8
Object
 62
     0
370
    -2
100
AcDbBlockReference
  2
_Open30
 10
-239.4184114113592
 20
1779.354293686271
 30
0.0
 41
5.0
 42
5.0
 43
5.0
 50
180.0
  0
INSERT
  5
13DBB
330
13B0F
100
AcDbEntity
  8
Object
 62
     0
370
    -2
100
AcDbBlockReference
  2
_Open30
 10
-199.4184114113592
 20
1779.354293686271
 30
0.0
 41
5.0
 42
5.0
 43
5.0
  0
MTEXT
  5
13DBC
330
13B0F
100
AcDbEntity
  8
Object
 62
     0
100
AcDbMText
 10
-219.4184114113592
 20
1784.604293686271
 30
0.0
 40
7.5
 41
0.0
 71
     5
 72
     1
  1
\A1;Ｂ
 73
     1
 44
1.0
1001
ACAD
1000
MTEXTBEGIN
1070
    73
1070
     1
1070
    44
1040
1.0
1070
    74
1070
     0
1000
MTEXTEND
  0
POINT
  5
13DBD
330
13B0F
100
AcDbEntity
  8
Defpoints
 62
     0
100
AcDbPoint
 10
-239.4184114113592
 20
1796.682178068305
 30
0.0
  0
POINT
  5
13DBE
330
13B0F
100
AcDbEntity
  8
Defpoints
 62
     0
100
AcDbPoint
 10
-199.4184114113592
 20
1796.682178068305
 30
0.0
  0
POINT
  5
13DBF
330
13B0F
100
AcDbEntity
  8
Defpoints
 62
     0
100
AcDbPoint
 10
-199.4184114113592
 20
1779.354293686271
 30
0.0
  0
ENDBLK
  5
13B1A
330
13B0F
100
AcDbEntity
  8
0
100
AcDbBlockEnd
  0
BLOCK
  5
13B86
330
13B7E
100
AcDbEntity
  8
0
100
AcDbBlockBegin
  2
*D22
 70
     1
 10
0.0
 20
0.0
 30
0.0
  3
*D22
  1

  0
LINE
  5
13D64
330
13B7E
100
AcDbEntity
  8
Object
 62
     0
370
    -2
100
AcDbLine
 10
-258.5575242475188
 20
1886.899960638778
 30
0.0
 11
-258.5575242475188
 21
1845.819427559934
 31
0.0
  0
MTEXT
  5
13D65
330
13B7E
100
AcDbEntity
  8
Object
 62
     0
100
AcDbMText
 10
-267.9592125642543
 20
1866.518923337009
 30
0.0
 40
7.5
 41
0.0
 71
     5
 72
     1
  1
\A1;Ａ
 11
0.9999999998476914
 21
-0.000017453292519
 31
0.0
 73
     1
 44
1.0
1001
ACAD
1000
MTEXTBEGIN
1070
    73
1070
     1
1070
    44
1040
1.0
1070
    74
1070
     0
1000
MTEXTEND
  0
INSERT
  5
13D66
330
13B7E
100
AcDbEntity
  8
Object
 62
     0
370
    -2
100
AcDbBlockReference
  2
_Open30
 10
-258.5575242475188
 20
1891.899960638778
 30
0.0
 41
5.0
 42
5.0
 43
5.0
 50
90.0
  0
INSERT
  5
13D67
330
13B7E
100
AcDbEntity
  8
Object
 62
     0
370
    -2
100
AcDbBlockReference
  2
_Open30
 10
-258.5575242475188
 20
1840.819427559934
 30
0.0
 41
5.0
 42
5.0
 43
5.0
 50
270.0
  0
POINT
  5
13D68
330
13B7E
100
AcDbEntity
  8
Defpoints
 62
     0
100
AcDbPoint
 10
-258.5575242475188
 20
1891.899960638778
 30
0.0
  0
POINT
  5
13D69
330
13B7E
100
AcDbEntity
  8
Defpoints
 62
     0
100
AcDbPoint
 10
-258.5575242475188
 20
1840.819427559934
 30
0.0
  0
POINT
  5
13D6A
330
13B7E
100
AcDbEntity
  8
Defpoints
 62
     0
100
AcDbPoint
 10
-258.5575242475188
 20
1840.819427559934
 30
0.0
  0
ENDBLK
  5
13B87
330
13B7E
100
AcDbEntity
  8
0
100
AcDbBlockEnd
  0
BLOCK
  5
13EAB
330
13EA3
100
AcDbEntity
  8
0
100
AcDbBlockBegin
  2
*D23
 70
     1
 10
0.0
 20
0.0
 30
0.0
  3
*D23
  1

  0
LINE
  5
13FDE
330
13EA3
100
AcDbEntity
  8
Object
  6
HIDDEN2
 62
     0
370
    -2
100
AcDbLine
 10
177.984412968328
 20
1882.707815181269
 30
0.0
 11
177.984412968328
 21
1816.978962255118
 31
0.0
  0
MTEXT
  5
13FDF
330
13EA3
100
AcDbEntity
  8
Object
  6
HIDDEN2
 62
     0
100
AcDbMText
 10
162.9417116615511
 20
1850.098155498439
 30
0.0
 40
8.0
 41
0.0
 71
     5
 72
     1
  1
\A1;Ａ
 11
0.9999999998476914
 21
-0.000017453292519
 31
0.0
 73
     1
 44
1.0
1001
ACAD
1000
MTEXTBEGIN
1070
    73
1070
     1
1070
    44
1040
1.0
1070
    74
1070
     0
1000
MTEXTEND
  0
INSERT
  5
13FE0
330
13EA3
100
AcDbEntity
  8
Object
  6
HIDDEN2
 62
     0
370
    -2
100
AcDbBlockReference
  2
_Open30
 10
177.984412968328
 20
1890.707815181269
 30
0.0
 41
8.0
 42
8.0
 43
8.0
 50
90.0
  0
INSERT
  5
13FE1
330
13EA3
100
AcDbEntity
  8
Object
  6
HIDDEN2
 62
     0
370
    -2
100
AcDbBlockReference
  2
_Open30
 10
177.984412968328
 20
1808.978962255118
 30
0.0
 41
8.0
 42
8.0
 43
8.0
 50
270.0
  0
POINT
  5
13FE2
330
13EA3
100
AcDbEntity
  8
Defpoints
  6
HIDDEN2
 62
     0
100
AcDbPoint
 10
177.984412968328
 20
1890.707815181269
 30
0.0
  0
POINT
  5
13FE3
330
13EA3
100
AcDbEntity
  8
Defpoints
  6
HIDDEN2
 62
     0
100
AcDbPoint
 10
177.984412968328
 20
1808.978962255118
 30
0.0
  0
POINT
  5
13FE4
330
13EA3
100
AcDbEntity
  8
Defpoints
  6
HIDDEN2
 62
     0
100
AcDbPoint
 10
177.984412968328
 20
1808.978962255118
 30
0.0
  0
ENDBLK
  5
13EAC
330
13EA3
100
AcDbEntity
  8
0
100
AcDbBlockEnd
  0
BLOCK
  5
13EB7
330
13EAD
100
AcDbEntity
  8
0
100
AcDbBlockBegin
  2
*D24
 70
     1
 10
0.0
 20
0.0
 30
0.0
  3
*D24
  1

  0
LINE
  5
13FEF
330
13EAD
100
AcDbEntity
  8
Object
  6
HIDDEN2
 62
     0
370
    -2
100
AcDbLine
 10
390.8112915975607
 20
1836.689538349885
 30
0.0
 11
352.5947984348994
 21
1836.689538349885
 31
0.0
  0
LINE
  5
13FF0
330
13EAD
100
AcDbEntity
  8
Object
  6
HIDDEN2
 62
     0
370
    -2
100
AcDbLine
 10
390.8112915975607
 20
1932.689538349885
 30
0.0
 11
352.5947984348994
 21
1932.689538349885
 31
0.0
  0
LINE
  5
13FF1
330
13EAD
100
AcDbEntity
  8
Object
  6
HIDDEN2
 62
     0
370
    -2
100
AcDbLine
 10
353.5947984348994
 20
1844.689538349885
 30
0.0
 11
353.5947984348994
 21
1924.689538349885
 31
0.0
  0
MTEXT
  5
13FF2
330
13EAD
100
AcDbEntity
  8
Object
  6
HIDDEN2
 62
     0
100
AcDbMText
 10
341.0577536134119
 20
1884.432749768634
 30
0.0
 40
8.0
 41
0.0
 71
     5
 72
     1
  1
\A1;Ａ
 11
0.9999999998476914
 21
-0.000017453292519
 31
0.0
 73
     1
 44
1.0
1001
ACAD
1000
MTEXTBEGIN
1070
    73
1070
     1
1070
    44
1040
1.0
1070
    74
1070
     0
1000
MTEXTEND
  0
INSERT
  5
13FF3
330
13EAD
100
AcDbEntity
  8
Object
  6
HIDDEN2
 62
     0
370
    -2
100
AcDbBlockReference
  2
_Open30
 10
353.5947984348994
 20
1836.689538349885
 30
0.0
 41
8.0
 42
8.0
 43
8.0
 50
270.0
  0
INSERT
  5
13FF4
330
13EAD
100
AcDbEntity
  8
Object
  6
HIDDEN2
 62
     0
370
    -2
100
AcDbBlockReference
  2
_Open30
 10
353.5947984348994
 20
1932.689538349885
 30
0.0
 41
8.0
 42
8.0
 43
8.0
 50
90.0
  0
POINT
  5
13FF5
330
13EAD
100
AcDbEntity
  8
Defpoints
  6
HIDDEN2
 62
     0
100
AcDbPoint
 10
391.8112915975606
 20
1836.689538349885
 30
0.0
  0
POINT
  5
13FF6
330
13EAD
100
AcDbEntity
  8
Defpoints
  6
HIDDEN2
 62
     0
100
AcDbPoint
 10
391.8112915975608
 20
1932.689538349885
 30
0.0
  0
POINT
  5
13FF7
330
13EAD
100
AcDbEntity
  8
Defpoints
  6
HIDDEN2
 62
     0
100
AcDbPoint
 10
353.5947984348994
 20
1932.689538349885
 30
0.0
  0
ENDBLK
  5
13EB8
330
13EAD
100
AcDbEntity
  8
0
100
AcDbBlockEnd
  0
BLOCK
  5
13EC3
330
13EB9
100
AcDbEntity
  8
0
100
AcDbBlockBegin
  2
*D25
 70
     1
 10
0.0
 20
0.0
 30
0.0
  3
*D25
  1

  0
LINE
  5
1400B
330
13EB9
100
AcDbEntity
  8
Object
  6
HIDDEN2
 62
     0
370
    -2
100
AcDbLine
 10
385.4112915975605
 20
1737.359363068511
 30
0.0
 11
385.4112915975605
 21
1711.234748057258
 31
0.0
  0
LINE
  5
1400C
330
13EB9
100
AcDbEntity
  8
Object
  6
HIDDEN2
 62
     0
370
    -2
100
AcDbLine
 10
463.8112915975607
 20
1737.359363068511
 30
0.0
 11
463.8112915975607
 21
1711.234748057258
 31
0.0
  0
LINE
  5
1400D
330
13EB9
100
AcDbEntity
  8
Object
  6
HIDDEN2
 62
     0
370
    -2
100
AcDbLine
 10
393.4112915975605
 20
1712.234748057257
 30
0.0
 11
455.8112915975607
 21
1712.234748057257
 31
0.0
  0
INSERT
  5
1400E
330
13EB9
100
AcDbEntity
  8
Object
  6
HIDDEN2
 62
     0
370
    -2
100
AcDbBlockReference
  2
_Open30
 10
385.4112915975605
 20
1712.234748057257
 30
0.0
 41
8.0
 42
8.0
 43
8.0
 50
180.0
  0
INSERT
  5
1400F
330
13EB9
100
AcDbEntity
  8
Object
  6
HIDDEN2
 62
     0
370
    -2
100
AcDbBlockReference
  2
_Open30
 10
463.8112915975607
 20
1712.234748057257
 30
0.0
 41
8.0
 42
8.0
 43
8.0
  0
MTEXT
  5
14010
330
13EB9
100
AcDbEntity
  8
Object
  6
HIDDEN2
 62
     0
100
AcDbMText
 10
424.6112915975606
 20
1719.234748057257
 30
0.0
 40
8.0
 41
0.0
 71
     5
 72
     1
  1
\A1;Ｂ
 73
     1
 44
1.0
1001
ACAD
1000
MTEXTBEGIN
1070
    73
1070
     1
1070
    44
1040
1.0
1070
    74
1070
     0
1000
MTEXTEND
  0
POINT
  5
14011
330
13EB9
100
AcDbEntity
  8
Defpoints
  6
HIDDEN2
 62
     0
100
AcDbPoint
 10
385.4112915975605
 20
1738.359363068511
 30
0.0
  0
POINT
  5
14012
330
13EB9
100
AcDbEntity
  8
Defpoints
  6
HIDDEN2
 62
     0
100
AcDbPoint
 10
463.8112915975607
 20
1738.359363068511
 30
0.0
  0
POINT
  5
14013
330
13EB9
100
AcDbEntity
  8
Defpoints
  6
HIDDEN2
 62
     0
100
AcDbPoint
 10
463.8112915975607
 20
1712.234748057257
 30
0.0
  0
ENDBLK
  5
13EC4
330
13EB9
100
AcDbEntity
  8
0
100
AcDbBlockEnd
  0
BLOCK
  5
13ED0
330
13EC5
100
AcDbEntity
  8
0
100
AcDbBlockBegin
  2
*D26
 70
     1
 10
0.0
 20
0.0
 30
0.0
  3
*D26
  1

  0
LINE
  5
13FF8
330
13EC5
100
AcDbEntity
  8
Object
  6
HIDDEN2
 62
     0
370
    -2
100
AcDbLine
 10
389.2112915975607
 20
1733.559363068511
 30
0.0
 11
352.5947984348994
 21
1733.559363068511
 31
0.0
  0
LINE
  5
13FF9
330
13EC5
100
AcDbEntity
  8
Object
  6
HIDDEN2
 62
     0
370
    -2
100
AcDbLine
 10
384.4112915975605
 20
1781.559363068511
 30
0.0
 11
352.5947984348994
 21
1781.559363068511
 31
0.0
  0
LINE
  5
13FFA
330
13EC5
100
AcDbEntity
  8
Object
  6
HIDDEN2
 62
     0
370
    -2
100
AcDbLine
 10
353.5947984348994
 20
1741.559363068511
 30
0.0
 11
353.5947984348994
 21
1749.747180326204
 31
0.0
  0
LINE
  5
13FFB
330
13EC5
100
AcDbEntity
  8
Object
  6
HIDDEN2
 62
     0
370
    -2
100
AcDbLine
 10
353.5947984348994
 20
1773.559363068511
 30
0.0
 11
353.5947984348994
 21
1765.371545810818
 31
0.0
  0
INSERT
  5
13FFC
330
13EC5
100
AcDbEntity
  8
Object
  6
HIDDEN2
 62
     0
370
    -2
100
AcDbBlockReference
  2
_Open30
 10
353.5947984348994
 20
1733.559363068511
 30
0.0
 41
8.0
 42
8.0
 43
8.0
 50
270.0
  0
INSERT
  5
13FFD
330
13EC5
100
AcDbEntity
  8
Object
  6
HIDDEN2
 62
     0
370
    -2
100
AcDbBlockReference
  2
_Open30
 10
353.5947984348994
 20
1781.559363068511
 30
0.0
 41
8.0
 42
8.0
 43
8.0
 50
90.0
  0
MTEXT
  5
13FFE
330
13EC5
100
AcDbEntity
  8
Object
  6
HIDDEN2
 62
     0
100
AcDbMText
 10
353.5947984348991
 20
1757.559363068511
 30
0.0
 40
8.0
 41
0.0
 71
     5
 72
     1
  1
\A1;カブリ
 11
0.9999999998476914
 21
-0.000017453292519
 31
0.0
 73
     1
 44
1.0
1001
ACAD
1000
MTEXTBEGIN
1070
    73
1070
     1
1070
    44
1040
1.0
1070
    74
1070
     0
1000
MTEXTEND
  0
POINT
  5
13FFF
330
13EC5
100
AcDbEntity
  8
Defpoints
  6
HIDDEN2
 62
     0
100
AcDbPoint
 10
390.2112915975607
 20
1733.559363068511
 30
0.0
  0
POINT
  5
14000
330
13EC5
100
AcDbEntity
  8
Defpoints
  6
HIDDEN2
 62
     0
100
AcDbPoint
 10
385.4112915975605
 20
1781.559363068511
 30
0.0
  0
POINT
  5
14001
330
13EC5
100
AcDbEntity
  8
Defpoints
  6
HIDDEN2
 62
     0
100
AcDbPoint
 10
353.5947984348994
 20
1781.559363068511
 30
0.0
  0
ENDBLK
  5
13ED1
330
13EC5
100
AcDbEntity
  8
0
100
AcDbBlockEnd
  0
BLOCK
  5
13EDD
330
13ED2
100
AcDbEntity
  8
0
100
AcDbBlockBegin
  2
*D27
 70
     1
 10
0.0
 20
0.0
 30
0.0
  3
*D27
  1

  0
LINE
  5
13FE5
330
13ED2
100
AcDbEntity
  8
Object
  6
HIDDEN2
 62
     0
370
    -2
100
AcDbLine
 10
212.1715489098603
 20
1733.559363068511
 30
0.0
 11
176.984412968328
 21
1733.559363068511
 31
0.0
  0
LINE
  5
13FE6
330
13ED2
100
AcDbEntity
  8
Object
  6
HIDDEN2
 62
     0
370
    -2
100
AcDbLine
 10
239.6069935061833
 20
1782.039363068511
 30
0.0
 11
176.984412968328
 21
1782.039363068511
 31
0.0
  0
LINE
  5
13FE7
330
13ED2
100
AcDbEntity
  8
Object
  6
HIDDEN2
 62
     0
370
    -2
100
AcDbLine
 10
177.984412968328
 20
1741.559363068511
 30
0.0
 11
177.984412968328
 21
1749.987180326205
 31
0.0
  0
LINE
  5
13FE8
330
13ED2
100
AcDbEntity
  8
Object
  6
HIDDEN2
 62
     0
370
    -2
100
AcDbLine
 10
177.984412968328
 20
1774.039363068511
 30
0.0
 11
177.984412968328
 21
1765.611545810818
 31
0.0
  0
INSERT
  5
13FE9
330
13ED2
100
AcDbEntity
  8
Object
  6
HIDDEN2
 62
     0
370
    -2
100
AcDbBlockReference
  2
_Open30
 10
177.984412968328
 20
1733.559363068511
 30
0.0
 41
8.0
 42
8.0
 43
8.0
 50
270.0
  0
INSERT
  5
13FEA
330
13ED2
100
AcDbEntity
  8
Object
  6
HIDDEN2
 62
     0
370
    -2
100
AcDbBlockReference
  2
_Open30
 10
177.984412968328
 20
1782.039363068511
 30
0.0
 41
8.0
 42
8.0
 43
8.0
 50
90.0
  0
MTEXT
  5
13FEB
330
13ED2
100
AcDbEntity
  8
Object
  6
HIDDEN2
 62
     0
100
AcDbMText
 10
177.9844129683277
 20
1757.799363068511
 30
0.0
 40
8.0
 41
0.0
 71
     5
 72
     1
  1
\A1;カブリ
 11
0.9999999998476914
 21
-0.000017453292519
 31
0.0
 73
     1
 44
1.0
1001
ACAD
1000
MTEXTBEGIN
1070
    73
1070
     1
1070
    44
1040
1.0
1070
    74
1070
     0
1000
MTEXTEND
  0
POINT
  5
13FEC
330
13ED2
100
AcDbEntity
  8
Defpoints
  6
HIDDEN2
 62
     0
100
AcDbPoint
 10
213.1715489098603
 20
1733.559363068511
 30
0.0
  0
POINT
  5
13FED
330
13ED2
100
AcDbEntity
  8
Defpoints
  6
HIDDEN2
 62
     0
100
AcDbPoint
 10
240.6069935061833
 20
1782.039363068511
 30
0.0
  0
POINT
  5
13FEE
330
13ED2
100
AcDbEntity
  8
Defpoints
  6
HIDDEN2
 62
     0
100
AcDbPoint
 10
177.984412968328
 20
1782.039363068511
 30
0.0
  0
ENDBLK
  5
13EDE
330
13ED2
100
AcDbEntity
  8
0
100
AcDbBlockEnd
  0
BLOCK
  5
13EE9
330
13EDF
100
AcDbEntity
  8
0
100
AcDbBlockBegin
  2
*D28
 70
     1
 10
0.0
 20
0.0
 30
0.0
  3
*D28
  1

  0
LINE
  5
14002
330
13EDF
100
AcDbEntity
  8
Object
  6
HIDDEN2
 62
     0
370
    -2
100
AcDbLine
 10
208.6069935061833
 20
1737.359363068511
 30
0.0
 11
208.6069935061833
 21
1709.634748057257
 31
0.0
  0
LINE
  5
14003
330
13EDF
100
AcDbEntity
  8
Object
  6
HIDDEN2
 62
     0
370
    -2
100
AcDbLine
 10
272.6069935061834
 20
1737.359363068511
 30
0.0
 11
272.6069935061834
 21
1709.634748057257
 31
0.0
  0
LINE
  5
14004
330
13EDF
100
AcDbEntity
  8
Object
  6
HIDDEN2
 62
     0
370
    -2
100
AcDbLine
 10
216.6069935061833
 20
1710.634748057257
 30
0.0
 11
264.6069935061833
 21
1710.634748057257
 31
0.0
  0
INSERT
  5
14005
330
13EDF
100
AcDbEntity
  8
Object
  6
HIDDEN2
 62
     0
370
    -2
100
AcDbBlockReference
  2
_Open30
 10
208.6069935061833
 20
1710.634748057257
 30
0.0
 41
8.0
 42
8.0
 43
8.0
 50
180.0
  0
INSERT
  5
14006
330
13EDF
100
AcDbEntity
  8
Object
  6
HIDDEN2
 62
     0
370
    -2
100
AcDbBlockReference
  2
_Open30
 10
272.6069935061834
 20
1710.634748057257
 30
0.0
 41
8.0
 42
8.0
 43
8.0
  0
MTEXT
  5
14007
330
13EDF
100
AcDbEntity
  8
Object
  6
HIDDEN2
 62
     0
100
AcDbMText
 10
240.6069935061833
 20
1717.634748057258
 30
0.0
 40
8.0
 41
0.0
 71
     5
 72
     1
  1
\A1;Ｂ
 73
     1
 44
1.0
1001
ACAD
1000
MTEXTBEGIN
1070
    73
1070
     1
1070
    44
1040
1.0
1070
    74
1070
     0
1000
MTEXTEND
  0
POINT
  5
14008
330
13EDF
100
AcDbEntity
  8
Defpoints
  6
HIDDEN2
 62
     0
100
AcDbPoint
 10
208.6069935061833
 20
1738.359363068512
 30
0.0
  0
POINT
  5
14009
330
13EDF
100
AcDbEntity
  8
Defpoints
  6
HIDDEN2
 62
     0
100
AcDbPoint
 10
272.6069935061834
 20
1738.359363068512
 30
0.0
  0
POINT
  5
1400A
330
13EDF
100
AcDbEntity
  8
Defpoints
  6
HIDDEN2
 62
     0
100
AcDbPoint
 10
272.6069935061834
 20
1710.634748057257
 30
0.0
  0
ENDBLK
  5
13EEA
330
13EDF
100
AcDbEntity
  8
0
100
AcDbBlockEnd
  0
ENDSEC
  0
SECTION
  2
ENTITIES
  0
LINE
  5
13E19
330
1F
100
AcDbEntity
  8
Bracket
 62
     0
100
AcDbLine
 10
465.4112915975608
 20
1926.289538349886
 30
0.0
 11
465.4112915975606
 21
1843.089538349886
 31
0.0
  0
LINE
  5
13E1A
330
1F
100
AcDbEntity
  8
Bracket
 62
     0
100
AcDbLine
 10
385.4112915975608
 20
1926.289538349886
 30
0.0
 11
385.4112915975607
 21
1843.089538349886
 31
0.0
  0
LINE
  5
13E1B
330
1F
100
AcDbEntity
  8
Bracket
 62
     0
100
AcDbLine
 10
391.8112915975608
 20
1932.689538349885
 30
0.0
 11
459.0112915975607
 21
1932.689538349885
 31
0.0
  0
LINE
  5
13E1C
330
1F
100
AcDbEntity
  8
Bracket
 62
     0
100
AcDbLine
 10
391.8112915975606
 20
1836.689538349885
 30
0.0
 11
459.0112915975606
 21
1836.689538349885
 31
0.0
  0
ARC
  5
13E1D
330
1F
100
AcDbEntity
  8
Bracket
 62
     0
100
AcDbCircle
 10
459.0112915975607
 20
1926.289538349886
 30
0.0
 40
6.4
100
AcDbArc
 50
0.0
 51
90.0
  0
ARC
  5
13E1E
330
1F
100
AcDbEntity
  8
Bracket
 62
     0
100
AcDbCircle
 10
459.0112915975606
 20
1843.089538349886
 30
0.0
 40
6.4
100
AcDbArc
 50
270.0
 51
0.0
  0
ARC
  5
13E1F
102
{ACAD_REACTORS
330
13E93
102
}
330
1F
100
AcDbEntity
  8
Bracket
 62
     0
100
AcDbCircle
 10
391.8112915975608
 20
1926.289538349886
 30
0.0
 40
6.4
100
AcDbArc
 50
90.0
 51
180.0
  0
ARC
  5
13E20
102
{ACAD_REACTORS
330
13E93
102
}
330
1F
100
AcDbEntity
  8
Bracket
 62
     0
100
AcDbCircle
 10
391.8112915975606
 20
1843.089538349886
 30
0.0
 40
6.4
100
AcDbArc
 50
180.0
 51
270.0
  0
LINE
  5
13E21
330
1F
100
AcDbEntity
  8
Bracket
 62
     0
100
AcDbLine
 10
399.4056547255839
 20
1848.222167601664
 30
0.0
 11
443.1106795546368
 21
1864.129495727305
 31
0.0
  0
LINE
  5
13E22
330
1F
100
AcDbEntity
  8
Bracket
 62
     0
100
AcDbLine
 10
401.5945836428681
 20
1842.208134828634
 30
0.0
 11
445.2996084719211
 21
1858.115462954275
 31
0.0
  0
LINE
  5
13E23
330
1F
100
AcDbEntity
  8
Bracket
 62
     0
100
AcDbLine
 10
394.9293231230455
 20
1849.146942793577
 30
0.0
 11
449.0556180803138
 21
1868.847303049136
 31
0.0
  0
LINE
  5
13E24
330
1F
100
AcDbEntity
  8
Bracket
 62
     0
100
AcDbLine
 10
398.7599487282924
 20
1838.622385440775
 30
0.0
 11
452.8862436855606
 21
1858.322745696333
 31
0.0
  0
CIRCLE
  5
13E25
330
1F
100
AcDbEntity
  8
Bracket
 62
     0
100
AcDbCircle
 10
400.5001191842259
 20
1845.215151215149
 30
0.0
 40
3.200000000000001
  0
LINE
  5
13E26
330
1F
100
AcDbEntity
  8
Bracket
 62
     0
100
AcDbLine
 10
394.9293231230456
 20
1849.146942793577
 30
0.0
 11
398.7599487282924
 21
1838.622385440775
 31
0.0
  0
LINE
  5
13E27
330
1F
100
AcDbEntity
  8
Bracket
 62
     0
100
AcDbLine
 10
449.0556180803148
 20
1868.847303049134
 30
0.0
 11
452.8862436855619
 21
1858.322745696331
 31
0.0
  0
LINE
  5
13E28
330
1F
100
AcDbEntity
  8
Bracket
 62
     0
100
AcDbLine
 10
445.2996084719204
 20
1858.115462954275
 30
0.0
 11
443.1106795546368
 21
1864.129495727305
 31
0.0
  0
LINE
  5
13E29
330
1F
100
AcDbEntity
  8
Bracket
 62
     0
100
AcDbLine
 10
443.1106795546367
 20
1864.129495727305
 30
0.0
 11
449.3292341949744
 21
1868.095548952507
 31
0.0
  0
LINE
  5
13E2A
330
1F
100
AcDbEntity
  8
Bracket
 62
     0
100
AcDbLine
 10
445.2996084719207
 20
1858.115462954275
 30
0.0
 11
452.6126275709001
 21
1859.074499792962
 31
0.0
  0
LINE
  5
13E2B
330
1F
100
AcDbEntity
  8
Bracket
 62
     0
100
AcDbLine
 10
404.6016000293741
 20
1843.302599287273
 30
0.0
 11
402.4126711120899
 21
1849.316632060304
 31
0.0
  0
LINE
  5
13E2C
330
1F
100
AcDbEntity
  8
Bracket
 62
     0
100
AcDbLine
 10
449.2279995522533
 20
1927.170941871137
 30
0.0
 11
405.5229747232003
 21
1911.263613745496
 31
0.0
  0
LINE
  5
13E2D
330
1F
100
AcDbEntity
  8
Bracket
 62
     0
100
AcDbLine
 10
451.4169284695376
 20
1921.156909098107
 30
0.0
 11
407.7119036404845
 21
1905.249580972466
 31
0.0
  0
LINE
  5
13E2E
330
1F
100
AcDbEntity
  8
Bracket
 62
     0
100
AcDbLine
 10
452.0626344668288
 20
1930.756691258996
 30
0.0
 11
397.9363395095607
 21
1911.056331003437
 31
0.0
  0
LINE
  5
13E2F
330
1F
100
AcDbEntity
  8
Bracket
 62
     0
100
AcDbLine
 10
455.8932600720758
 20
1920.232133906193
 30
0.0
 11
401.7669651148075
 21
1900.531773650635
 31
0.0
  0
CIRCLE
  5
13E30
330
1F
100
AcDbEntity
  8
Bracket
 62
     0
100
AcDbCircle
 10
450.3224640108956
 20
1924.163925484622
 30
0.0
 40
3.200000000000001
  0
LINE
  5
13E31
330
1F
100
AcDbEntity
  8
Bracket
 62
     0
100
AcDbLine
 10
455.8932600720758
 20
1920.232133906193
 30
0.0
 11
452.0626344668288
 21
1930.756691258996
 31
0.0
  0
LINE
  5
13E32
330
1F
100
AcDbEntity
  8
Bracket
 62
     0
100
AcDbLine
 10
446.2209831657471
 20
1926.076477412498
 30
0.0
 11
448.4099120830315
 21
1920.062444639468
 31
0.0
  0
LINE
  5
13E33
330
1F
100
AcDbEntity
  8
Bracket
 62
     0
100
AcDbLine
 10
407.7119036404845
 20
1905.249580972466
 30
0.0
 11
401.493349000147
 21
1901.283527747263
 31
0.0
  0
LINE
  5
13E34
330
1F
100
AcDbEntity
  8
Bracket
 62
     0
100
AcDbLine
 10
401.7669651148064
 20
1900.531773650638
 30
0.0
 11
397.9363395095596
 21
1911.05633100344
 31
0.0
  0
LINE
  5
13E35
330
1F
100
AcDbEntity
  8
Bracket
 62
     0
100
AcDbLine
 10
405.5229747232006
 20
1911.263613745496
 30
0.0
 11
398.2099556242212
 21
1910.304576906809
 31
0.0
  0
LINE
  5
13E36
330
1F
100
AcDbEntity
  8
Bracket
 62
     0
100
AcDbLine
 10
405.5229747232008
 20
1911.263613745496
 30
0.0
 11
407.7119036404845
 21
1905.249580972466
 31
0.0
  0
LINE
  5
13E37
330
1F
100
AcDbEntity
  8
Bracket
 62
     0
100
AcDbLine
 10
385.4112915975605
 20
1781.559363068511
 30
0.0
 11
425.4112915975606
 21
1781.559363068511
 31
0.0
  0
LINE
  5
13E38
330
1F
100
AcDbEntity
  8
Bracket
 62
     0
100
AcDbLine
 10
403.8112915975606
 20
1757.559363068511
 30
0.0
 11
425.4112915975606
 21
1757.559363068511
 31
0.0
  0
LINE
  5
13E39
102
{ACAD_REACTORS
330
13E96
102
}
330
1F
100
AcDbEntity
  8
Bracket
 62
     0
100
AcDbLine
 10
385.4112915975605
 20
1738.359363068511
 30
0.0
 11
399.0112915975607
 21
1738.359363068511
 31
0.0
  0
LINE
  5
13E3A
102
{ACAD_REACTORS
330
13E99
102
}
330
1F
100
AcDbEntity
  8
Bracket
 62
     0
100
AcDbLine
 10
385.4112915975605
 20
1781.559363068511
 30
0.0
 11
385.4112915975607
 21
1738.359363068511
 31
0.0
  0
LINE
  5
13E3B
330
1F
100
AcDbEntity
  8
Bracket
 62
     0
100
AcDbLine
 10
401.4112915975604
 20
1755.159363068511
 30
0.0
 11
401.4112915975604
 21
1740.759363068511
 31
0.0
  0
ARC
  5
13E3C
102
{ACAD_REACTORS
330
13E99
102
}
330
1F
100
AcDbEntity
  8
Bracket
 62
     0
100
AcDbCircle
 10
390.2112915975607
 20
1736.759363068511
 30
0.0
 40
3.2
100
AcDbArc
 50
180.0
 51
0.0
  0
LINE
  5
13E3D
330
1F
100
AcDbEntity
  8
Bracket
 62
     0
100
AcDbLine
 10
387.0112915975607
 20
1736.759363068511
 30
0.0
 11
387.0112915975607
 21
1738.359363068511
 31
0.0
  0
LINE
  5
13E3E
330
1F
100
AcDbEntity
  8
Bracket
 62
     0
100
AcDbLine
 10
393.4112915975607
 20
1736.759363068511
 30
0.0
 11
393.4112915975607
 21
1738.359363068511
 31
0.0
  0
ARC
  5
13E3F
330
1F
100
AcDbEntity
  8
Bracket
 62
     0
100
AcDbCircle
 10
403.8112915975606
 20
1755.159363068511
 30
0.0
 40
2.399999999999999
100
AcDbArc
 50
90.0
 51
180.0
  0
ARC
  5
13E40
330
1F
100
AcDbEntity
  8
Bracket
 62
     0
100
AcDbCircle
 10
399.0112915975607
 20
1740.759363068511
 30
0.0
 40
2.399999999999999
100
AcDbArc
 50
270.0
 51
0.0
  0
LINE
  5
13E41
330
1F
100
AcDbEntity
  8
Bracket
 62
     0
100
AcDbLine
 10
457.4112915975608
 20
1736.759363068511
 30
0.0
 11
457.4112915975608
 21
1738.359363068511
 31
0.0
  0
LINE
  5
13E42
102
{ACAD_REACTORS
330
13E96
102
}
330
1F
100
AcDbEntity
  8
Bracket
 62
     0
100
AcDbLine
 10
463.8112915975607
 20
1736.759363068511
 30
0.0
 11
463.8112915975607
 21
1738.359363068511
 31
0.0
  0
ARC
  5
13E43
330
1F
100
AcDbEntity
  8
Bracket
 62
     0
100
AcDbCircle
 10
460.6112915975608
 20
1736.759363068511
 30
0.0
 40
3.2
100
AcDbArc
 50
180.0
 51
0.0
  0
LINE
  5
13E44
330
1F
100
AcDbEntity
  8
Bracket
 62
     0
100
AcDbLine
 10
465.4112915975608
 20
1781.559363068511
 30
0.0
 11
425.4112915975609
 21
1781.559363068511
 31
0.0
  0
LINE
  5
13E45
330
1F
100
AcDbEntity
  8
Bracket
 62
     0
100
AcDbLine
 10
465.4112915975608
 20
1738.359363068511
 30
0.0
 11
451.8112915975609
 21
1738.359363068511
 31
0.0
  0
LINE
  5
13E46
330
1F
100
AcDbEntity
  8
Bracket
 62
     0
100
AcDbLine
 10
465.4112915975608
 20
1781.559363068511
 30
0.0
 11
465.4112915975608
 21
1738.359363068511
 31
0.0
  0
LINE
  5
13E47
330
1F
100
AcDbEntity
  8
Bracket
 62
     0
100
AcDbLine
 10
447.011291597561
 20
1757.559363068511
 30
0.0
 11
425.4112915975606
 21
1757.559363068511
 31
0.0
  0
LINE
  5
13E48
330
1F
100
AcDbEntity
  8
Bracket
 62
     0
100
AcDbLine
 10
449.411291597561
 20
1755.159363068511
 30
0.0
 11
449.411291597561
 21
1740.759363068511
 31
0.0
  0
ARC
  5
13E49
330
1F
100
AcDbEntity
  8
Bracket
 62
     0
100
AcDbCircle
 10
451.8112915975609
 20
1740.759363068511
 30
0.0
 40
2.399999999999999
100
AcDbArc
 50
180.0
 51
270.0
  0
ARC
  5
13E4A
330
1F
100
AcDbEntity
  8
Bracket
 62
     0
100
AcDbCircle
 10
447.011291597561
 20
1755.159363068511
 30
0.0
 40
2.399999999999999
100
AcDbArc
 50
0.0
 51
90.0
  0
LINE
  5
13E4B
330
1F
100
AcDbEntity
  8
Bracket
 62
     0
100
AcDbLine
 10
408.6112915975605
 20
1788.726661815361
 30
0.0
 11
396.1971660149924
 21
1781.559363068511
 31
0.0
  0
ARC
  5
13E4C
330
1F
100
AcDbEntity
  8
Bracket
 62
     0
100
AcDbCircle
 10
425.034592500006
 20
1803.959363068511
 30
0.0
 40
22.4
100
AcDbArc
 50
222.8460894488908
 51
270.963584191485
  0
LINE
  5
13E4D
330
1F
100
AcDbEntity
  8
Bracket
 62
     0
100
AcDbLine
 10
445.5525169490458
 20
1786.797604459257
 30
0.0
 11
454.6254171801291
 21
1781.559363068511
 31
0.0
  0
ARC
  5
13E4E
330
1F
100
AcDbEntity
  8
Bracket
 62
     0
100
AcDbCircle
 10
425.7879906951153
 20
1803.959363068511
 30
0.0
 40
22.4
100
AcDbArc
 50
269.036415808515
 51
305.8566415697936
  0
LINE
  5
13E4F
330
1F
100
AcDbEntity
  8
Bracket
 62
     0
100
AcDbLine
 10
401.5945836428681
 20
1803.159363068511
 30
0.0
 11
404.6016000293743
 21
1803.159363068511
 31
0.0
  0
ARC
  5
13E50
330
1F
100
AcDbEntity
  8
Bracket
 62
     0
100
AcDbCircle
 10
400.5001191842259
 20
1803.159363068511
 30
0.0
 40
3.19999999999996
100
AcDbArc
 50
0.0
 51
180.0
  0
ELLIPSE
  5
13E51
330
1F
100
AcDbEntity
  8
Bracket
 62
     0
100
AcDbEllipse
 10
406.0420208557956
 20
1803.159363068511
 30
0.0
 11
8.741901671569483
 21
0.0
 31
0.0
210
0.0
220
0.0
230
1.0
 40
0.8236195749361542
 41
3.141592653589792
 42
4.712388980384688
  0
LINE
  5
13E52
330
1F
100
AcDbEntity
  8
Bracket
 62
     0
100
AcDbLine
 10
404.6016000293743
 20
1803.159363068511
 30
0.0
 11
404.6016000293743
 21
1801.097057326834
 31
0.0
  0
ELLIPSE
  5
13E53
330
1F
100
AcDbEntity
  8
Bracket
 62
     0
100
AcDbEllipse
 10
403.8530919385115
 20
1803.159363068511
 30
0.0
 11
2.822584165573424
 21
0.0
 31
0.0
210
0.0
220
0.0
230
1.0
 40
0.8440875142184806
 41
5.107426729998675
 42
6.094646720835124
  0
LINE
  5
13E54
330
1F
100
AcDbEntity
  8
Bracket
 62
     0
100
AcDbLine
 10
445.299608471921
 20
1795.959363068511
 30
0.0
 11
445.2996084719211
 21
1788.63283392747
 31
0.0
  0
LINE
  5
13E55
330
1F
100
AcDbEntity
  8
Bracket
 62
     0
100
AcDbLine
 10
440.7890838921481
 20
1795.959363068511
 30
0.0
 11
440.7890838921481
 21
1788.632833927405
 31
0.0
  0
LINE
  5
13E56
330
1F
100
AcDbEntity
  8
Bracket
 62
     0
100
AcDbLine
 10
438.6001549748642
 20
1795.959363068511
 30
0.0
 11
438.6001549748642
 21
1788.63283392747
 31
0.0
  0
ELLIPSE
  5
13E57
330
1F
100
AcDbEntity
  8
Bracket
 62
     0
100
AcDbEllipse
 10
452.6126156417175
 20
1788.645984048242
 30
0.0
 11
7.313007169796311
 21
0.013150120772616
 31
0.0
210
0.0
220
0.0
230
1.0
 40
0.9690417851462427
 41
3.141592653589792
 42
4.710646468266896
  0
ELLIPSE
  5
13E58
330
1F
100
AcDbEntity
  8
Bracket
 62
     0
100
AcDbEllipse
 10
452.6126156417175
 20
1788.648976403835
 30
0.0
 11
-0.0162326813543126
 21
11.88960225422012
 31
0.0
210
0.0
220
0.0
230
1.0
 40
0.9944430012679916
 41
1.570796326794896
 42
2.208305636736528
  0
ELLIPSE
  5
13E59
330
1F
100
AcDbEntity
  8
Bracket
 62
     0
100
AcDbEllipse
 10
449.3292341949744
 20
1788.63283392747
 30
0.0
 11
0.0
 21
11.87347085895878
 31
0.0
210
0.0
220
0.0
230
1.0
 40
0.9036177666629685
 41
1.570796326794896
 42
2.208979785631571
  0
ELLIPSE
  5
13E5A
330
1F
100
AcDbEntity
  8
Bracket
 62
     0
100
AcDbEllipse
 10
426.5057560562026
 20
1795.88011298285
 30
0.0
 11
-0.0000000000000909
 21
-15.32179776866699
 31
0.0
210
0.0
220
0.0
230
1.0
 40
0.932222709867301
 41
1.575968724984149
 42
4.403211788870251
  0
LINE
  5
13E5B
330
1F
100
AcDbEntity
  8
Bracket
 62
     0
100
AcDbLine
 10
424.193424594797
 20
1815.959363068511
 30
0.0
 11
426.6353491974236
 21
1815.959363068511
 31
0.0
  0
ELLIPSE
  5
13E5C
330
1F
100
AcDbEntity
  8
Bracket
 62
     0
100
AcDbEllipse
 10
426.6353491974236
 20
1795.880208684379
 30
0.0
 11
0.0
 21
-20.07915438413276
 31
0.0
210
0.0
220
0.0
230
1.0
 40
0.9295341286506863
 41
1.574738454418084
 42
4.355832958452959
  0
ELLIPSE
  5
13E5D
330
1F
100
AcDbEntity
  8
Bracket
 62
     0
100
AcDbEllipse
 10
424.2581045260805
 20
1795.959363068511
 30
0.0
 11
0.0
 21
-15.27451871328742
 31
0.0
210
0.0
220
0.0
230
1.0
 40
0.9389526909484528
 41
1.570796326794896
 42
3.049638348094033
  0
ELLIPSE
  5
13E5E
330
1F
100
AcDbEntity
  8
Bracket
 62
     0
100
AcDbEllipse
 10
406.0420208557955
 20
1803.959363068514
 30
0.0
 11
-0.0000000000001819
 21
-8.0000013388743
 31
0.0
210
0.0
220
0.0
230
1.0
 40
0.9480495618549207
 41
0.0
 42
1.129456500669225
  0
ELLIPSE
  5
13E5F
330
1F
100
AcDbEntity
  8
Bracket
 62
     0
100
AcDbEllipse
 10
406.0420208557955
 20
1803.959363068514
 30
0.0
 11
3.294982781708676
 21
0.0
 31
0.0
210
0.0
220
0.0
230
0.9999999999999998
 40
0.9658659326442135
 41
4.259955129404946
 42
5.940110553214432
  0
ELLIPSE
  5
13E60
330
1F
100
AcDbEntity
  8
Bracket
 62
     0
100
AcDbEllipse
 10
424.3168271389187
 20
1795.965713601217
 30
0.0
 11
0.0067560970379974
 21
19.99408498771158
 31
0.0
210
0.0
220
0.0
230
0.9999999999999998
 40
0.9399706176736101
 41
0.0003594843993411
 42
1.226901581119886
  0
ARC
  5
13E61
330
1F
100
AcDbEntity
  8
Bracket
 62
     0
100
AcDbCircle
 10
450.3224640108953
 20
1803.159363068511
 30
0.0
 40
3.19999999999996
100
AcDbArc
 50
0.0
 51
180.0
  0
ELLIPSE
  5
13E62
330
1F
100
AcDbEntity
  8
Bracket
 62
     0
100
AcDbEllipse
 10
444.780562339326
 20
1803.959363068514
 30
0.0
 11
-3.294982781708676
 21
0.0
 31
0.0
210
0.0
220
0.0
230
-0.9999999999999998
 40
0.9658659326442135
 41
4.259955129404946
 42
4.371151620235482
  0
ELLIPSE
  5
13E63
330
1F
100
AcDbEntity
  8
Bracket
 62
     0
100
AcDbEllipse
 10
446.9694912566099
 20
1803.159363068511
 30
0.0
 11
-2.822584165573424
 21
0.0
 31
0.0
210
0.0
220
0.0
230
-1.0
 40
0.8440875142184806
 41
5.107426729998675
 42
6.094646720835124
  0
LINE
  5
13E64
330
1F
100
AcDbEntity
  8
Bracket
 62
     0
100
AcDbLine
 10
446.2209831657471
 20
1803.159363068511
 30
0.0
 11
446.2209831657471
 21
1801.097057326834
 31
0.0
  0
LINE
  5
13E65
330
1F
100
AcDbEntity
  8
Bracket
 62
     0
100
AcDbLine
 10
449.2279995522533
 20
1803.159363068511
 30
0.0
 11
446.2209831657471
 21
1803.159363068511
 31
0.0
  0
ELLIPSE
  5
13E66
330
1F
100
AcDbEntity
  8
Bracket
 62
     0
100
AcDbEllipse
 10
444.7805623393258
 20
1803.159363068511
 30
0.0
 11
-8.741901671569483
 21
0.0
 31
0.0
210
0.0
220
0.0
230
-1.0
 40
0.8236195749361542
 41
3.141592653589792
 42
4.653001904085034
  0
ELLIPSE
  5
13E67
330
1F
100
AcDbEntity
  8
Bracket
 62
     0
100
AcDbEllipse
 10
424.1872339976978
 20
1795.880208684379
 30
0.0
 11
0.0
 21
-20.07915438413276
 31
0.0
210
0.0
220
0.0
230
-1.0
 40
0.9295341286506863
 41
1.574738454418084
 42
1.575370533678129
  0
ELLIPSE
  5
13E68
330
1F
100
AcDbEntity
  8
Bracket
 62
     0
100
AcDbEllipse
 10
426.5644786690409
 20
1795.959363068511
 30
0.0
 11
0.0
 21
-15.27451871328742
 31
0.0
210
0.0
220
0.0
230
-1.0
 40
0.9389526909484528
 41
1.570796326794896
 42
1.868622419479778
  0
LINE
  5
13E69
330
1F
100
AcDbEntity
  8
Bracket
 62
     0
100
AcDbLine
 10
412.2224282202571
 20
1795.959363068511
 30
0.0
 11
412.2224282202571
 21
1788.63283392747
 31
0.0
  0
LINE
  5
13E6A
330
1F
100
AcDbEntity
  8
Bracket
 62
     0
100
AcDbLine
 10
405.5229747232004
 20
1795.959363068511
 30
0.0
 11
405.5229747232004
 21
1788.63283392747
 31
0.0
  0
ELLIPSE
  5
13E6B
330
1F
100
AcDbEntity
  8
Bracket
 62
     0
100
AcDbEllipse
 10
398.209967553404
 20
1788.645984048242
 30
0.0
 11
-7.313007169796311
 21
0.013150120772616
 31
0.0
210
0.0
220
0.0
230
-1.0
 40
0.9690417851462427
 41
3.141592653589792
 42
3.403615388827351
  0
ELLIPSE
  5
13E6C
330
1F
100
AcDbEntity
  8
Bracket
 62
     0
100
AcDbEllipse
 10
401.493349000147
 20
1788.63283392747
 30
0.0
 11
0.0
 21
11.87347085895878
 31
0.0
210
0.0
220
0.0
230
-1.0
 40
0.9036177666629685
 41
1.570796326794896
 42
1.811315114763093
  0
LINE
  5
13E6D
330
1F
100
AcDbEntity
  8
Bracket
 62
     0
100
AcDbLine
 10
407.7119036404845
 20
1796.15567579982
 30
0.0
 11
407.7119036404845
 21
1788.63283392747
 31
0.0
  0
ELLIPSE
  5
13E6E
330
1F
100
AcDbEntity
  8
Bracket
 62
     0
100
AcDbEllipse
 10
401.493349000147
 20
1788.63283392747
 30
0.0
 11
0.0
 21
7.073470858958785
 31
0.0
210
0.0
220
0.0
230
1.0
 40
0.8791376630132729
 41
4.651257795064425
 42
4.712388980384688
  0
LINE
  5
13E6F
330
1F
100
AcDbEntity
  8
Bracket
 62
     0
100
AcDbLine
 10
425.034592500006
 20
1907.297813004883
 30
0.0
 11
396.1971660149924
 21
1896.801848131498
 31
0.0
  0
LINE
  5
13E70
330
1F
100
AcDbEntity
  8
Bracket
 62
     0
100
AcDbLine
 10
408.6112915975603
 20
1896.453024991808
 30
0.0
 11
406.5389305609762
 21
1895.698747259839
 31
0.0
  0
LINE
  5
13E71
330
1F
100
AcDbEntity
  8
Bracket
 62
     0
100
AcDbLine
 10
396.1971660149923
 20
1874.425128215666
 30
0.0
 11
425.0345925000064
 21
1884.92109308905
 31
0.0
  0
LINE
  5
13E72
330
1F
100
AcDbEntity
  8
Bracket
 62
     0
100
AcDbLine
 10
425.0345925000064
 20
1884.92109308905
 30
0.0
 11
425.0345925000061
 21
1907.297813004883
 31
0.0
  0
LINE
  5
13E73
330
1F
100
AcDbEntity
  8
Bracket
 62
     0
100
AcDbLine
 10
408.6112915975605
 20
1896.453024991808
 30
0.0
 11
408.6112915975605
 21
1900.468878110015
 31
0.0
  0
LINE
  5
13E74
330
1F
100
AcDbEntity
  8
Bracket
 62
     0
100
AcDbLine
 10
396.1971660149923
 20
1874.425128215666
 30
0.0
 11
396.1971660149924
 21
1896.801848131498
 31
0.0
  0
LINE
  5
13E75
330
1F
100
AcDbEntity
  8
Bracket
 62
     0
100
AcDbLine
 10
408.6112915975605
 20
1900.468878110015
 30
0.0
 11
396.1971660149924
 21
1896.801848131498
 31
0.0
  0
LINE
  5
13E76
330
1F
100
AcDbEntity
  8
Bracket
 62
     0
100
AcDbLine
 10
408.6112915975603
 20
1900.468878110015
 30
0.0
 11
425.034592500006
 21
1907.297813004883
 31
0.0
  0
LINE
  5
13E77
330
1F
100
AcDbEntity
  8
Bracket
 62
     0
100
AcDbLine
 10
408.6112915975605
 20
1896.453024991808
 30
0.0
 11
425.0345925000061
 21
1884.92109308905
 31
0.0
  0
ELLIPSE
  5
13E78
330
1F
100
AcDbEntity
  8
Bracket
 62
     0
100
AcDbEllipse
 10
408.6112915975601
 20
1874.425128215666
 30
0.0
 11
0.0
 21
21.57638359464859
 31
0.0
210
0.0
220
0.0
230
0.9999999999999998
 40
0.57535710412781
 41
6.450906266197367
 42
7.853981633974482
  0
LINE
  5
13E79
330
1F
100
AcDbEntity
  8
Bracket
 62
     0
100
AcDbLine
 10
425.0345925000064
 20
1907.297813004883
 30
0.0
 11
425.0345925000064
 21
1884.92109308905
 31
0.0
  0
LINE
  5
13E7A
330
1F
100
AcDbEntity
  8
Bracket
 62
     0
100
AcDbLine
 10
442.2112915975608
 20
1872.926051707962
 30
0.0
 11
425.7879906951151
 21
1884.457983610721
 31
0.0
  0
LINE
  5
13E7B
330
1F
100
AcDbEntity
  8
Bracket
 62
     0
100
AcDbLine
 10
425.7879906951151
 20
1862.081263694888
 30
0.0
 11
425.7879906951151
 21
1884.457983610721
 31
0.0
  0
LINE
  5
13E7C
330
1F
100
AcDbEntity
  8
Bracket
 62
     0
100
AcDbLine
 10
454.6254171801291
 20
1894.953948484106
 30
0.0
 11
425.7879906951149
 21
1884.457983610721
 31
0.0
  0
ELLIPSE
  5
13E7D
330
1F
100
AcDbEntity
  8
Bracket
 62
     0
100
AcDbEllipse
 10
442.2112915975612
 20
1894.953948484106
 30
0.0
 11
-0.0000000000000122
 21
-21.57638359464859
 31
0.0
210
0.0
220
0.0
230
0.9999999999999998
 40
0.57535710412781
 41
6.450906266197367
 42
7.853981633974482
  0
LINE
  5
13E7E
330
1F
100
AcDbEntity
  8
Bracket
 62
     0
100
AcDbLine
 10
454.6254171801291
 20
1894.953948484106
 30
0.0
 11
454.625417180129
 21
1872.577228568273
 31
0.0
  0
LINE
  5
13E7F
330
1F
100
AcDbEntity
  8
Bracket
 62
     0
100
AcDbLine
 10
442.2112915975608
 20
1872.926051707962
 30
0.0
 11
442.2112915975608
 21
1868.910198589756
 31
0.0
  0
LINE
  5
13E80
330
1F
100
AcDbEntity
  8
Bracket
 62
     0
100
AcDbLine
 10
442.2112915975609
 20
1872.926051707962
 30
0.0
 11
444.2836526341451
 21
1873.680329439932
 31
0.0
  0
LINE
  5
13E81
330
1F
100
AcDbEntity
  8
Bracket
 62
     0
100
AcDbLine
 10
442.2112915975608
 20
1868.910198589756
 30
0.0
 11
454.625417180129
 21
1872.577228568273
 31
0.0
  0
LINE
  5
13E82
330
1F
100
AcDbEntity
  8
Bracket
 62
     0
100
AcDbLine
 10
425.7879906951151
 20
1862.081263694888
 30
0.0
 11
454.625417180129
 21
1872.577228568273
 31
0.0
  0
LINE
  5
13E83
330
1F
100
AcDbEntity
  8
Bracket
 62
     0
100
AcDbLine
 10
442.2112915975609
 20
1868.910198589756
 30
0.0
 11
425.7879906951151
 21
1862.081263694888
 31
0.0
  0
LINE
  5
13E84
330
1F
100
AcDbEntity
  8
Bracket
 62
     0
100
AcDbLine
 10
448.2990372929183
 20
1931.089538349885
 30
0.0
 11
425.7879906951151
 21
1922.896187446106
 31
0.0
  0
LINE
  5
13E85
330
1F
100
AcDbEntity
  8
Bracket
 62
     0
100
AcDbLine
 10
425.7879906951151
 20
1931.089538349885
 30
0.0
 11
448.2990372929184
 21
1931.089538349885
 31
0.0
  0
LINE
  5
13E86
330
1F
100
AcDbEntity
  8
Bracket
 62
     0
100
AcDbLine
 10
425.7879906951151
 20
1922.896187446106
 30
0.0
 11
425.7879906951151
 21
1931.089538349885
 31
0.0
  0
LINE
  5
13E87
330
1F
100
AcDbEntity
  8
Bracket
 62
     0
100
AcDbLine
 10
442.2112915975608
 20
1929.725122340974
 30
0.0
 11
442.2112915975609
 21
1931.089538349885
 31
0.0
  0
LINE
  5
13E88
330
1F
100
AcDbEntity
  8
Bracket
 62
     0
100
AcDbLine
 10
425.0345925000066
 20
1838.289538349886
 30
0.0
 11
402.5235459022033
 21
1838.289538349886
 31
0.0
  0
LINE
  5
13E89
330
1F
100
AcDbEntity
  8
Bracket
 62
     0
100
AcDbLine
 10
408.6112915975608
 20
1839.653954358797
 30
0.0
 11
408.6112915975608
 21
1838.289538349886
 31
0.0
  0
LINE
  5
13E8A
330
1F
100
AcDbEntity
  8
Bracket
 62
     0
100
AcDbLine
 10
402.5235459022033
 20
1838.289538349886
 30
0.0
 11
425.0345925000065
 21
1846.482889253665
 31
0.0
  0
LINE
  5
13E8B
330
1F
100
AcDbEntity
  8
Bracket
 62
     0
100
AcDbLine
 10
425.0345925000065
 20
1846.482889253665
 30
0.0
 11
425.0345925000065
 21
1838.289538349886
 31
0.0
  0
LINE
  5
13E8C
330
1F
100
AcDbEntity
  8
Bracket
 62
     0
100
AcDbLine
 10
442.2112915975609
 20
1929.725122340974
 30
0.0
 11
425.7879906951153
 21
1922.896187446106
 31
0.0
  0
LINE
  5
13E8D
330
1F
100
AcDbEntity
  8
Bracket
 62
     0
100
AcDbLine
 10
442.2112915975609
 20
1929.725122340974
 30
0.0
 11
448.2990372929184
 21
1931.089538349885
 31
0.0
  0
LINE
  5
13E8E
330
1F
100
AcDbEntity
  8
Bracket
 62
     0
100
AcDbLine
 10
408.6112915975609
 20
1839.653954358797
 30
0.0
 11
402.5235459022033
 21
1838.289538349886
 31
0.0
  0
LINE
  5
13E8F
330
1F
100
AcDbEntity
  8
Bracket
 62
     0
100
AcDbLine
 10
408.6112915975605
 20
1839.653954358797
 30
0.0
 11
425.0345925000066
 21
1846.482889253665
 31
0.0
  0
LINE
  5
13E90
330
1F
100
AcDbEntity
  8
Bracket
 62
     0
100
AcDbLine
 10
408.6112915975605
 20
1788.726661815361
 30
0.0
 11
402.5235459022033
 21
1781.559363068511
 31
0.0
  0
DIMENSION
  5
13E91
102
{ACAD_XDICTIONARY
360
13E92
102
}
102
{ACAD_REACTORS
330
13E93
102
}
330
1F
100
AcDbEntity
  8
Object
  6
HIDDEN2
100
AcDbDimension
  2
*D24
 10
353.5947984348994
 20
1932.689538349885
 30
0.0
 11
341.0577536134119
 21
1884.432749768634
 31
0.0
 70
   160
  1
Ａ
 71
     5
 42
96.0
 53
359.999
  3
JIS２／１
100
AcDbAlignedDimension
 13
391.8112915975606
 23
1836.689538349885
 33
0.0
 14
391.8112915975608
 24
1932.689538349885
 34
0.0
 50
90.0
100
AcDbRotatedDimension
1001
ACAD
1000
DSTYLE
1002
{
1070
    41
1040
8.0
1070
   140
1040
8.0
1070
   147
1040
3.0
1070
   279
1070
     2
1002
}
  0
DIMENSION
  5
13E94
102
{ACAD_XDICTIONARY
360
13E95
102
}
102
{ACAD_REACTORS
330
13E96
102
}
330
1F
100
AcDbEntity
  8
Object
  6
HIDDEN2
100
AcDbDimension
  2
*D25
 10
463.8112915975607
 20
1712.234748057257
 30
0.0
 11
424.6112915975606
 21
1719.234748057257
 31
0.0
 70
    32
  1
Ｂ
 71
     5
 42
78.40000000000031
  3
JIS２／１
100
AcDbAlignedDimension
 13
385.4112915975605
 23
1738.359363068511
 33
0.0
 14
463.8112915975607
 24
1738.359363068511
 34
0.0
100
AcDbRotatedDimension
1001
ACAD
1000
DSTYLE
1002
{
1070
   147
1040
3.0
1070
   140
1040
8.0
1070
    41
1040
8.0
1002
}
  0
DIMENSION
  5
13E97
102
{ACAD_XDICTIONARY
360
13E98
102
}
102
{ACAD_REACTORS
330
13E99
102
}
330
1F
100
AcDbEntity
  8
Object
  6
HIDDEN2
100
AcDbDimension
  2
*D26
 10
353.5947984348994
 20
1781.559363068511
 30
0.0
 11
353.5947984348991
 21
1757.559363068511
 31
0.0
 70
    32
  1
カブリ
 71
     5
 42
48.0
 53
359.999
  3
JIS２／１
100
AcDbAlignedDimension
 13
390.2112915975607
 23
1733.559363068511
 33
0.0
 14
385.4112915975605
 24
1781.559363068511
 34
0.0
 50
90.0
100
AcDbRotatedDimension
1001
ACAD
1000
DSTYLE
1002
{
1070
   147
1040
3.0
1070
   140
1040
8.0
1070
    41
1040
8.0
1002
}
  0
VIEWPORT
  5
1405F
102
{ACAD_XDICTIONARY
360
140E1
102
}
330
1405E
100
AcDbEntity
 67
     1
  8
0
100
AcDbViewport
 10
197.522325984382
 20
60.37426262175495
 30
0.0
 40
463.9082988980896
 41
298.5149053779012
 68
     1
 69
     1
 12
197.522325984382
 22
60.37426262175495
 13
0.0
 23
0.0
 14
10.0
 24
10.0
 15
10.0
 25
10.0
 16
0.0
 26
0.0
 36
1.0
 17
0.0
 27
0.0
 37
0.0
 42
50.0
 43
0.0
 44
0.0
 45
298.5149053779012
 50
0.0
 51
0.0
 72
  1000
 90
   557152
  1

281
     0
 71
     1
 74
     0
110
0.0
120
0.0
130
0.0
111
1.0
121
0.0
131
0.0
112
0.0
122
1.0
132
0.0
 79
     0
146
0.0
  0
LWPOLYLINE
  5
14060
102
{ACAD_REACTORS
330
14061
102
}
330
1405E
100
AcDbEntity
 67
     1
  8
Viewport
100
AcDbPolyline
 90
        8
 70
     1
 43
0.0
 10
12.5
 20
202.0
 10
284.5
 20
202.0
 10
284.4978723404242
 20
34.0
 10
167.4978723404242
 20
34.0
 10
167.4978723404242
 20
7.0
 10
129.5
 20
7.0
 10
12.5
 20
7.0
 10
12.5
 20
31.0
  0
VIEWPORT
  5
14061
102
{ACAD_XDICTIONARY
360
140E3
102
}
330
1405E
100
AcDbEntity
 67
     1
  8
Viewport
100
AcDbViewport
 10
148.5
 20
104.5
 30
0.0
 40
272.0000000000001
 41
195.0
 68
     2
 69
     2
 12
424.5570249299688
 22
1795.04232668106
 13
0.0
 23
0.0
 14
10.0
 24
10.0
 15
10.0
 25
10.0
 16
0.0
 26
0.0
 36
1.0
 17
0.0
 27
0.0
 37
0.0
 42
50.0
 43
0.0
 44
0.0
 45
389.9999998574013
 50
0.0
 51
0.0
 72
   100
 90
    98368
340
14060
  1

281
     0
 71
     1
 74
     0
110
0.0
120
0.0
130
0.0
111
1.0
121
0.0
131
0.0
112
0.0
122
1.0
132
0.0
 79
     0
146
0.0
  0
MTEXT
  5
14062
330
1405E
100
AcDbEntity
 67
     1
  8
Object
370
    -3
100
AcDbMText
 10
225.9978723404242
 20
23.08904399323181
 30
0.0
 40
5.0
 41
117.0
 71
     5
 72
     5
  1
フレキスラブ　Ｂタイプ
 73
     1
 44
1.0
1001
AcDbBlockRepETag
1070
     1
1071
       68
1005
14062
1001
ACAD
1000
MTEXTBEGIN
1070
    73
1070
     1
1070
    44
1040
1.0
1070
    74
1070
     0
1000
MTEXTEND
1000
ACAD_MTEXT_DEFINED_HEIGHT_BEGIN
1070
    46
1040
14.17808798646362
1000
ACAD_MTEXT_DEFINED_HEIGHT_END
  0
LINE
  5
14063
330
1405E
100
AcDbEntity
 67
     1
  8
0
100
AcDbLine
 10
12.5
 20
7.0
 30
0.0
 11
12.5
 21
202.0
 31
0.0
1001
AcDbBlockRepETag
1070
     1
1071
        2
1005
14063
  0
LINE
  5
14064
330
1405E
100
AcDbEntity
 67
     1
  8
0
100
AcDbLine
 10
25.0
 20
0.0
 30
0.0
 11
0.0
 21
0.0
 31
0.0
1001
AcDbBlockRepETag
1070
     1
1071
        3
1005
14064
  0
LINE
  5
14065
330
1405E
100
AcDbEntity
 67
     1
  8
0
100
AcDbLine
 10
0.0
 20
0.0
 30
0.0
 11
0.0
 21
10.0
 31
0.0
1001
AcDbBlockRepETag
1070
     1
1071
        4
1005
14065
  0
LINE
  5
14066
330
1405E
100
AcDbEntity
 67
     1
  8
0
100
AcDbLine
 10
148.5
 20
6.0
 30
0.0
 11
148.5
 21
5.0
 31
0.0
1001
AcDbBlockRepETag
1070
     1
1071
       20
1005
14066
  0
LINE
  5
14067
330
1405E
100
AcDbEntity
 67
     1
  8
0
100
AcDbLine
 10
0.0
 20
210.0
 30
0.0
 11
25.0
 21
210.0
 31
0.0
1001
AcDbBlockRepETag
1070
     1
1071
       23
1005
14067
  0
LINE
  5
14068
330
1405E
100
AcDbEntity
 67
     1
  8
0
100
AcDbLine
 10
0.0
 20
200.0
 30
0.0
 11
0.0
 21
210.0
 31
0.0
1001
AcDbBlockRepETag
1070
     1
1071
       24
1005
14068
  0
LINE
  5
14069
330
1405E
100
AcDbEntity
 67
     1
  8
0
100
AcDbLine
 10
284.5
 20
202.0
 30
0.0
 11
284.5
 21
7.0
 31
0.0
1001
AcDbBlockRepETag
1070
     1
1071
       36
1005
14069
  0
LINE
  5
1406A
330
1405E
100
AcDbEntity
 67
     1
  8
0
100
AcDbLine
 10
297.0
 20
10.0
 30
0.0
 11
297.0
 21
0.0
 31
0.0
1001
AcDbBlockRepETag
1070
     1
1071
       40
1005
1406A
  0
LINE
  5
1406B
330
1405E
100
AcDbEntity
 67
     1
  8
0
100
AcDbLine
 10
297.0
 20
210.0
 30
0.0
 11
297.0
 21
200.0
 31
0.0
1001
AcDbBlockRepETag
1070
     1
1071
       54
1005
1406B
  0
LINE
  5
1406C
330
1405E
100
AcDbEntity
 67
     1
  8
0
100
AcDbLine
 10
272.0
 20
210.0
 30
0.0
 11
297.0
 21
210.0
 31
0.0
1001
AcDbBlockRepETag
1070
     1
1071
       55
1005
1406C
  0
LINE
  5
1406D
330
1405E
100
AcDbEntity
 67
     1
  8
0
100
AcDbLine
 10
272.0
 20
0.0
 30
0.0
 11
297.0
 21
0.0
 31
0.0
1001
AcDbBlockRepETag
1070
     1
1071
       56
1005
1406D
  0
LINE
  5
1406E
330
1405E
100
AcDbEntity
 67
     1
  8
0
100
AcDbLine
 10
284.5
 20
7.0
 30
0.0
 11
12.5
 21
7.0
 31
0.0
1001
AcDbBlockRepETag
1070
     1
1071
       57
1005
0
  0
LINE
  5
1406F
330
1405E
100
AcDbEntity
 67
     1
  8
0
100
AcDbLine
 10
12.5
 20
202.0
 30
0.0
 11
284.5
 21
202.0
 31
0.0
1001
AcDbBlockRepETag
1070
     1
1071
       58
1005
0
  0
LINE
  5
14070
330
1405E
100
AcDbEntity
 67
     1
  8
0
 62
     0
380
     1
100
AcDbLine
 10
284.5
 20
7.0
 30
0.0
 11
284.5
 21
43.0
 31
0.0
1001
AcDbBlockRepETag
1070
     1
1071
       49
1005
14070
  0
LINE
  5
14071
330
1405E
100
AcDbEntity
 67
     1
  8
0
100
AcDbLine
 10
284.4978723404242
 20
16.0
 30
0.0
 11
167.4978723404242
 21
16.0
 31
0.0
1001
AcDbBlockRepETag
1070
     1
1071
      166
1005
14071
  0
LINE
  5
14072
330
1405E
100
AcDbEntity
 67
     1
  8
0
100
AcDbLine
 10
218.4978723404242
 20
7.0
 30
0.0
 11
218.4978723404242
 21
16.0
 31
0.0
1001
AcDbBlockRepETag
1070
     1
1071
      167
1005
14072
  0
LINE
  5
14073
330
1405E
100
AcDbEntity
 67
     1
  8
0
100
AcDbLine
 10
284.4978723404242
 20
34.0
 30
0.0
 11
167.4978723404242
 21
34.0
 31
0.0
1001
AcDbBlockRepETag
1070
     1
1071
      169
1005
14073
  0
MTEXT
  5
14074
330
1405E
100
AcDbEntity
 67
     1
  8
0
100
AcDbMText
 10
192.9978723404242
 20
11.5
 30
0.0
 40
4.0
 41
51.0
 71
     5
 72
     5
  1
富国石油株式会社
 73
     1
 44
1.0
1001
AcDbBlockRepETag
1070
     1
1071
      171
1005
14074
1001
ACAD
1000
MTEXTBEGIN
1070
    73
1070
     1
1070
    44
1040
1.0
1070
    74
1070
     0
1000
MTEXTEND
  0
LINE
  5
14075
330
1405E
100
AcDbEntity
 67
     1
  8
0
  6
HIDDEN2
 48
0.5
100
AcDbLine
 10
284.4978723404242
 20
29.5
 30
0.0
 11
167.4978723404242
 21
29.5
 31
0.0
1001
AcDbBlockRepETag
1070
     1
1071
      180
1005
14075
  0
ENDSEC
  0
SECTION
  2
OBJECTS
  0
DICTIONARY
  5
C
330
0
100
AcDbDictionary
281
     1
  3
ACAD_COLOR
350
14D
  3
ACAD_GROUP
350
D
  3
ACAD_LAYOUT
350
1A
  3
ACAD_MATERIAL
350
14C
  3
ACAD_MLEADERSTYLE
350
1AD6
  3
ACAD_MLINESTYLE
350
17
  3
ACAD_PLOTSETTINGS
350
19
  3
ACAD_PLOTSTYLENAME
350
E
  3
ACAD_SCALELIST
350
1AB4
  3
ACAD_TABLESTYLE
350
17B
  3
ACAD_VISUALSTYLE
350
1D3
  3
ACDB_RECOMPOSE_DATA
350
1B07
  3
AcDbVariableDictionary
350
148
  3
DWGPROPS
350
140C6
  0
DICTIONARY
  5
18A
330
2
100
AcDbDictionary
280
     1
281
     1
  3
ACAD_LAYERFILTERS
360
463
  3
ACAD_LAYERSTATES
360
18B
  3
ACLYDICTIONARY
360
462
  0
DICTIONARY
  5
1AE3
330
10
100
AcDbDictionary
280
     1
281
     1
  3
ADSK_XREC_LAYER_RECONCILED
360
1AE4
  0
DICTIONARY
  5
1AE5
330
E4
100
AcDbDictionary
280
     1
281
     1
  3
ADSK_XREC_LAYER_RECONCILED
360
1AE6
  0
DICTIONARY
  5
1AE7
330
12C
100
AcDbDictionary
280
     1
281
     1
  3
ADSK_XREC_LAYER_RECONCILED
360
1AE8
  0
DICTIONARY
  5
1AE9
330
12D
100
AcDbDictionary
280
     1
281
     1
  3
ADSK_XREC_LAYER_RECONCILED
360
1AEA
  0
DICTIONARY
  5
1AEB
330
345
100
AcDbDictionary
280
     1
281
     1
  3
ADSK_XREC_LAYER_RECONCILED
360
1AEC
  0
DICTIONARY
  5
1AED
330
3DA
100
AcDbDictionary
280
     1
281
     1
  3
ADSK_XREC_LAYER_RECONCILED
360
1AEE
  0
DICTIONARY
  5
1AEF
330
3DC
100
AcDbDictionary
280
     1
281
     1
  3
ADSK_XREC_LAYER_RECONCILED
360
1AF0
  0
DICTIONARY
  5
1AF1
330
4C5
100
AcDbDictionary
280
     1
281
     1
  3
ADSK_XREC_LAYER_RECONCILED
360
1AF2
  0
DICTIONARY
  5
1AF3
330
4C6
100
AcDbDictionary
280
     1
281
     1
  3
ADSK_XREC_LAYER_RECONCILED
360
1AF4
  0
DICTIONARY
  5
1AF5
330
4C7
100
AcDbDictionary
280
     1
281
     1
  3
ADSK_XREC_LAYER_RECONCILED
360
1AF6
  0
DICTIONARY
  5
1AF7
330
4C8
100
AcDbDictionary
280
     1
281
     1
  3
ADSK_XREC_LAYER_RECONCILED
360
1AF8
  0
DICTIONARY
  5
1AF9
330
4C9
100
AcDbDictionary
280
     1
281
     1
  3
ADSK_XREC_LAYER_RECONCILED
360
1AFA
  0
DICTIONARY
  5
1AFB
330
4CA
100
AcDbDictionary
280
     1
281
     1
  3
ADSK_XREC_LAYER_RECONCILED
360
1AFC
  0
DICTIONARY
  5
1AFD
330
4CB
100
AcDbDictionary
280
     1
281
     1
  3
ADSK_XREC_LAYER_RECONCILED
360
1AFE
  0
DICTIONARY
  5
1AFF
330
4CC
100
AcDbDictionary
280
     1
281
     1
  3
ADSK_XREC_LAYER_RECONCILED
360
1B00
  0
DICTIONARY
  5
1B01
330
A4A
100
AcDbDictionary
280
     1
281
     1
  3
ADSK_XREC_LAYER_RECONCILED
360
1B02
  0
DICTIONARY
  5
1B03
330
C42
100
AcDbDictionary
280
     1
281
     1
  3
ADSK_XREC_LAYER_RECONCILED
360
1B04
  0
DICTIONARY
  5
12BE9
330
12BE8
100
AcDbDictionary
280
     1
281
     1
  0
DICTIONARY
  5
12BEB
330
12BEA
100
AcDbDictionary
280
     1
281
     1
  0
DICTIONARY
  5
12BED
330
12BEC
100
AcDbDictionary
280
     1
281
     1
  0
DICTIONARY
  5
12621
330
12620
100
AcDbDictionary
280
     1
281
     1
  3
ADSK_XREC_VTR_ANNOSCALE_DATA
360
12622
  0
DICTIONARY
  5
1956
330
1F
100
AcDbDictionary
280
     1
281
     1
  3
ACAD_SORTENTS
360
1957
  0
DICTIONARY
  5
28E
330
AB
100
AcDbDictionary
280
     1
281
     1
  0
DICTIONARY
  5
4E8
330
4E7
100
AcDbDictionary
280
     1
281
     1
  3
ACAD_SORTENTS
360
6DE
  0
DICTIONARY
  5
930
330
6ED
100
AcDbDictionary
280
     1
281
     1
  3
ACAD_SORTENTS
360
931
  0
DICTIONARY
  5
140CE
330
316
100
AcDbDictionary
280
     1
281
     1
  3
ACAD_MTEXT_RT
360
140CF
  0
DICTIONARY
  5
140D2
330
539
100
AcDbDictionary
280
     1
281
     1
  3
ACAD_MTEXT_RT
360
140D3
  0
DICTIONARY
  5
140DA
330
9C6
100
AcDbDictionary
280
     1
281
     1
  3
ACAD_MTEXT_RT
360
140DB
  0
DICTIONARY
  5
13E92
330
13E91
100
AcDbDictionary
280
     1
281
     1
  3
ACAD_DIMASSOC
360
13E93
  0
DICTIONARY
  5
13E95
330
13E94
100
AcDbDictionary
280
     1
281
     1
  3
ACAD_DIMASSOC
360
13E96
  0
DICTIONARY
  5
13E98
330
13E97
100
AcDbDictionary
280
     1
281
     1
  3
ACAD_DIMASSOC
360
13E99
  0
DICTIONARY
  5
140E1
330
1405F
100
AcDbDictionary
280
     1
281
     1
  3
ACAD_XREC_ROUNDTRIP
360
140E2
  0
DICTIONARY
  5
140E3
330
14061
100
AcDbDictionary
280
     1
281
     1
  3
ACAD_XREC_ROUNDTRIP
360
140E4
  0
DICTIONARY
  5
14D
102
{ACAD_REACTORS
330
C
102
}
330
C
100
AcDbDictionary
281
     1
  0
DICTIONARY
  5
D
102
{ACAD_REACTORS
330
C
102
}
330
C
100
AcDbDictionary
281
     1
  3
*A1
350
B48
  3
*A10
350
B4F
  3
*A11
350
B50
  3
*A12
350
B51
  3
*A2
350
B52
  3
*A3
350
B53
  3
*A4
350
B49
  3
*A5
350
B4A
  3
*A6
350
B4B
  3
*A7
350
B4C
  3
*A8
350
B4D
  3
*A9
350
B4E
  0
DICTIONARY
  5
1A
102
{ACAD_REACTORS
330
C
102
}
330
C
100
AcDbDictionary
281
     1
  3
A4横
350
1405B
  3
Model
350
22
  0
DICTIONARY
  5
14C
102
{ACAD_REACTORS
330
C
102
}
330
C
100
AcDbDictionary
281
     1
  3
ByBlock
350
1D1
  3
ByLayer
350
1D0
  3
Global
350
1D2
  0
DICTIONARY
  5
1AD6
102
{ACAD_REACTORS
330
C
102
}
330
C
100
AcDbDictionary
281
     1
  3
Standard
350
1AD7
  3
コピー - Standard
350
120D7
  0
DICTIONARY
  5
17
102
{ACAD_REACTORS
330
C
102
}
330
C
100
AcDbDictionary
281
     1
  3
Standard
350
18
  0
DICTIONARY
  5
19
102
{ACAD_REACTORS
330
C
102
}
330
C
100
AcDbDictionary
281
     1
  3
JIS A4 title block (portrait) - no output device
350
11F
  0
ACDBDICTIONARYWDFLT
  5
E
102
{ACAD_REACTORS
330
C
102
}
330
C
100
AcDbDictionary
281
     1
  3
Normal
350
F
100
AcDbDictionaryWithDefault
340
F
  0
DICTIONARY
  5
1AB4
102
{ACAD_REACTORS
330
C
102
}
330
C
100
AcDbDictionary
281
     1
  3
A0
350
1AB5
  3
A1
350
12600
  3
A2
350
12601
  3
A3
350
12602
  3
A4
350
12603
  3
A5
350
12604
  3
A6
350
12605
  3
A7
350
12606
  3
A8
350
12607
  3
A9
350
12608
  3
B0
350
12609
  3
B1
350
1260A
  3
B2
350
1260B
  3
B3
350
1260C
  3
B4
350
1260D
  3
B5
350
1260E
  3
B6
350
1260F
  3
B7
350
12610
  3
B8
350
12611
  3
B9
350
12612
  3
C0
350
12613
  3
C1
350
12614
  3
C2
350
12615
  3
C3
350
12616
  3
C4
350
12617
  3
C5
350
12618
  3
C6
350
12619
  3
C7
350
1261A
  3
C8
350
1261B
  3
C9
350
1261C
  3
D0
350
1261D
  3
D1
350
1261E
  3
D2
350
1261F
  0
DICTIONARY
  5
17B
102
{ACAD_REACTORS
330
C
102
}
330
C
100
AcDbDictionary
281
     1
  3
Standard
350
17C
  0
DICTIONARY
  5
1D3
102
{ACAD_REACTORS
330
C
102
}
330
C
100
AcDbDictionary
281
     1
  3
2dWireframe
350
1D9
  3
3D Hidden
350
1DB
  3
3dWireframe
350
1DA
  3
Basic
350
1D8
  3
Brighten
350
1DF
  3
ColorChange
350
1E3
  3
Conceptual
350
1DC
  3
Dim
350
1DE
  3
Facepattern
350
1E2
  3
Flat
350
1D4
  3
FlatWithEdges
350
1D5
  3
Gouraud
350
1D6
  3
GouraudWithEdges
350
1D7
  3
Linepattern
350
1E1
  3
Realistic
350
1DD
  3
Thicken
350
1E0
  0
XRECORD
  5
1B07
102
{ACAD_REACTORS
330
C
102
}
330
C
100
AcDbXrecord
280
     1
 90
        1
330
17C
  0
DICTIONARY
  5
148
102
{ACAD_REACTORS
330
C
102
}
330
C
100
AcDbDictionary
281
     1
  3
CANNOSCALE
350
1B0A
  3
CMLEADERSTYLE
350
1B08
  3
CTABLESTYLE
350
190
  3
DIMASSOC
350
14A
  3
HIDETEXT
350
149
  3
INDEXCTL
350
14021
  3
LIGHTINGUNITS
350
1B0B
  3
MSLTSCALE
350
1B09
  3
PSOLHEIGHT
350
1407D
  3
PSOLWIDTH
350
1407C
  3
SORTENTS
350
14020
  0
XRECORD
  5
140C6
102
{ACAD_REACTORS
330
C
102
}
330
C
100
AcDbXrecord
280
     1
  1
DWGPROPS COOKIE
  2

  3

  4

  6

  7

  8
k-uehara
  9

300
=
301
=
302
=
303
=
304
=
305
=
306
=
307
=
308
=
309
=
 40
1.733737210648148
 41
2454379.577641921
 42
2454936.67824794
  1

 90
        0
  0
DICTIONARY
  5
463
102
{ACAD_REACTORS
330
18A
102
}
330
18A
100
AcDbDictionary
281
     1
  0
DICTIONARY
  5
18B
102
{ACAD_REACTORS
330
18A
102
}
330
18A
100
AcDbDictionary
281
     1
  3
ACAD_VIEWS_元図１
350
6AC
  0
DICTIONARY
  5
462
102
{ACAD_REACTORS
330
18A
102
}
330
18A
100
AcDbDictionary
281
     1
1001
ACAD
1000
<All
  0
XRECORD
  5
1AE4
102
{ACAD_REACTORS
330
1AE3
102
}
330
1AE3
100
AcDbXrecord
280
     1
290
     1
  0
XRECORD
  5
1AE6
102
{ACAD_REACTORS
330
1AE5
102
}
330
1AE5
100
AcDbXrecord
280
     1
290
     1
  0
XRECORD
  5
1AE8
102
{ACAD_REACTORS
330
1AE7
102
}
330
1AE7
100
AcDbXrecord
280
     1
290
     1
  0
XRECORD
  5
1AEA
102
{ACAD_REACTORS
330
1AE9
102
}
330
1AE9
100
AcDbXrecord
280
     1
290
     1
  0
XRECORD
  5
1AEC
102
{ACAD_REACTORS
330
1AEB
102
}
330
1AEB
100
AcDbXrecord
280
     1
290
     1
  0
XRECORD
  5
1AEE
102
{ACAD_REACTORS
330
1AED
102
}
330
1AED
100
AcDbXrecord
280
     1
290
     1
  0
XRECORD
  5
1AF0
102
{ACAD_REACTORS
330
1AEF
102
}
330
1AEF
100
AcDbXrecord
280
     1
290
     1
  0
XRECORD
  5
1AF2
102
{ACAD_REACTORS
330
1AF1
102
}
330
1AF1
100
AcDbXrecord
280
     1
290
     1
  0
XRECORD
  5
1AF4
102
{ACAD_REACTORS
330
1AF3
102
}
330
1AF3
100
AcDbXrecord
280
     1
290
     1
  0
XRECORD
  5
1AF6
102
{ACAD_REACTORS
330
1AF5
102
}
330
1AF5
100
AcDbXrecord
280
     1
290
     1
  0
XRECORD
  5
1AF8
102
{ACAD_REACTORS
330
1AF7
102
}
330
1AF7
100
AcDbXrecord
280
     1
290
     1
  0
XRECORD
  5
1AFA
102
{ACAD_REACTORS
330
1AF9
102
}
330
1AF9
100
AcDbXrecord
280
     1
290
     1
  0
XRECORD
  5
1AFC
102
{ACAD_REACTORS
330
1AFB
102
}
330
1AFB
100
AcDbXrecord
280
     1
290
     1
  0
XRECORD
  5
1AFE
102
{ACAD_REACTORS
330
1AFD
102
}
330
1AFD
100
AcDbXrecord
280
     1
290
     1
  0
XRECORD
  5
1B00
102
{ACAD_REACTORS
330
1AFF
102
}
330
1AFF
100
AcDbXrecord
280
     1
290
     1
  0
XRECORD
  5
1B02
102
{ACAD_REACTORS
330
1B01
102
}
330
1B01
100
AcDbXrecord
280
     1
290
     1
  0
XRECORD
  5
1B04
102
{ACAD_REACTORS
330
1B03
102
}
330
1B03
100
AcDbXrecord
280
     1
290
     1
  0
XRECORD
  5
12622
102
{ACAD_REACTORS
330
12621
102
}
330
12621
100
AcDbXrecord
280
     1
340
1AB5
  0
SORTENTSTABLE
  5
1957
102
{ACAD_REACTORS
330
1956
102
}
330
1956
100
AcDbSortentsTable
330
1F
  0
SORTENTSTABLE
  5
6DE
102
{ACAD_REACTORS
330
4E8
102
}
330
4E8
100
AcDbSortentsTable
330
4E7
  0
SORTENTSTABLE
  5
931
102
{ACAD_REACTORS
330
930
102
}
330
930
100
AcDbSortentsTable
330
6ED
  0
XRECORD
  5
140CF
102
{ACAD_REACTORS
330
140CE
102
}
330
140CE
100
AcDbXrecord
280
     1
 40
476.0
  1
検^J図
  0
XRECORD
  5
140D3
102
{ACAD_REACTORS
330
140D2
102
}
330
140D2
100
AcDbXrecord
280
     1
 40
476.0
  1
検^J図
  0
XRECORD
  5
140DB
102
{ACAD_REACTORS
330
140DA
102
}
330
140DA
100
AcDbXrecord
280
     1
 40
476.0
  1
検^J図
  0
DIMASSOC
  5
13E93
102
{ACAD_REACTORS
330
13E92
102
}
330
13E92
100
AcDbDimAssoc
330
13E91
 90
        3
 70
     0
 71
     0
  1
AcDbOsnapPointRef
 72
     1
331
13E20
 73
     2
 91
        0
 40
4.712388980384688
 10
0.0
 20
0.0
 30
2.000000000000000E+50
 75
     0
  1
AcDbOsnapPointRef
 72
    13
331
13E1F
 73
     2
 91
        0
 40
1.570796326794896
 10
0.0
 20
0.0
 30
2.000000000000000E+50
 75
     0
  0
DIMASSOC
  5
13E96
102
{ACAD_REACTORS
330
13E95
102
}
330
13E95
100
AcDbDimAssoc
330
13E94
 90
        3
 70
     0
 71
     0
  1
AcDbOsnapPointRef
 72
    13
331
13E39
 73
     2
 91
        0
 40
0.0
 10
0.0
 20
0.0
 30
2.000000000000000E+50
 75
     0
  1
AcDbOsnapPointRef
 72
     1
331
13E42
 73
     2
 91
        0
 40
1.0
 10
0.0
 20
0.0
 30
2.000000000000000E+50
 75
     0
  0
DIMASSOC
  5
13E99
102
{ACAD_REACTORS
330
13E98
102
}
330
13E98
100
AcDbDimAssoc
330
13E97
 90
        3
 70
     0
 71
     0
  1
AcDbOsnapPointRef
 72
     5
331
13E3C
 73
     2
 91
        0
 40
4.712388980384688
 10
0.0
 20
0.0
 30
0.0
 75
     0
  1
AcDbOsnapPointRef
 72
    13
331
13E3A
 73
     2
 91
        0
 40
0.0
 10
0.0
 20
0.0
 30
2.000000000000000E+50
 75
     0
  0
XRECORD
  5
140E2
102
{ACAD_REACTORS
330
140E1
102
}
330
140E1
100
AcDbXrecord
280
     1
102
SHADEPLOT
 70
     0
  0
XRECORD
  5
140E4
102
{ACAD_REACTORS
330
140E3
102
}
330
140E3
100
AcDbXrecord
280
     1
102
SHADEPLOT
 70
     0
  0
GROUP
  5
B48
102
{ACAD_REACTORS
330
D
102
}
330
D
100
AcDbGroup
300

 70
     1
 71
     1
  0
GROUP
  5
B4F
102
{ACAD_REACTORS
330
D
102
}
330
D
100
AcDbGroup
300

 70
     1
 71
     1
  0
GROUP
  5
B50
102
{ACAD_REACTORS
330
D
102
}
330
D
100
AcDbGroup
300

 70
     1
 71
     1
  0
GROUP
  5
B51
102
{ACAD_REACTORS
330
D
102
}
330
D
100
AcDbGroup
300

 70
     1
 71
     1
  0
GROUP
  5
B52
102
{ACAD_REACTORS
330
D
102
}
330
D
100
AcDbGroup
300

 70
     1
 71
     1
  0
GROUP
  5
B53
102
{ACAD_REACTORS
330
D
102
}
330
D
100
AcDbGroup
300

 70
     1
 71
     1
  0
GROUP
  5
B49
102
{ACAD_REACTORS
330
D
102
}
330
D
100
AcDbGroup
300

 70
     1
 71
     1
  0
GROUP
  5
B4A
102
{ACAD_REACTORS
330
D
102
}
330
D
100
AcDbGroup
300

 70
     1
 71
     1
  0
GROUP
  5
B4B
102
{ACAD_REACTORS
330
D
102
}
330
D
100
AcDbGroup
300

 70
     1
 71
     1
  0
GROUP
  5
B4C
102
{ACAD_REACTORS
330
D
102
}
330
D
100
AcDbGroup
300

 70
     1
 71
     1
  0
GROUP
  5
B4D
102
{ACAD_REACTORS
330
D
102
}
330
D
100
AcDbGroup
300

 70
     1
 71
     1
  0
GROUP
  5
B4E
102
{ACAD_REACTORS
330
D
102
}
330
D
100
AcDbGroup
300

 70
     1
 71
     1
  0
LAYOUT
  5
1405B
102
{ACAD_XDICTIONARY
360
1405C
102
}
102
{ACAD_REACTORS
330
1A
102
}
330
1A
100
AcDbPlotSettings
  1

  2
Canon iR C3200 LIPS
  4
A4
  6

 40
5.873749732971191
 41
5.873747825622558
 42
5.873748779296875
 43
5.873748779296875
 44
209.9733276367187
 45
296.9259948730469
 46
-5.893494129188383
 47
-5.919814586649977
 48
0.0
 49
0.0
140
0.0
141
0.0
142
1.0
143
1.0
 70
   692
 72
     1
 73
     1
 74
     1
  7
monochrome.ctb
 75
    16
147
1.0
148
0.0090630292066862
149
0.0064082024693448
100
AcDbLayout
  1
A4横
 70
     1
 71
     1
 10
0.037002778146416
 20
0.0133361937478469
 11
296.9629976511933
 21
209.9866638304666
 12
0.0
 22
0.0
 32
0.0
 14
0.0
 24
0.0
 34
0.0
 15
297.0
 25
210.0
 35
0.0
146
0.0
 13
0.0
 23
0.0
 33
0.0
 16
1.0
 26
0.0
 36
0.0
 17
0.0
 27
1.0
 37
0.0
 76
     0
330
1405E
331
1405F
1001
ACAD_PSEXT
1000
Canon iR C3200 LIPS
1000
Canon iR C3200 LIPS
1000
IP_128.1.1.200
1000

1070
     0
  0
LAYOUT
  5
22
102
{ACAD_XDICTIONARY
360
140C7
102
}
102
{ACAD_REACTORS
330
1A
102
}
330
1A
100
AcDbPlotSettings
  1

  2
none_device
  4
ISO_A4_(210.00_x_297.00_MM)
  6

 40
7.5
 41
20.0
 42
7.5
 43
20.0
 44
210.0
 45
297.0
 46
0.0
 47
73.36421725239617
 48
0.0
 49
0.0
140
0.0
141
0.0
142
1.0
143
2.869813509774057
 70
 11956
 72
     1
 73
     0
 74
     0
  7

 75
     0
147
0.3484546980471668
148
1.967705816488885
149
9.729414201041008
100
AcDbLayout
  1
Model
 70
     1
 71
     0
 10
0.0
 20
0.0
 11
12.0
 21
9.0
 12
0.0
 22
0.0
 32
0.0
 14
0.0
 24
0.0
 34
0.0
 15
0.0
 25
0.0
 35
0.0
146
0.0
 13
0.0
 23
0.0
 33
0.0
 16
1.0
 26
0.0
 36
0.0
 17
0.0
 27
1.0
 37
0.0
 76
     0
330
1F
331
1B5
1001
ACAD_PSEXT
1000
None
1000
None
1000
Not applicable
1000
The layout will not be plotted unless a new plotter configuration name is selected.
1070
     0
  0
MATERIAL
  5
1D1
102
{ACAD_XDICTIONARY
360
1402F
102
}
102
{ACAD_REACTORS
330
14C
102
}
330
14C
100
AcDbMaterial
  1
ByBlock
  0
MATERIAL
  5
1D0
102
{ACAD_XDICTIONARY
360
1402D
102
}
102
{ACAD_REACTORS
330
14C
102
}
330
14C
100
AcDbMaterial
  1
ByLayer
  0
MATERIAL
  5
1D2
102
{ACAD_XDICTIONARY
360
14031
102
}
102
{ACAD_REACTORS
330
14C
102
}
330
14C
100
AcDbMaterial
  1
Global
  0
ACAD_PROXY_OBJECT
  5
1AD7
102
{ACAD_REACTORS
330
1AD6
102
}
330
1AD6
100
AcDbProxyObject
 90
      499
 91
      512
 95
       27
 70
     0
 93
      817
310
40901902A40600000030400FEFFFFFF8000000000000008102B5E8DC0F42B5CFC0000000000001040405064068000000C1000000000000000410000000000000004102000000304015D90000000000000C03F4214C01D0018401B80190018401C80190028C00CC
340
14
340
0
340
11
340
0
 94
        0
1001
ACAD_MLEADERVER
1070
     2
1001
ACAD
1000
AcRTDxfName
1000
MLEADERSTYLE
1000
AcRTDxfName
1000
MLEADERSTYLE
  0
ACAD_PROXY_OBJECT
  5
120D7
102
{ACAD_REACTORS
330
1AD6
102
}
330
1AD6
100
AcDbProxyObject
 90
      499
 91
      512
 95
       27
 70
     0
 93
      817
310
40901902A40600000030400FEFFFFFF8000000000000008102B5E8DC0F42B5CFC0000000000000040419064068000000C1000000000000000210100000000000004102000000304015D90000000000000C03F4214C01D0018401B80190018401C80190028C00CC
340
14
340
33F
340
11
340
0
 94
        0
1001
ACAD_MLEADERVER
1070
     2
1001
ACAD
1000
AcRTDxfName
1000
MLEADERSTYLE
1000
AcRTDxfName
1000
MLEADERSTYLE
  0
MLINESTYLE
  5
18
102
{ACAD_REACTORS
330
17
102
}
330
17
100
AcDbMlineStyle
  2
STANDARD
 70
     0
  3

 62
   256
 51
90.0
 52
90.0
 71
     2
 49
0.5
 62
   256
  6
BYLAYER
 49
-0.5
 62
   256
  6
BYLAYER
  0
PLOTSETTINGS
  5
11F
102
{ACAD_XDICTIONARY
360
140CB
102
}
102
{ACAD_REACTORS
330
19
102
}
330
19
100
AcDbPlotSettings
  1
JIS A4 title block (portrait) - no output device
  2
None
  4
ISO_A4_(210.00_x_297.00_MM)
  6

 40
7.549999999999998
 41
20.05
 42
7.549999999999998
 43
20.05
 44
210.0
 45
297.0
 46
-7.559999999999997
 47
-20.06
 48
0.0
 49
0.0
140
0.0
141
0.0
142
1.0
143
1.0
 70
   692
 72
     1
 73
     0
 74
     1
  7

 75
    16
147
1.0
148
0.0128164049386896
149
0.0090630292066862
  0
ACDBPLACEHOLDER
  5
F
102
{ACAD_REACTORS
330
E
102
}
330
E
  0
ACAD_PROXY_OBJECT
  5
1AB5
102
{ACAD_REACTORS
330
1AB4
102
}
330
1AB4
100
AcDbProxyObject
 90
      499
 91
      511
 95
       27
 70
     0
 93
       82
310
968198801D0018801D004C
 94
        0
1001
ACAD
1000
AcRTDxfName
1000
SCALE
1000
AcRTDxfName
1000
SCALE
  0
ACAD_PROXY_OBJECT
  5
12600
102
{ACAD_REACTORS
330
1AB4
102
}
330
1AB4
100
AcDbProxyObject
 90
      499
 91
      511
 95
       27
 70
     0
 93
      146
310
9000000000000001008198801D0019001D004C
 94
        0
1001
ACAD
1000
AcRTDxfName
1000
SCALE
1000
AcRTDxfName
1000
SCALE
  0
ACAD_PROXY_OBJECT
  5
12601
102
{ACAD_REACTORS
330
1AB4
102
}
330
1AB4
100
AcDbProxyObject
 90
      499
 91
      511
 95
       27
 70
     0
 93
      146
310
9000000000000041008198801D001A001D004C
 94
        0
1001
ACAD
1000
AcRTDxfName
1000
SCALE
1000
AcRTDxfName
1000
SCALE
  0
ACAD_PROXY_OBJECT
  5
12602
102
{ACAD_REACTORS
330
1AB4
102
}
330
1AB4
100
AcDbProxyObject
 90
      499
 91
      511
 95
       27
 70
     0
 93
      146
310
9000000000000051008198801D001A801D004C
 94
        0
1001
ACAD
1000
AcRTDxfName
1000
SCALE
1000
AcRTDxfName
1000
SCALE
  0
ACAD_PROXY_OBJECT
  5
12603
102
{ACAD_REACTORS
330
1AB4
102
}
330
1AB4
100
AcDbProxyObject
 90
      499
 91
      511
 95
       27
 70
     0
 93
      146
310
9000000000000081008198801D001C001D004C
 94
        0
1001
ACAD
1000
AcRTDxfName
1000
SCALE
1000
AcRTDxfName
1000
SCALE
  0
ACAD_PROXY_OBJECT
  5
12604
102
{ACAD_REACTORS
330
1AB4
102
}
330
1AB4
100
AcDbProxyObject
 90
      499
 91
      511
 95
       27
 70
     0
 93
      162
310
9000000000000091008218801D001880180025004C
 94
        0
1001
ACAD
1000
AcRTDxfName
1000
SCALE
1000
AcRTDxfName
1000
SCALE
  0
ACAD_PROXY_OBJECT
  5
12605
102
{ACAD_REACTORS
330
1AB4
102
}
330
1AB4
100
AcDbProxyObject
 90
      499
 91
      511
 95
       27
 70
     0
 93
      162
310
90000000000000C1008218801D0018801B0025004C
 94
        0
1001
ACAD
1000
AcRTDxfName
1000
SCALE
1000
AcRTDxfName
1000
SCALE
  0
ACAD_PROXY_OBJECT
  5
12606
102
{ACAD_REACTORS
330
1AB4
102
}
330
1AB4
100
AcDbProxyObject
 90
      499
 91
      511
 95
       27
 70
     0
 93
      162
310
90000000000000D1008218801D001900180025004C
 94
        0
1001
ACAD
1000
AcRTDxfName
1000
SCALE
1000
AcRTDxfName
1000
SCALE
  0
ACAD_PROXY_OBJECT
  5
12607
102
{ACAD_REACTORS
330
1AB4
102
}
330
1AB4
100
AcDbProxyObject
 90
      499
 91
      511
 95
       27
 70
     0
 93
      162
310
90000000000000F9008218801D001980180025004C
 94
        0
1001
ACAD
1000
AcRTDxfName
1000
SCALE
1000
AcRTDxfName
1000
SCALE
  0
ACAD_PROXY_OBJECT
  5
12608
102
{ACAD_REACTORS
330
1AB4
102
}
330
1AB4
100
AcDbProxyObject
 90
      499
 91
      511
 95
       27
 70
     0
 93
      162
310
9000000000000111008218801D001A00180025004C
 94
        0
1001
ACAD
1000
AcRTDxfName
1000
SCALE
1000
AcRTDxfName
1000
SCALE
  0
ACAD_PROXY_OBJECT
  5
12609
102
{ACAD_REACTORS
330
1AB4
102
}
330
1AB4
100
AcDbProxyObject
 90
      499
 91
      511
 95
       27
 70
     0
 93
      162
310
9000000000000125008218801D001A80180025004C
 94
        0
1001
ACAD
1000
AcRTDxfName
1000
SCALE
1000
AcRTDxfName
1000
SCALE
  0
ACAD_PROXY_OBJECT
  5
1260A
102
{ACAD_REACTORS
330
1AB4
102
}
330
1AB4
100
AcDbProxyObject
 90
      499
 91
      511
 95
       27
 70
     0
 93
      178
310
9000000000000165008298801D001880180018002D004C
 94
        0
1001
ACAD
1000
AcRTDxfName
1000
SCALE
1000
AcRTDxfName
1000
SCALE
  0
ACAD_PROXY_OBJECT
  5
1260B
102
{ACAD_REACTORS
330
1AB4
102
}
330
1AB4
100
AcDbProxyObject
 90
      499
 91
      511
 95
       27
 70
     0
 93
      146
310
8000000000000004048199001D0018801D004C
 94
        0
1001
ACAD
1000
AcRTDxfName
1000
SCALE
1000
AcRTDxfName
1000
SCALE
  0
ACAD_PROXY_OBJECT
  5
1260C
102
{ACAD_REACTORS
330
1AB4
102
}
330
1AB4
100
AcDbProxyObject
 90
      499
 91
      511
 95
       27
 70
     0
 93
      146
310
800000000000010404819A001D0018801D004C
 94
        0
1001
ACAD
1000
AcRTDxfName
1000
SCALE
1000
AcRTDxfName
1000
SCALE
  0
ACAD_PROXY_OBJECT
  5
1260D
102
{ACAD_REACTORS
330
1AB4
102
}
330
1AB4
100
AcDbProxyObject
 90
      499
 91
      511
 95
       27
 70
     0
 93
      146
310
800000000000020404819C001D0018801D004C
 94
        0
1001
ACAD
1000
AcRTDxfName
1000
SCALE
1000
AcRTDxfName
1000
SCALE
  0
ACAD_PROXY_OBJECT
  5
1260E
102
{ACAD_REACTORS
330
1AB4
102
}
330
1AB4
100
AcDbProxyObject
 90
      499
 91
      511
 95
       27
 70
     0
 93
      162
310
80000000000002440482188018001D00188025004C
 94
        0
1001
ACAD
1000
AcRTDxfName
1000
SCALE
1000
AcRTDxfName
1000
SCALE
  0
ACAD_PROXY_OBJECT
  5
1260F
102
{ACAD_REACTORS
330
1AB4
102
}
330
1AB4
100
AcDbProxyObject
 90
      499
 91
      511
 95
       27
 70
     0
 93
      178
310
800000000000059404829880180018001D0018802D004C
 94
        0
1001
ACAD
1000
AcRTDxfName
1000
SCALE
1000
AcRTDxfName
1000
SCALE
  0
ACAD_PROXY_OBJECT
  5
12610
102
{ACAD_REACTORS
330
1AB4
102
}
330
1AB4
100
AcDbProxyObject
 90
      499
 91
      511
 95
       27
 70
     0
 93
      386
310
8000000000000803F0000000000000A1008718801780188019001C00110010001E8010001880138016801800110075004C
 94
        0
1001
ACAD
1000
AcRTDxfName
1000
SCALE
1000
AcRTDxfName
1000
SCALE
  0
ACAD_PROXY_OBJECT
  5
12611
102
{ACAD_REACTORS
330
1AB4
102
}
330
1AB4
100
AcDbProxyObject
 90
      499
 91
      511
 95
       27
 70
     0
 93
      370
310
8000000000000903F0000000000000A10086988017801B001A00110010001E801000188013801680180011006D004C
 94
        0
1001
ACAD
1000
AcRTDxfName
1000
SCALE
1000
AcRTDxfName
1000
SCALE
  0
ACAD_PROXY_OBJECT
  5
12612
102
{ACAD_REACTORS
330
1AB4
102
}
330
1AB4
100
AcDbProxyObject
 90
      499
 91
      511
 95
       27
 70
     0
 93
      370
310
8000000000000A03F0000000000000A100869880178019801900110010001E801000188013801680180011006D004C
 94
        0
1001
ACAD
1000
AcRTDxfName
1000
SCALE
1000
AcRTDxfName
1000
SCALE
  0
ACAD_PROXY_OBJECT
  5
12613
102
{ACAD_REACTORS
330
1AB4
102
}
330
1AB4
100
AcDbProxyObject
 90
      499
 91
      511
 95
       27
 70
     0
 93
      370
310
8000000000000B03F0000000000000A100869880178018801B00110010001E801000188013801680180011006D004C
 94
        0
1001
ACAD
1000
AcRTDxfName
1000
SCALE
1000
AcRTDxfName
1000
SCALE
  0
ACAD_PROXY_OBJECT
  5
12614
102
{ACAD_REACTORS
330
1AB4
102
}
330
1AB4
100
AcDbProxyObject
 90
      499
 91
      511
 95
       27
 70
     0
 93
      370
310
8000000000000B83F0000000000000A100869980178019801900110010001E801000188013801680180011006D004C
 94
        0
1001
ACAD
1000
AcRTDxfName
1000
SCALE
1000
AcRTDxfName
1000
SCALE
  0
ACAD_PROXY_OBJECT
  5
12615
102
{ACAD_REACTORS
330
1AB4
102
}
330
1AB4
100
AcDbProxyObject
 90
      499
 91
      511
 95
       27
 70
     0
 93
      354
310
8000000000000C03F0000000000000A10086188017801C00110010001E8010001880138016801800110065004C
 94
        0
1001
ACAD
1000
AcRTDxfName
1000
SCALE
1000
AcRTDxfName
1000
SCALE
  0
ACAD_PROXY_OBJECT
  5
12616
102
{ACAD_REACTORS
330
1AB4
102
}
330
1AB4
100
AcDbProxyObject
 90
      499
 91
      511
 95
       27
 70
     0
 93
      370
310
8000000000000C83F0000000000000A100869980178018801B00110010001E801000188013801680180011006D004C
 94
        0
1001
ACAD
1000
AcRTDxfName
1000
SCALE
1000
AcRTDxfName
1000
SCALE
  0
ACAD_PROXY_OBJECT
  5
12617
102
{ACAD_REACTORS
330
1AB4
102
}
330
1AB4
100
AcDbProxyObject
 90
      499
 91
      511
 95
       27
 70
     0
 93
      354
310
8000000000000D03F0000000000000A10086188017801A00110010001E8010001880138016801800110065004C
 94
        0
1001
ACAD
1000
AcRTDxfName
1000
SCALE
1000
AcRTDxfName
1000
SCALE
  0
ACAD_PROXY_OBJECT
  5
12618
102
{ACAD_REACTORS
330
1AB4
102
}
330
1AB4
100
AcDbProxyObject
 90
      499
 91
      511
 95
       27
 70
     0
 93
      354
310
8000000000000D83F0000000000000A10086198017801C00110010001E8010001880138016801800110065004C
 94
        0
1001
ACAD
1000
AcRTDxfName
1000
SCALE
1000
AcRTDxfName
1000
SCALE
  0
ACAD_PROXY_OBJECT
  5
12619
102
{ACAD_REACTORS
330
1AB4
102
}
330
1AB4
100
AcDbProxyObject
 90
      499
 91
      511
 95
       27
 70
     0
 93
      354
310
8000000000000E03F0000000000000A10086188017801900110010001E8010001880138016801800110065004C
 94
        0
1001
ACAD
1000
AcRTDxfName
1000
SCALE
1000
AcRTDxfName
1000
SCALE
  0
ACAD_PROXY_OBJECT
  5
1261A
102
{ACAD_REACTORS
330
1AB4
102
}
330
1AB4
100
AcDbProxyObject
 90
      499
 91
      511
 95
       27
 70
     0
 93
      354
310
8000000000000E83F0000000000000A10086198017801A00110010001E8010001880138016801800110065004C
 94
        0
1001
ACAD
1000
AcRTDxfName
1000
SCALE
1000
AcRTDxfName
1000
SCALE
  0
ACAD_PROXY_OBJECT
  5
1261B
102
{ACAD_REACTORS
330
1AB4
102
}
330
1AB4
100
AcDbProxyObject
 90
      499
 91
      511
 95
       27
 70
     0
 93
      258
310
90000000000000A100851880110010001E8010001880138016801800110055004C
 94
        0
1001
ACAD
1000
AcRTDxfName
1000
SCALE
1000
AcRTDxfName
1000
SCALE
  0
ACAD_PROXY_OBJECT
  5
1261C
102
{ACAD_REACTORS
330
1AB4
102
}
330
1AB4
100
AcDbProxyObject
 90
      499
 91
      511
 95
       27
 70
     0
 93
      386
310
8000000000000F83F0000000000000A1008718801680188017801900110010001E8010001880138016801800110075004C
 94
        0
1001
ACAD
1000
AcRTDxfName
1000
SCALE
1000
AcRTDxfName
1000
SCALE
  0
ACAD_PROXY_OBJECT
  5
1261D
102
{ACAD_REACTORS
330
1AB4
102
}
330
1AB4
100
AcDbProxyObject
 90
      499
 91
      511
 95
       27
 70
     0
 93
      322
310
800000000000008400000000000000A100851980110010001E8010001880138016801800110055004C
 94
        0
1001
ACAD
1000
AcRTDxfName
1000
SCALE
1000
AcRTDxfName
1000
SCALE
  0
ACAD_PROXY_OBJECT
  5
1261E
102
{ACAD_REACTORS
330
1AB4
102
}
330
1AB4
100
AcDbProxyObject
 90
      499
 91
      511
 95
       27
 70
     0
 93
      322
310
800000000000018400000000000000A100851B00110010001E8010001880138016801800110055004C
 94
        0
1001
ACAD
1000
AcRTDxfName
1000
SCALE
1000
AcRTDxfName
1000
SCALE
  0
ACAD_PROXY_OBJECT
  5
1261F
102
{ACAD_REACTORS
330
1AB4
102
}
330
1AB4
100
AcDbProxyObject
 90
      499
 91
      511
 95
       27
 70
     0
 93
      370
310
800000000000028400000000000000A100869880138016801800110010001E801000188013801680180011006D004C
 94
        0
1001
ACAD
1000
AcRTDxfName
1000
SCALE
1000
AcRTDxfName
1000
SCALE
  0
TABLESTYLE
  5
17C
102
{ACAD_XDICTIONARY
360
1B05
102
}
102
{ACAD_REACTORS
330
17B
102
}
330
17B
100
AcDbTableStyle
  3
Standard
 70
     0
 71
     0
 40
1.5
 41
1.5
280
     0
281
     0
  7
Standard
140
4.5
170
     2
 62
     0
 63
     7
283
     0
274
    -2
284
     1
 64
     0
275
    -2
285
     1
 65
     0
276
    -2
286
     1
 66
     0
277
    -2
287
     1
 67
     0
278
    -2
288
     1
 68
     0
279
    -2
289
     1
 69
     0
  7
Standard
140
6.0
170
     5
 62
     0
 63
     7
283
     0
274
    -2
284
     1
 64
     0
275
    -2
285
     1
 65
     0
276
    -2
286
     1
 66
     0
277
    -2
287
     1
 67
     0
278
    -2
288
     1
 68
     0
279
    -2
289
     1
 69
     0
  7
Standard
140
4.5
170
     5
 62
     0
 63
     7
283
     0
274
    -2
284
     1
 64
     0
275
    -2
285
     1
 65
     0
276
    -2
286
     1
 66
     0
277
    -2
287
     1
 67
     0
278
    -2
288
     1
 68
     0
279
    -2
289
     1
 69
     0
  0
VISUALSTYLE
  5
1D9
102
{ACAD_REACTORS
330
1D3
102
}
330
1D3
100
AcDbVisualStyle
  2
2dWireframe
 70
     4
 71
     0
 72
     2
 73
     1
 90
        0
 40
-0.6
 41
-30.0
 62
     5
 63
     7
 74
     1
 91
        4
 64
     7
 65
   257
 75
     1
175
     1
 42
1.0
 92
        0
 66
   257
 43
1.0
 76
     1
 77
     6
 78
     2
 67
     7
 79
     5
170
     0
171
     0
290
     0
174
     0
 93
        1
 44
0.0
173
     0
291
     0
 45
0.0
1001
ACAD
1000
AcDbSavedByObjectVersion
1070
     0
1000
AcDbSavedByObjectVersion
1070
     0
  0
VISUALSTYLE
  5
1DB
102
{ACAD_REACTORS
330
1D3
102
}
330
1D3
100
AcDbVisualStyle
  2
3D Hidden
 70
     6
 71
     1
 72
     2
 73
     2
 90
        0
 40
-0.6
 41
-30.0
 62
     5
 63
     7
 74
     2
 91
        2
 64
     7
 65
   257
 75
     2
175
     1
 42
40.0
 92
        0
 66
   257
 43
1.0
 76
     1
 77
     6
 78
     2
 67
     7
 79
     3
170
     0
171
     0
290
     0
174
     0
 93
        1
 44
0.0
173
     0
291
     0
 45
0.0
1001
ACAD
1000
AcDbSavedByObjectVersion
1070
     0
1000
AcDbSavedByObjectVersion
1070
     0
  0
VISUALSTYLE
  5
1DA
102
{ACAD_REACTORS
330
1D3
102
}
330
1D3
100
AcDbVisualStyle
  2
3dWireframe
 70
     5
 71
     0
 72
     2
 73
     1
 90
        0
 40
-0.6
 41
-30.0
 62
     5
 63
     7
 74
     1
 91
        4
 64
     7
 65
   257
 75
     1
175
     1
 42
1.0
 92
        0
 66
   257
 43
1.0
 76
     1
 77
     6
 78
     2
 67
     7
 79
     5
170
     0
171
     0
290
     0
174
     0
 93
        1
 44
0.0
173
     0
291
     0
 45
0.0
1001
ACAD
1000
AcDbSavedByObjectVersion
1070
     0
1000
AcDbSavedByObjectVersion
1070
     0
  0
VISUALSTYLE
  5
1D8
102
{ACAD_REACTORS
330
1D3
102
}
330
1D3
100
AcDbVisualStyle
  2
Basic
 70
     7
 71
     1
 72
     0
 73
     1
 90
        0
 40
-0.6
 41
-30.0
 62
     5
 63
     7
 74
     0
 91
        4
 64
     7
 65
   257
 75
     1
175
     1
 42
1.0
 92
        8
 66
     7
 43
1.0
 76
     1
 77
     6
 78
     2
 67
     7
 79
     5
170
     0
171
     0
290
     0
174
     0
 93
        1
 44
0.0
173
     0
291
     1
 45
0.0
1001
ACAD
1000
AcDbSavedByObjectVersion
1070
     0
1000
AcDbSavedByObjectVersion
1070
     0
  0
VISUALSTYLE
  5
1DF
102
{ACAD_REACTORS
330
1D3
102
}
330
1D3
100
AcDbVisualStyle
  2
Brighten
 70
    12
 71
     2
 72
     2
 73
     1
 90
        0
 40
-0.6
 41
-30.0
 62
     5
 63
     7
 74
     1
 91
        4
 64
     7
 65
   257
 75
     1
175
     1
 42
1.0
 92
        8
 66
     7
 43
1.0
 76
     1
 77
     6
 78
     2
 67
     7
 79
     5
170
     0
171
     0
290
     0
174
     0
 93
        1
 44
50.0
173
     0
291
     1
 45
0.0
1001
ACAD
1000
AcDbSavedByObjectVersion
1070
     0
1000
AcDbSavedByObjectVersion
1070
     0
  0
VISUALSTYLE
  5
1E3
102
{ACAD_REACTORS
330
1D3
102
}
330
1D3
100
AcDbVisualStyle
  2
ColorChange
 70
    16
 71
     2
 72
     2
 73
     3
 90
        0
 40
-0.6
 41
-30.0
 62
     5
 63
     8
 74
     1
 91
        4
 64
     7
 65
   257
 75
     1
175
     1
 42
1.0
 92
        8
 66
     8
 43
1.0
 76
     1
 77
     6
 78
     2
 67
     7
 79
     5
170
     0
171
     0
290
     0
174
     0
 93
        1
 44
0.0
173
     0
291
     1
 45
0.0
1001
ACAD
1000
AcDbSavedByObjectVersion
1070
     0
1000
AcDbSavedByObjectVersion
1070
     0
  0
VISUALSTYLE
  5
1DC
102
{ACAD_REACTORS
330
1D3
102
}
330
1D3
100
AcDbVisualStyle
  2
Conceptual
 70
     9
 71
     3
 72
     2
 73
     1
 90
        0
 40
-0.6
 41
-30.0
 62
     5
 63
     7
 74
     2
 91
        2
 64
     7
 65
   257
 75
     1
175
     1
 42
40.0
 92
        8
 66
     7
 43
1.0
 76
     1
 77
     6
 78
     2
 67
     7
 79
     3
170
     0
171
     0
290
     0
174
     0
 93
        1
 44
0.0
173
     0
291
     0
 45
0.0
1001
ACAD
1000
AcDbSavedByObjectVersion
1070
     0
1000
AcDbSavedByObjectVersion
1070
     0
  0
VISUALSTYLE
  5
1DE
102
{ACAD_REACTORS
330
1D3
102
}
330
1D3
100
AcDbVisualStyle
  2
Dim
 70
    11
 71
     2
 72
     2
 73
     1
 90
        0
 40
-0.6
 41
-30.0
 62
     5
 63
     7
 74
     1
 91
        4
 64
     7
 65
   257
 75
     1
175
     1
 42
1.0
 92
        8
 66
     7
 43
1.0
 76
     1
 77
     6
 78
     2
 67
     7
 79
     5
170
     0
171
     0
290
     0
174
     0
 93
        1
 44
-50.0
173
     0
291
     1
 45
0.0
1001
ACAD
1000
AcDbSavedByObjectVersion
1070
     0
1000
AcDbSavedByObjectVersion
1070
     0
  0
VISUALSTYLE
  5
1E2
102
{ACAD_REACTORS
330
1D3
102
}
330
1D3
100
AcDbVisualStyle
  2
Facepattern
 70
    15
 71
     2
 72
     2
 73
     1
 90
        0
 40
-0.6
 41
-30.0
 62
     5
 63
     7
 74
     1
 91
        4
 64
     7
 65
   257
 75
     1
175
     1
 42
1.0
 92
        8
 66
     7
 43
1.0
 76
     1
 77
     6
 78
     2
 67
     7
 79
     5
170
     0
171
     0
290
     0
174
     0
 93
        1
 44
0.0
173
     0
291
     1
 45
0.0
1001
ACAD
1000
AcDbSavedByObjectVersion
1070
     0
1000
AcDbSavedByObjectVersion
1070
     0
  0
VISUALSTYLE
  5
1D4
102
{ACAD_REACTORS
330
1D3
102
}
330
1D3
100
AcDbVisualStyle
  2
Flat
 70
     0
 71
     2
 72
     1
 73
     1
 90
        2
 40
-0.6
 41
30.0
 62
     5
 63
     7
 74
     0
 91
        4
 64
     7
 65
   257
 75
     1
175
     1
 42
1.0
 92
        8
 66
     7
 43
1.0
 76
     1
 77
     6
 78
     2
 67
     7
 79
     5
170
     0
171
     0
290
     0
174
     0
 93
       13
 44
0.0
173
     0
291
     1
 45
0.0
1001
ACAD
1000
AcDbSavedByObjectVersion
1070
     0
1000
AcDbSavedByObjectVersion
1070
     0
  0
VISUALSTYLE
  5
1D5
102
{ACAD_REACTORS
330
1D3
102
}
330
1D3
100
AcDbVisualStyle
  2
FlatWithEdges
 70
     1
 71
     2
 72
     1
 73
     1
 90
        2
 40
-0.6
 41
30.0
 62
     5
 63
     7
 74
     1
 91
        4
 64
     7
 65
   257
 75
     1
175
     1
 42
1.0
 92
        0
 66
   257
 43
1.0
 76
     1
 77
     6
 78
     2
 67
     7
 79
     5
170
     0
171
     0
290
     0
174
     0
 93
       13
 44
0.0
173
     0
291
     1
 45
0.0
1001
ACAD
1000
AcDbSavedByObjectVersion
1070
     0
1000
AcDbSavedByObjectVersion
1070
     0
  0
VISUALSTYLE
  5
1D6
102
{ACAD_REACTORS
330
1D3
102
}
330
1D3
100
AcDbVisualStyle
  2
Gouraud
 70
     2
 71
     2
 72
     2
 73
     1
 90
        2
 40
-0.6
 41
30.0
 62
     5
 63
     7
 74
     0
 91
        4
 64
     7
 65
   257
 75
     1
175
     1
 42
1.0
 92
        0
 66
     7
 43
1.0
 76
     1
 77
     6
 78
     2
 67
     7
 79
     5
170
     0
171
     0
290
     0
174
     0
 93
       13
 44
0.0
173
     0
291
     1
 45
0.0
1001
ACAD
1000
AcDbSavedByObjectVersion
1070
     0
1000
AcDbSavedByObjectVersion
1070
     0
  0
VISUALSTYLE
  5
1D7
102
{ACAD_REACTORS
330
1D3
102
}
330
1D3
100
AcDbVisualStyle
  2
GouraudWithEdges
 70
     3
 71
     2
 72
     2
 73
     1
 90
        2
 40
-0.6
 41
30.0
 62
     5
 63
     7
 74
     1
 91
        4
 64
     7
 65
   257
 75
     1
175
     1
 42
1.0
 92
        0
 66
   257
 43
1.0
 76
     1
 77
     6
 78
     2
 67
     7
 79
     5
170
     0
171
     0
290
     0
174
     0
 93
       13
 44
0.0
173
     0
291
     1
 45
0.0
1001
ACAD
1000
AcDbSavedByObjectVersion
1070
     0
1000
AcDbSavedByObjectVersion
1070
     0
  0
VISUALSTYLE
  5
1E1
102
{ACAD_REACTORS
330
1D3
102
}
330
1D3
100
AcDbVisualStyle
  2
Linepattern
 70
    14
 71
     2
 72
     2
 73
     1
 90
        0
 40
-0.6
 41
-30.0
 62
     5
 63
     7
 74
     1
 91
        4
 64
     7
 65
   257
 75
     7
175
     7
 42
1.0
 92
        8
 66
     7
 43
1.0
 76
     1
 77
     6
 78
     2
 67
     7
 79
     5
170
     0
171
     0
290
     0
174
     0
 93
        1
 44
0.0
173
     0
291
     1
 45
0.0
1001
ACAD
1000
AcDbSavedByObjectVersion
1070
     0
1000
AcDbSavedByObjectVersion
1070
     0
  0
VISUALSTYLE
  5
1DD
102
{ACAD_REACTORS
330
1D3
102
}
330
1D3
100
AcDbVisualStyle
  2
Realistic
 70
     8
 71
     2
 72
     2
 73
     1
 90
        0
 40
-0.6
 41
-30.0
 62
     5
 63
     7
 74
     1
 91
        0
 64
     7
 65
   257
 75
     1
175
     1
 42
1.0
 92
        8
 66
     8
 43
1.0
 76
     1
 77
     6
 78
     2
 67
     7
 79
     5
170
     0
171
     0
290
     0
174
     0
 93
       13
 44
0.0
173
     0
291
     0
 45
0.0
1001
ACAD
1000
AcDbSavedByObjectVersion
1070
     0
1000
AcDbSavedByObjectVersion
1070
     0
  0
VISUALSTYLE
  5
1E0
102
{ACAD_REACTORS
330
1D3
102
}
330
1D3
100
AcDbVisualStyle
  2
Thicken
 70
    13
 71
     2
 72
     2
 73
     1
 90
        0
 40
-0.6
 41
-30.0
 62
     5
 63
     7
 74
     1
 91
        4
 64
     7
 65
   257
 75
     1
175
     1
 42
1.0
 92
       12
 66
     7
 43
1.0
 76
     1
 77
     6
 78
     2
 67
     7
 79
     5
170
     0
171
     0
290
     0
174
     0
 93
        1
 44
0.0
173
     0
291
     1
 45
0.0
1001
ACAD
1000
AcDbSavedByObjectVersion
1070
     0
1000
AcDbSavedByObjectVersion
1070
     0
  0
DICTIONARYVAR
  5
1B0A
102
{ACAD_REACTORS
330
148
102
}
330
148
100
DictionaryVariables
280
     0
  1
1:1
  0
DICTIONARYVAR
  5
1B08
102
{ACAD_REACTORS
330
148
102
}
330
148
100
DictionaryVariables
280
     0
  1
コピー - Standard
  0
DICTIONARYVAR
  5
190
102
{ACAD_REACTORS
330
148
102
}
330
148
100
DictionaryVariables
280
     0
  1
STANDARD
  0
DICTIONARYVAR
  5
14A
102
{ACAD_REACTORS
330
148
102
}
330
148
100
DictionaryVariables
280
     0
  1
2
  0
DICTIONARYVAR
  5
149
102
{ACAD_REACTORS
330
148
102
}
330
148
100
DictionaryVariables
280
     0
  1
1
  0
DICTIONARYVAR
  5
14021
102
{ACAD_REACTORS
330
148
102
}
330
148
100
DictionaryVariables
280
     0
  1
0
  0
DICTIONARYVAR
  5
1B0B
102
{ACAD_REACTORS
330
148
102
}
330
148
100
DictionaryVariables
280
     0
  1
0
  0
DICTIONARYVAR
  5
1B09
102
{ACAD_REACTORS
330
148
102
}
330
148
100
DictionaryVariables
280
     0
  1
0
  0
DICTIONARYVAR
  5
1407D
102
{ACAD_REACTORS
330
148
102
}
330
148
100
DictionaryVariables
280
     0
  1
80.000000
  0
DICTIONARYVAR
  5
1407C
102
{ACAD_REACTORS
330
148
102
}
330
148
100
DictionaryVariables
280
     0
  1
5.000000
  0
DICTIONARYVAR
  5
14020
102
{ACAD_REACTORS
330
148
102
}
330
148
100
DictionaryVariables
280
     0
  1
127
  0
XRECORD
  5
6AC
102
{ACAD_REACTORS
330
18B
102
}
330
18B
100
AcDbXrecord
280
     1
 91
    33280
301

290
     0
302
Viewport
330
4CB
 90
        8
 62
     8
370
    25
331
16
  1
色_8
330
0
 90
        8
 62
     8
370
    18
331
16
  1
色_8
330
4CA
 90
        8
 62
     2
370
    18
331
16
  1
色_2
330
0
 90
        8
 62
     3
370
    -3
331
16
  1
色_3
330
0
 90
        8
 62
     3
370
    -3
331
16
  1
色_3
330
4C9
 90
        8
 62
     5
370
    18
331
4C4
  1
色_5
330
4C8
 90
        8
 62
     8
370
    50
331
16
  1
色_8
330
4C7
 90
        8
 62
     1
370
    18
331
4C3
  1
色_1
330
4C6
 90
        8
 62
     5
370
    18
331
291
  1
色_5
330
3DC
 90
        8
 62
     4
370
    -3
331
16
  1
色_4
330
345
 90
        0
 62
     6
370
    18
331
16
  1
色_6
330
4C5
 90
        8
 62
     3
370
    18
331
16
  1
色_3
330
3DB
 90
        0
 62
     7
370
    -3
331
16
  1
色_7
330
0
 90
        8
 62
     4
370
    -3
331
16
  1
色_4
330
0
 90
        8
 62
     5
370
    40
331
16
  1
色_5
330
12D
 90
        8
 62
     7
370
    -3
331
16
  1
色_7
330
12C
 90
        8
 62
     7
370
    -3
331
16
  1
色_7
330
E4
 90
        8
 62
     7
370
    25
331
16
  1
色_7
330
10
 90
        8
 62
     7
370
    -3
331
16
  1
色_7
  0
DICTIONARY
  5
1405C
330
1405B
100
AcDbDictionary
280
     1
281
     1
  3
ACAD_XREC_ROUNDTRIP
360
140E0
  3
ADSK_XREC_LAYOUTTHUMBNAIL
360
1405D
  0
DICTIONARY
  5
140C7
330
22
100
AcDbDictionary
280
     1
281
     1
  3
ACAD_XREC_ROUNDTRIP
360
140C8
  0
DICTIONARY
  5
1402F
330
1D1
100
AcDbDictionary
280
     1
281
     1
  3
ACAD_XREC_ROUNDTRIP
360
14030
  0
DICTIONARY
  5
1402D
330
1D0
100
AcDbDictionary
280
     1
281
     1
  3
ACAD_XREC_ROUNDTRIP
360
1402E
  0
DICTIONARY
  5
14031
330
1D2
100
AcDbDictionary
280
     1
281
     1
  3
ACAD_XREC_ROUNDTRIP
360
14032
  0
DICTIONARY
  5
140CB
330
11F
100
AcDbDictionary
280
     1
281
     1
  3
ACAD_XREC_ROUNDTRIP
360
140CC
  0
DICTIONARY
  5
1B05
330
17C
100
AcDbDictionary
280
     1
281
     1
  3
ACAD_ROUNDTRIP_2008_TABLESTYLE_CELLSTYLEMAP
360
135F9
  3
ACAD_XREC_ROUNDTRIP
360
140CD
  0
XRECORD
  5
140E0
102
{ACAD_REACTORS
330
1405C
102
}
330
1405C
100
AcDbXrecord
280
     1
102
SHADEPLOT
 70
     0
102
SHADEPLOTRESLEVEL
 70
     2
102
SHADEPLOTCUSTOMDPI
 70
   300
  0
XRECORD
  5
1405D
102
{ACAD_REACTORS
330
1405C
102
}
330
1405C
100
AcDbXrecord
280
     1
310
28000000B40000007F00000001000800000000004C59000000000000000000000001000000000000FFFFFF0000000000FFFFFF000000000000000000000000000000000000000000000000000000000000000000330000006600000099000000CC000000FF00000000330000333300006633000099330000CC330000FF3300
310
0000660000336600006666000099660000CC660000FF66000000990000339900006699000099990000CC990000FF99000000CC000033CC000066CC000099CC0000CCCC0000FFCC000000FF000033FF000066FF000099FF0000CCFF0000FFFF000000003300330033006600330099003300CC003300FF003300003333003333
310
33006633330099333300CC333300FF33330000663300336633006666330099663300CC663300FF66330000993300339933006699330099993300CC993300FF99330000CC330033CC330066CC330099CC3300CCCC3300FFCC330000FF330033FF330066FF330099FF3300CCFF3300FFFF330000006600330066006600660099
310
006600CC006600FF00660000336600333366006633660099336600CC336600FF33660000666600336666006666660099666600CC666600FF66660000996600339966006699660099996600CC996600FF99660000CC660033CC660066CC660099CC6600CCCC6600FFCC660000FF660033FF660066FF660099FF6600CCFF6600
310
FFFF660000009900330099006600990099009900CC009900FF00990000339900333399006633990099339900CC339900FF33990000669900336699006666990099669900CC669900FF66990000999900339999006699990099999900CC999900FF99990000CC990033CC990066CC990099CC9900CCCC9900FFCC990000FF99
310
0033FF990066FF990099FF9900CCFF9900FFFF99000000CC003300CC006600CC009900CC00CC00CC00FF00CC000033CC003333CC006633CC009933CC00CC33CC00FF33CC000066CC003366CC006666CC009966CC00CC66CC00FF66CC000099CC003399CC006699CC009999CC00CC99CC00FF99CC0000CCCC0033CCCC0066CC
310
CC0099CCCC00CCCCCC00FFCCCC0000FFCC0033FFCC0066FFCC0099FFCC00CCFFCC00FFFFCC000000FF003300FF006600FF009900FF00CC00FF00FF00FF000033FF003333FF006633FF009933FF00CC33FF00FF33FF000066FF003366FF006666FF009966FF00CC66FF00FF66FF000099FF003399FF006699FF009999FF00CC
310
99FF00FF99FF0000CCFF0033CCFF0066CCFF0099CCFF00CCCCFF00FFCCFF0000FFFF0033FFFF0066FFFF0099FFFF00CCFFFF00FFFFFF00000000000D0D0D001A1A1A00282828003535350043434300505050005D5D5D006B6B6B00787878008686860093939300A1A1A100AEAEAE00BBBBBB00C9C9C900D6D6D600E4E4E400
310
F1F1F100FFFFFF0000000000000000000000000000000000000000000000000000000000000000000000000000000000EFE2E2E2E2E2E2E2E2E2E2E2E2E2E2E2E2E2E2E2E2E2E2E2E2E2E2E2E2E2E2E2E2E2E2E2E2E2E2E2E2E2E2E2E2E2E2E2E2E2E2E2E2E2E2E2E2E2E2E2E2E2E2E2E2E2E2E2E2E2E2E2E2E2E2E2E2E2E2
310
E2E2E2E2E2E2E2E2E2E2E2E2E2E2E2E2E2E2E2E2E2E2E2E2E2E2E2E2E2E2E2E2E2E2E2E2E2E2E2E2E2E2E2E2E2E2E2E2E2E2E2E2E2E2E2E2E2E2E2E2E2E2E2E2E2E2E2E2E2E2E2E2E2E2E2E2E2E2E2E2E2E2E2E2E2E2E2E2E2E2E2E2E2E2E2E2E2E2E2E2E2EFE2F5F5F5F5F5F5F5F5F5F5F5F5F5F5F5F5F5F5F5F5F5F5F5F5
310
F5F5F5F5F5F5F5F5F5F5F5F5F5F5F5F5F5F5F5F5F5F5F5F5F5F5F5F5F5F5F5F5F5F5F5F5F5F5F5F5F5F5F5F5F5F5F5F5F5F5F5F5F5F5F5F5F5F5F5F5F5F5F5F5F5F5F5F5F5F5F5F5F5F5F5F5F5F5F5F5F5F5F5F5F5F5F5F5F5F5F5F5F5F5F5F5F5F5F5F5F5F5F5F5F5F5F5F5F5F5F5F5F5F5F5F5F5F5F5F5F5F5F5F5F5F5F5
310
F5F5F5F5F5F5F5F5F5F5F5F5F5F5F5F5F5F5F5F5F5F5F5F5F5E2E2EFE2F5F5F5F5F5F5F5F5F5F5F5F5F5F5F5F5F5F5F5F5F5F5F5F5F5F5F5F5F5F5F5F5F5F5F5F5F5F5F5F5F5F5F5F5F5F5F5F5F5F5F5F5F5F5F5F5F5F5F5F5F5F5F5F5F5F5F5F5F5F5F5F5F5F5F5F5F5F5F5F5F5F5F5F5F5F5F5F5F5F5F5F5F5F5F5F5F5F5
310
F5F5F5F5F5F5F5F5F5F5F5F5F5F5F5F5F5F5F5F5F5F5F5F5F5F5F5F5F5F5F5F5F5F5F5F5F5F5F5F5F5F5F5F5F5F5F5F5F5F5F5F5F5F5F5F5F5F5F5F5F5F5F5F5F5F5F5F5F5F5F5F5F5F5F5F5F5F5E2E2EFE2F5F5F5F5F5F5F5F5F5F5F5F5F5F5F5F5F5F5F5F5F5F5F5F5F5F5F5F5F5F5F5F5F5F5F5F5F5F5F5F5F5F5F5F5F5
310
F5F5F5F5F5F5F5F5F5F5F5F5F5F5F5F5F5F5F5F5F5F5F5F5F5F5F5F5F5F5F5F5F5F5F5F5F5F5F5F5F5F5E2F5F5F5F5F5F5F5F5F5F5F5F5F5F5F5F5F5F5F5F5F5F5F5F5F5F5F5F5F5F5F5F5F5F5F5F5F5F5F5F5F5F5F5F5F5F5F5F5F5F5F5F5F5F5F5F5F5F5F5F5F5F5F5F5F5F5F5F5F5F5F5F5F5F5F5F5F5F5F5F5F5F5F5F5
310
F5F5F5F5E2E2EFE2F5F5E2E2E2E2E2E2E2E2E2E2E2E2E2E2E2E2E2E2E2E2E2E2E2E2E2E2E2E2E2E2E2E2E2E2E2E2E2E2E2E2E2E2E2E2E2E2E2E2E2E2E2E2E2E2E2E2E2E2E2E2E2E2E2E2E2E2E2E2E2E2E2E2E2E2E2E2E2E2E2E2E2E2E2E2E2E2E2E2E2E2E2E2E2E2E2E2E2E2E2E2E2E2E2E2E2E2E2E2E2E2E2E2E2E2E2E2E2
310
E2E2E2E2E2E2E2E2E2E2E2E2E2E2E2E2E2E2E2E2E2E2E2E2E2E2E2E2E2E2E2E2E2E2E2E2E2E2E2E2E2E2E2E2E2E2E2E2E2E2E2E2E2E2E2F5F5E2E2EFE2F5F5E2F5F5F5E2F5F5F5F5F5F5F5F5F5F5F5F5F5F5F5F5F5F5F5F5F5F5F5F5F5F5F5F5F5F5F5F5F5F5F5F5F5F5F5F5F5F5F5F5F5F5F5F5F5F5F5F5F5F5F5F5F5F5F5
310
F5F5F5F5F5F5F5F5F5F5F5F5F5F5F5F5F5F5F5F5F5F5F5F5F5F5F5F5F5F5F5F5F5E2F5F5E2E2E2E2E2E2E2E2E2E2E2E2E2E2E2E2E2E2E2E2E2E2E2E2E2F5F5E2F5F5F5F5F5F5F5F5F5F5F5F5F5F5F5F5F5F5F5F5F5F5F5F5F5F5F5F5F5F5F5F5F5F5F5F5F5F5F5E2F5F5F5E2F5F5E2E2EFE2F5F5E2F5F5F5E2F5F5F5F5F5F5
310
F5F5F5F5F5F5F5F5F5F5F5F5F5F5F5F5F5F5F5F5F5F5F5F5F5F5F5F5F5F5F5F5F5F5F5F5F5F5F5F5F5F5F5F5F5F5F5F5F5F5F5F5F5F5F5F5F5F5F5F5F5F5F5F5F5F5F5F5F5F5F5F5F5F5F5F5F5F5F5F5F5F5F5F5F5F5E2F5F5E2E2E2E2E2E2E2E2E2E2E2E2E2E2E2E2E2E2E2E2E2E2E2E2E2F5F5E2F5F5F5F5F5F5F5F5F5F5
310
F5F5F5F5F5F5F5F5F5F5F5F5F5F5F5F5F5F5F5F5F5F5F5F5F5F5F5F5F5E2F5F5F5E2F5F5E2E2EFE2F5F5E2F5F5F5E2F5F5F5F5F5F5F5F5F5F5F5F5F5F5F5F5F5F5F5F5F5F5F5F5F5F5F5F5F5F5F5F5F5F5F5F5F5F5F5F5F5F5F5F5F5F5F5F5F5F5F5F5F5F5F5F5F5F5F5F5F5F5F5F5F5F5F5F5F5F5F5F5F5F5F5F5F5F5F5F5
310
F5F5F5F5F5F5F5F5F5F5F5F5E2F5F5E2E2E2E2E2E2E2E2E2E2E2E2E2E2E2E2E2E2E2E2E2E2E2E2E2F5F5E2F5F5F5F5F5F5F5F5F5F5F5F5F5F5F5F5F5F5F5F5F5F5F5F5F5F5F5F5F5F5F5F5F5F5F5F5F5F5F5E2F5F5F5E2F5F5E2E2EFE2F5F5E2F5F5F5E2F5F5F5F5F5F5F5F5F5F5F5F5F5F5F5F5F5F5F5F5F5F5F5F5F5F5F5
310
F5F5F5F5F5F5F5F5F5F5F5F5F5F5F5F5F5F5F5F5F5F5F5F5F5F5F5F5F5F5F5F5F5F5F5F5F5F5F5F5F5F5F5F5F5F5F5F5F5F5F5F5F5F5F5F5F5F5F5F5F5F5F5F5F5E2F5F5E2E2E2E2E2E2E2E2E2E2E2E2E2E2E2E2E2E2E2E2E2E2E2E2E2F5F5E2F5F5F5F5F5F5F5F5F5F5F5F5F5F5F5F5F5F5F5F5F5F5F5F5F5F5F5F5F5F5F5
310
F5F5F5F5F5F5F5F5E2F5F5F5E2F5F5E2E2EFE2F5F5E2F5F5F5E2F5F5F5F5F5F5F5F5F5F5F5F5F5F5F5F5F5F5F5F5F5F5F5F5F5F5F5F5F5F5F5F5F5F5F5F5F5F5F5F5F5F5F5F5F5F5F5F5F5F5F5F5F5F5F5F5F5F5F5F5F5F5F5F5F5F5F5F5F5F5F5F5F5F5F5F5F5F5F5F5F5F5F5F5F5F5F5F5F5F5F5F5E2F5F5F5F5F5F5F5F5
310
F5F5F5F5F5F5F5F5F5F5F5F5F5F5F5F5F5F5F5F5F5E2F5F5F5F5F5F5F5F5F5F5F5F5F5F5F5F5F5F5F5F5F5F5F5F5F5F5F5F5F5F5F5F5F5F5F5F5F5F5F5E2F5F5F5E2F5F5E2E2EFE2F5F5E2F5F5F5E2F5F5F5F5F5F5F5F5F5F5F5F5F5F5F5F5F5F5F5F5F5F5F5F5F5F5F5F5F5F5F5F5F5F5F5F5F5F5F5F5F5F5F5F5F5F5F5F5
310
F5F5F5F5F5F5F5F5F5F5F5F5F5F5F5F5F5F5F5F5F5F5F5F5F5F5F5F5F5F5F5F5F5F5F5F5F5F5F5F5F5F5F5F5E2E2E2E2E2E2E2E2E2E2E2E2E2E2E2E2E2E2E2E2E2E2E2E2E2E2E2E2E2E2E2E2E2E2E2E2E2E2E2E2E2E2E2E2E2E2E2E2E2E2E2E2E2E2E2E2E2E2E2E2E2E2E2E2E2E2E2E2E2E2E2F5F5F5E2F5F5E2E2EFE2F5F5
310
E2F5F5F5E2F5F5F5F5F5F5F5F5F5F5F5F5F5F5F5F5F5F5F5F5F5F5F5F5F5F5F5F5F5F5F5F5F5F5F5F5F5F5F5F5F5F5F5F5F5F5F5F5F5F5F5F5F5F5F5F5F5F5F5F5F5F5F5F5F5F5F5F5F5F5F5F5F5F5F5F5F5F5F5F5F5F5F5F5F5F5F5F5F5F5F5F5E2F5F5F5F5F5F5F5F5F5F5F5F5F5F5F5F5F5F5F5F5F5F5F5F5F5F5F5F5F5
310
F5F5F5F5F5F5F5F5F5F5F5F5F5F5F5F5F5F5F5F5F5F5F5F5F5F5F5F5F5F5F5F5F5F5F5F5F5F5F5F5E2F5F5F5E2F5F5E2E2EFE2F5F5F5F5F5F5E2F5F5F5F5F5F5F5F5F5F5F5F5F5F5F5F5F5F5F5F5F5F5F5F5F5F5F5F5F5F5F5F5F5F5F5F5F5F5F5F5F5F5F5F5F5F5F5F5F5F5F5F5F5F5F5F5F5F5F5F5F5F5F5F5F5F5F5F5F5
310
F5F5F5F5F5F5F5F5F5F5F5F5F5F5F5F5F5F5F5F5F5F5F5E2F5F5F5F5F5F5F5F5F5F5F5F5E2E2E2E2E2E2E2E2E2E2E2E2E2E2E2E2E2E2E2E2E2E2E2E2E2E2E2E2E2E2E2E2E2E2E2E2E2E2E2E2E2E2E2F5F5F5F5F5F5F5F5F5F5F5F5F5F5E2F5F5F5F5F5F5E2E2EFE2F5F5F5F5F5F5E2F5F5F5F5F5F5F5F5F5F5F5F5F5F5F5F5
310
F5F5F5F5F5F5F5F5F5F5F5F5F5F5F5F5F5F5F5F5F5F5F5F5F5F5F5F5F5F5F5F5F5F5F5F5F5F5F5F5F5F5F5F5F5F5F5F5F5F5F5F5F5F5F5F5F5F5F5F5F5F5F5F5F5F5F5F5F5F5F5F5F5F5F5F5E2F5F5F5F5F5F5F5F5F5F5F5F5E2E2E2E2E2E2E2E2E2E2E2E2E2E2E2E2E2E2E2E2E2E2E2E2E2E2E2E2E2E2E2E2E2E2E2E2E2E2
310
E2E2E2E2E2F5F5F5F5F5F5F5F5F5F5F5F5F5F5E2F5F5F5F5F5F5E2E2EFE2F5F5F5F5F5F5E2F5F5F5F5F5F5F5F5F5F5F5F5F5F5F5F5F5F5F5F5F5F5F5F5F5F5F5F5F5F5F5F5F5F5F5F5F5F5F5F5F5F5F5F5F5F5F5F5F5F5F5F5F5F5F5F5F5F5F5F5F5F5F5F5F5F5F5F5F5F5F5F5F5F5F5F5F5F5F5F5F5F5F5F5F5F5F5F5F5F5
310
F5F5E2F5F5F5F5F5F5F5F5F5F5F5F5E2E2E2E2E2E2E2E2E2E2E2E2E2E2E2E2E2E2E2E2E2E2E2E2E2E2E2E2E2E2E2E2E2E2E2E2E2E2E2E2E2E2E2F5F5F5F5F5F5F5F5F5F5F5F5F5F5E2F5F5F5F5F5F5E2E2EFE2F5F5F5F5F5F5E2F5F5F5F5F5F5F5F5F5F5F5F5F5F5F5F5F5F5F5F5F5F5F5F5F5F5F5F5F5F5F5F5F5F5F5F5F5
310
F5F5F5F5F5F5F5F5F5F5F5F5F5F5F5F5F5F5F5F5F5F5F5F5F5F5F5F5F5F5F5F5F5F5F5F5F5F5F5F5F5F5F5F5F5F5F5F5F5F5F5F5F5F5F5E2F5F5F5F5F5F5F5F5F5F5F5F5E2E2E2E2E2E2E2E2E2E2E2E2E2E2E2E2E2E2E2E2E2E2E2E2E2E2E2E2E2E2E2E2E2E2E2E2E2E2E2E2E2E2E2F5F5F5F5F5F5F5F5F5F5F5F5F5F5E2F5
310
F5F5F5F5F5E2E2EFE2F5F5F5F5F5F5E2F5F5F5F5F5F5F5F5F5F5F5F5F5F5F5F5F5F5F5F5F5F5F5F5F5F5F5F5F5F5F5F5F5F5F5F5F5F5F5F5F5F5F5F5F5F5F5F5F5F5F5F5F5F5F5F5F5F5F5F5F5F5F5F5F5F5F5F5F5F5F5F5F5F5F5F5F5F5F5F5F5F5F5F5F5F5F5F5F5F5F5F5E2F5F5F5F5F5F5F5F5F5F5F5F5F5F5F5F5F5F5
310
F5F5F5F5F5F5F5F5F5F5F5F5F5F5F5F5F5F5F5F5F5F5F5F5F5F5F5F5F5F5F5F5F5F5F5F5F5F5F5F5F5F5F5F5F5F5F5F5F5F5F5E2F5F5F5F5F5F5E2E2EFE2F5F5F5F5F5F5E2F5F5F5F5F5F5F5F5F5F5F5F5F5F5F5F5F5F5F5F5F5F5F5F5F5F5F5F5F5F5F5F5F5F5F5F5F5F5F5F5F5F5F5F5F5F5F5F5F5F5F5F5F5F5F5F5F5F5
310
F5F5F5F5F5F5F5F5F5F5F5F5F5F5F5F5F5F5F5F5F5F5F5F5F5F5F5F5F5F5F5F5F5F5E2F5F5F5F5F5F5F5F5F5F5F5F5F5F5F5F5F5F5F5F5F5F5F5F5F5F5F5F5F5F5F5F5F5F5F5F5F5F5F5F5F5F5F5F5F5F5F5F5F5F5F5F5F5F5F5F5F5F5F5F5F5F5F5F5F5F5F5F5F5E2F5F5F5F5F5F5E2E2EFE2F5F5F5F5F5F5E2F5F5F5F5F5
310
F5F5F5F5F5F5F5F5F5F5F5F5F5F5F5F5F5F5F5F5F5F5F5F5F5F5F5F5F5F5F5F5F5F5F5F5F5F5F5F5F5F5F5F5F5F5F5F5F5F5F5F5F5F5F5F5F5F5F5F5F5F5F5F5F5F5F5F5F5F5F5F5F5F5F5F5F5F5F5F5F5F5F5F5F5F5F5E2E2E2E2E2E2E2E2E2E2E2E2E2E2E2E2E2E2E2E2E2E2E2E2E2E2E2E2E2E2E2E2E2E2E2E2E2E2E2E2
310
E2E2E2E2E2E2E2E2E2E2E2E2E2E2E2E2E2E2E2E2E2E2E2E2E2E2E2E2E2E2E2F5F5F5F5F5F5E2E2EFE2F5F5F5F5F5F5E2F5F5F5F5F5F5F5F5F5F5F5F5F5F5F5F5F5F5F5F5F5F5F5F5F5F5F5F5F5F5F5F5F5F5F5F5F5F5F5F5F5F5F5F5F5F5F5F5F5F5F5F5F5F5F5F5F5F5F5F5F5F5F5F5F5F5F5F5F5F5F5F5F5F5F5F5F5F5F5
310
F5F5F5F5F5F5F5F5F5F5F5F5F5E2F5F5F5F5F5F5F5F5F5F5F5F5F5F5F5F5F5F5F5F5F5F5F5F5F5F5F5F5F5F5F5F5F5F5F5F5F5F5F5F5F5F5F5F5F5F5F5F5F5F5F5F5F5F5F5F5F5F5F5F5F5F5F5F5F5F5F5F5F5E2F5F5F5F5F5F5E2E2EFE2F5F5F5F5F5F5E2F5F5F5F5F5F5F5F5F5F5F5F5F5F5F5F5F5F5F5F5F5F5F5F5F5F5
310
F5F5F5F5F5F5F5F5F5F5F5F5F5F5F5F5F5F5F5F5F5F5F5F5F5F5F5F5F5F5F5F5F5F5F5F5F5F5F5F5F5F5F5F5F5F5F5F5F5F5F5F5F5F5F5F5F5F5F5F5F5F5F5F5F5F5E2E2E2E2E2E2E2E2E2E2E2E2E2E2E2E2E2E2E2E2E2E2E2E2E2E2E2E2E2E2E2E2E2E2E2E2E2E2E2E2E2E2E2E2E2E2E2E2E2E2E2E2E2E2E2E2E2E2E2E2E2
310
E2E2E2E2E2E2E2E2E2E2F5F5F5F5F5F5E2E2EFE2F5F5E2F5F5F5E2F5F5F5F5F5F5F5F5F5F5F5F5F5F5F5F5F5F5F5F5F5F5F5F5F5F5F5F5F5F5F5F5F5F5F5F5F5F5F5F5F5F5F5F5F5F5F5F5F5F5F5F5F5F5F5F5F5F5F5F5F5F5F5F5F5F5F5F5F5F5F5F5F5F5F5F5F5F5F5F5F5F5F5F5F5F5F5F5F5F5F5F5F5F5F5F5F5F5F5F5
310
F5F5F5F5F5F5F5F5F5F5F5F5F5F5F5F5F5F5F5F5F5F5F5F5F5F5F5F5F5F5F5F5F5F5F5F5F5F5F5F5F5F5F5F5F5F5F5F5F5F5F5F5F5F5F5F5F5F5F5F5F5F5E2F5F5F5E2F5F5E2E2EFE2F5F5E2F5F5F5E2F5F5F5F5F5F5F5F5F5F5F5F5F5F5F5F5F5F5F5F5F5F5F5F5F5F5F5F5F5F5F5F5F5F5F5F5F5F5F5F5F5F5F5F5F5F5F5
310
F5F5F5F5F5F5F5F5F5F5F5F5F5F5F5F5F5F5F5F5F5F5F5F5F5F5F5F5F5F5F5F5F5F5F5F5F5F5F5F5F5F5F5F5F5F5F5F5F5F5F5F5F5F5F5F5F5F5F5F5F5F5F5F5F5F5F5F5F5F5F5F5F5F5F5F5F5F5F5F5F5F5F5F5F5F5F5F5F5F5F5F5F5F5F5F5F5F5F5F5F5F5F5F5F5F5F5F5F5F5F5F5F5F5F5E2F5F5F5E2F5F5E2E2EFE2F5
310
F5E2F5F5F5E2F5F5F5F5F5F5F5F5F5F5F5F5F5F5F5F5F5F5F5F5F5F5F5F5F5F5F5F5F5F5F5F5F5F5F5F5F5F5F5F5F5F5F5F5F5F5F5F5F5F5F5F5F5F5F5F5F5F5F5F5F5F5F5F5F5F5F5F5F5F5F5F5F5F5F5F5F5F5F5F5F5F5F5F5F5F5F5F5F5F5F5F5F5F5F5F5F5F5F5F5F5F5F5F5F5F5F5F5F5F5F5F5F5F5F5F5F5F5F5F5F5
310
F5F5F5F5F5F5F5F5F5F5F5F5F5F5F5F5F5F5F5F5F5F5F5F5F5F5F5F5F5F5F5F5F5F5F5F5F5F5F5F5F5E2F5F5F5E2F5F5E2E2EFE2F5F5E2F5F5F5E2F5F5F5F5F5F5F5F5F5F5F5F5F5F5F5F5F5F5F5F5F5F5F5F5F5F5F5F5F5F5F5F5F5F5F5F5F5F5F5F5F5F5F5F5F5F5F5F5F5F5F5F5F5F5F5F5F5F5F5F5F5F5F5F5F5F5F5F5
310
F5F5F5F5F5F5F5F5F5F5F5F5F5F5F5F5F5F5F5F5F5F5F5F5F5F5F5F5F5F5F5F5F5F5F5F5F5F5F5F5F5F5F5F5F5F5F5F5F5F5F5F5F5F5F5F5F5F5F5F5F5F5F5F5F5F5F5F5F5F5F5F5F5F5F5F5F5F5F5F5F5F5F5F5F5F5F5F5F5F5F5F5F5F5E2F5F5F5E2F5F5E2E2EFE2F5F5E2F5F5F5E2F5F5F5F5F5F5F5F5F5F5F5F5F5F5F5
310
F5F5F5F5F5F5F5F5F5F5F5F5F5F5F5F5F5F5F5F5F5F5F5F5F5F5F5F5F5F5F5F5F5F5F5F5F5F5F5F5F5F5F5F5F5F5F5F5F5F5F5F5F5F5F5F5F5F5F5F5F5F5F5F5F5F5F5F5F5F5F5F5F5F5F5F5F5F5F5F5F5F5F5F5F5F5F5F5F5F5F5F5F5F5F5F5F5F5F5F5F5F5F5F5F5F5F5F5F5F5F5F5F5F5F5F5F5F5F5F5F5F5F5F5F5F5F5
310
F5F5F5F5F5F5F5F5F5F5F5F5F5F5F5F5F5F5F5F5E2F5F5F5E2F5F5E2E2EFE2F5F5E2F5F5F5E2F5F5F5F5F5F5F5F5F5F5F5F5F5F5F5F5F5F5F5F5F5F5F5F5F5F5F5F5F5F5F5F5F5F5F5F5F5F5F5F5F5F5F5F5F5F5F5F5F5F5F5F5F5F5F5F5F5F5F5F5F5F5F5F5F5F5F5F5F5F5F5F5F5F5F5F5F5F5F5F5F5F5F5F5F5F5F5F5F5
310
F5F5F5F5F5F5F5F5F5F5F5F5F5F5F5F5F5F5F5F5F5F5F5F5F5F5F5F5F5F5F5F5F5F5F5F5F5F5F5F5F5F5F5F5F5F5F5F5F5F5F5F5F5F5F5F5F5F5F5F5F5F5F5F5F5F5F5F5F5F5F5F5F5E2F5F5F5E2F5F5E2E2EFE2F5F5E2F5F5F5E2F5F5F5F5F5F5F5F5F5F5F5F5F5F5F5F5F5F5F5F5F5F5F5F5F5F5F5F5F5F5F5F5F5F5F5F5
310
F5F5F5F5F5F5F5F5F5F5F5F5F5F5F5F5F5F5F5F5F5F5F5F5F5F5F5F5F5F5F5F5F5F5F5F5F5F5F5F5F5F5F5F5F5F5F5F5F5F5F5F5F5F5F5F5F5F5F5F5F5F5F5F5F5F5F5F5F5F5F5F5F5F5F5F5F5F5F5F5F5F5F5F5F5F5F5F5F5F5F5F5F5F5F5F5F5F5F5F5F5F5F5F5F5F5F5F5F5F5F5F5F5F5F5F5F5F5F5F5F5F5F5F5F5F5E2
310
F5F5F5E2F5F5E2E2EFE2F5F5E2F5F5F5E2F5F5F5F5F5F5F5F5F5F5F5F5F5F5F5F5F5F5F5F5F5F5F5F5F5F5F5F5F5F5F5F5F5F5F5F5F5F5F5F5F5F5F5F5F5F5F5F5F5F5F5F5F5F5F5F5F5F5F5F5F5F5F5F5F5F5F5F5F5F5F5F5F5F5F5F5F5F5F5F5F5F5F5F5F5F5F5F5F5F5F5F5F5F5F5F5F5F5F5F5F5F5F5F5F5F5F5F5F5F5
310
F5F5F5F5F5F5F5F5F5F5F5F5F5F5F5F5F5F5F5F5F5F5F5F5F5F5F5F5F5F5F5F5F5F5F5F5F5F5F5F5F5F5F5F5F5F5F5F5F5F5F5F5E2F5F5F5E2F5F5E2E2EFE2F5F5E2F5F5F5E2F5F5F5F5F5F5F5F5F5F5F5F5F5F5F5F5F5F5F5F5F5F5F5F5F5F5F5F5F5F5F5F5F5F5F5F5F5F5F5F5F5F5F5F5F5F5F5F5F5F5F5F5F5F5F5F5F5
310
F5F5F5F5F5F5F5F5F5F5F5F5F5F5F5F5F5F5F5F5F5F5F5F5F5F5F5F5F5F5F5F5F5F5F5F5F5F5F5F5F5F5F5F5F5F5F5F5F5F5F5F5F5F5F5F5F5F5F5F5F5F5F5F5F5F5F5F5F5F5F5F5F5F5F5F5F5F5F5F5F5F5F5F5F5F5F5F5F5F5F5F5F5F5F5F5F5F5F5F5F5F5F5F5F5E2F5F5F5E2F5F5E2E2EFE2F5F5E2F5F5F5E2F5F5F5F5
310
F5F5F5F5F5F5F5F5F5F5F5F5F5F5F5F5F5F5F5F5F5F5F5F5F5F5F5F5F5F5F5F5F5F5F5F5F5F5F5F5F5F5F5F5F5F5F5F5F5F5F5F5F5F5F5F5F5F5F5F5F5F5F5F5F5F5F5F5F5F5F5F5F5F5F5F5F5F5F5F5F5F5F5F5F5F5F5F5F5F5F5F5F5F5F5F5F5F5F5F5F5F5F5F5F5F5F5F5F5F5F5F5F5F5F5F5F5F5F5F5F5F5F5F5F5F5F5
310
F5F5F5F5F5F5F5F5F5F5F5F5F5F5F5F5F5F5F5F5F5F5F5F5F5F5F5F5F5F5F5E2F5F5F5E2F5F5E2E2EFE2F5F5E2F5F5F5E2F5F5F5F5F5F5F5F5F5F5F5F5F5F5F5F5F5F5F5F5F5F5F5F5F5F5F5F5F5F5F5F5F5F5F5F5F5F5F5F5F5F5F5F5F5F5F5F5F5F5F5F5F5F5F5F5F5F5F5F5F5F5F5F5F5F5F5F5F5F5F5F5F5F5F5F5F5F5
310
F5F5F5F5F5F5F5F5F5F5F5F5F5F5F5F5F5F5F5F5F5F5F5F5F5F5F5F5F5F5F5F5F5F5F5F5F5F5F5F5F5F5F5F5F5F5F5F5F5F5F5F5F5F5F5F5F5F5F5F5F5F5F5F5F5F5F5F5F5F5F5F5F5F5F5F5F5F5F5F5F5F5F5F5E2F5F5F5E2F5F5E2E2EFE2F5F5E2F5F5F5E2F5F5F5F5F5F5F5F5F5F5F5F5F5F5F5F5F5F5F5F5F5F5F5F5F5
310
F5F5F5F5F5F5F5F5F5F5F5F5F5F5F5F5F5F5F5F5F5F5F5F5E2F5E2E2F5F5F5F5F5F5F5F5F5F5F5F5F5E2F5E2F5F5F5F5F5F5F5F5F5F5F5F5F5F5F5F5F5F5F5F5F5F5F5F5F5F5F5F5F5F5F5F5F5F5F5F5F5F5F5F5F5F5F5F5F5F5F5F5F5F5F5F5F5F5F5F5F5F5F5F5F5F5F5F5F5F5F5F5F5F5F5F5F5F5F5F5F5F5F5F5F5F5F5
310
F5F5F5F5F5F5F5F5F5F5E2F5F5F5E2F5F5E2E2EFE2F5F5E2F5F5F5E2F5F5F5F5F5F5F5F5F5F5F5F5F5F5F5F5F5F5F5F5F5F5F5F5F5F5F5F5F5F5F5F5F5F5F5F5F5F5F5F5F5F5F5F5F5F5F5F5F5E2E2E2E2E2E2E2E2E2E2E2E2E2E2E2E2E2E2E2E2F5F5F5F5F5F5F5F5F5F5F5F5F5F5F5F5F5F5F5F5F5F5F5F5F5F5F5F5F5F5
310
F5F5F5E2E2E2E2E2E2E2E2E2E2E2E2E2E2E2E2E2E2E2E2E2E2E2E2E2F5F5F5F5F5F5F5F5F5F5F5F5F5F5F5F5F5F5F5F5F5F5F5F5F5F5F5F5F5F5F5F5F5F5F5E2F5F5F5E2F5F5E2E2EFE2F5F5E2F5F5F5E2F5F5F5F5F5F5F5F5F5F5F5F5F5F5F5F5F5F5F5F5F5F5F5F5F5F5F5F5F5F5F5F5F5F5F5F5F5F5F5F5F5F5F5F5F5F5
310
F5F5F5E2F5F5F5F5F5F5F5E2E2E2E2F5F5F5F5F5F5F5E2F5F5F5F5F5F5F5F5F5F5F5F5F5F5F5F5F5F5F5F5F5F5F5F5F5F5F5F5F5F5F5F5F5E2F5E2E2F5F5F5F5F5F5E2E2E2E2F5F5F5F5F5F5F5E2E2F5E2F5F5F5F5F5F5F5F5F5F5F5F5F5F5F5F5F5F5F5F5F5F5F5F5F5F5F5F5F5F5F5F5F5F5F5E2F5F5F5E2F5F5E2E2EFE2
310
F5F5E2F5F5F5E2F5F5F5F5F5F5F5F5F5F5F5F5F5F5F5F5F5F5F5F5F5F5F5F5F5F5F5F5F5F5F5F5F5F5F5F5F5F5F5F5F5F5F5F5F5F5F5F5F5E2F5F5F5F5F5F5F5E2E2E2E2F5F5F5F5F5F5F5E2F5F5F5F5F5F5F5F5F5F5F5F5F5F5F5F5F5F5F5F5F5F5F5F5F5F5F5F5F5F5F5F5F5E2F5F5F5F5F5F5F5F5F5E2E2E2E2F5F5F5F5
310
F5F5F5F5F5F5E2F5F5F5F5F5F5F5F5F5F5F5F5F5F5F5F5F5F5F5F5F5F5F5F5F5F5F5F5F5F5F5F5F5F5F5E2F5F5F5E2F5F5E2E2EFE2F5F5F5F5F5F5E2F5F5F5F5F5F5F5F5F5F5F5F5F5F5F5F5F5F5F5F5F5F5F5F5F5F5F5F5F5F5F5F5F5F5F5F5F5F5F5F5F5F5F5F5F5F5F5F5F5E2F5F5F5F5F5F5F5F5F5F5F5F5F5F5F5F5F5
310
F5E2F5F5F5F5F5F5F5F5F5F5F5F5F5F5F5F5F5F5F5F5F5F5F5F5F5F5F5F5F5F5F5F5F5E2F5F5F5F5F5F5F5F5F5E2E2E2E2F5F5F5F5F5F5F5F5F5F5E2F5F5F5F5F5F5F5F5F5F5F5F5F5F5F5F5F5F5F5F5F5F5F5F5F5F5F5F5F5F5F5F5F5F5F5E2F5F5F5F5F5F5E2E2EFE2F5F5F5F5F5F5E2F5F5F5F5F5F5F5F5F5F5F5F5F5F5
310
F5F5F5F5F5F5F5F5F5F5F5F5F5F5F5F5F5F5F5F5F5F5F5F5F5F5F5F5F5F5F5F5F5F5F5E2F5F5F5F5F5F5F5F5F5F5F5F5F5F5F5F5F5F5E2F5F5F5F5F5F5F5F5F5F5F5F5F5F5F5F5F5F5F5F5F5F5F5F5F5F5F5F5F5F5F5F5F5E2F5F5F5F5F5F5F5F5F5F5F5F5F5F5F5F5F5F5F5F5F5F5F5E2F5F5F5F5F5F5F5F5F5F5F5F5F5F5
310
F5F5F5F5F5F5F5F5F5F5F5F5F5F5F5F5F5F5F5F5F5E2F5F5F5F5F5F5E2E2EFE2F5F5F5F5F5F5E2F5F5F5F5F5F5F5F5F5F5F5F5F5F5F5F5F5F5F5F5F5F5F5F5F5F5F5F5F5F5F5F5F5F5F5F5F5F5F5F5F5F5F5F5F5F5F5F5F5E2F5F5F5F5F5F5F5F5F5F5F5F5F5F5F5F5F5F5E2F5F5F5F5F5F5F5F5F5F5F5F5F5F5F5F5F5F5F5
310
F5F5F5F5F5F5F5F5F5F5F5F5F5F5E2F5F5F5F5F5F5F5F5F5F5F5F5F5F5F5F5F5F5F5F5F5F5F5E2F5F5F5F5F5F5F5F5F5F5F5F5F5F5F5F5F5F5F5F5F5F5F5F5F5F5F5F5F5F5F5F5F5F5F5E2F5F5F5F5F5F5E2E2EFE2F5F5F5F5F5F5E2F5F5F5F5F5F5F5F5F5F5F5F5F5F5F5F5F5F5F5F5F5F5F5F5F5F5F5F5F5F5F5F5F5F5F5
310
F5F5F5F5F5F5F5F5F5F5F5F5F5F5E2F5F5F5F5F5F5F5F5F5F5F5F5F5F5F5F5F5F5E2F5F5F5F5F5F5F5F5F5F5F5F5F5F5F5F5F5F5F5F5F5F5F5F5F5F5F5F5F5F5F5F5F5E2F5F5F5F5F5F5F5F5F5F5F5F5F5F5F5F5F5F5F5F5F5F5F5E2F5F5F5F5F5F5F5F5F5F5F5F5F5F5F5F5F5F5F5F5F5F5F5F5F5F5F5F5F5F5F5F5F5F5F5
310
E2F5F5F5F5F5F5E2E2EFE2F5F5F5F5F5F5E2F5F5F5F5F5F5F5F5F5F5F5F5F5F5F5F5F5F5F5F5F5F5F5F5F5F5F5F5F5F5F5F5F5F5F5F5F5F5F5F5E2E2E2E2E2E2E2E2E2E2E2E2F5F5F5F5F5F5F5F5F5F5F5F5F5F5F5E2E2F5F5F5F5F5F5F5F5F5F5F5F5F5F5F5F5F5F5F5F5F5F5F5E2E2E2E2E2E2E2E2E2E2E2E2E2F5F5F5F5
310
F5F5F5F5F5F5F5F5F5F5F5F5F5F5F5E2E2E2F5F5F5F5F5F5F5F5F5F5F5F5F5F5F5F5F5F5F5F5F5F5F5F5F5F5F5F5F5F5F5F5F5F5F5E2F5F5F5F5F5F5E2E2EFE2F5F5F5F5F5F5E2F5F5F5F5F5F5F5F5F5F5F5F5F5F5F5F5F5F5F5F5F5F5F5F5F5F5F5F5F5F5F5F5F5F5F5F5F5F5F5F5E2E2F5F5F5F5F5F5F5E2E2E2E2E2F5F5
310
F5F5F5F5F5F5F5F5E2E2E2E2E2F5F5F5F5F5F5F5F5F5F5F5F5F5F5F5F5F5F5F5F5F5F5F5F5E2F5F5F5F5F5F5F5F5E2E2E2E2E2E2F5F5F5F5F5F5F5F5F5F5F5F5F5F5E2E2E2E2E2F5F5F5F5F5F5F5F5F5F5F5F5F5F5F5F5F5F5F5F5F5F5F5F5F5F5F5F5F5F5F5F5F5F5F5E2F5F5F5F5F5F5E2E2EFE2F5F5F5F5F5F5E2F5F5F5
310
F5F5F5F5F5F5F5F5F5F5F5F5F5F5F5F5F5F5F5F5F5F5F5F5F5F5F5F5F5F5F5F5F5F5F5F5E2E2E2F5F5F5F5F5F5F5E2F5F5F5E2F5F5F5F5F5F5F5F5F5F5E2F5F5F5E2F5F5F5F5F5F5F5F5F5F5F5F5F5F5F5F5F5F5F5F5F5F5F5E2E2F5F5F5F5F5F5F5F5E2F5F5F5F5E2F5F5F5F5F5F5F5F5F5F5F5F5F5E2F5F5F5F5E2F5F5F5
310
F5F5F5F5F5F5F5F5F5F5F5F5F5F5F5F5F5F5F5F5F5F5F5F5F5F5F5F5F5F5F5F5E2F5F5F5F5F5F5E2E2EFE2F5F5F5F5F5F5E2F5F5F5F5F5F5F5F5F5F5F5F5F5F5F5F5F5F5F5F5F5F5F5F5F5F5F5F5F5F5F5F5F5F5F5F5F5F5F5F5E2F5F5F5F5F5F5F5F5E2F5F5F5E2F5F5F5F5F5F5F5F5F5F5E2F5F5F5E2F5F5F5F5F5F5F5F5
310
F5F5F5F5F5F5F5F5F5F5F5F5F5F5F5F5E2F5F5F5F5F5F5F5F5E2F5F5F5F5E2F5F5F5F5F5F5F5F5F5F5F5F5F5E2F5F5F5F5E2F5F5F5F5F5F5F5F5F5F5F5F5F5F5F5F5F5F5F5F5F5F5F5F5F5F5F5F5F5F5F5F5F5F5F5E2F5F5F5F5F5F5E2E2EFE2F5F5E2F5F5F5E2F5F5F5F5F5F5F5F5F5F5F5F5F5F5F5F5F5F5F5F5F5F5F5F5
310
F5F5F5F5F5F5F5F5F5F5F5F5F5F5F5F5E2F5F5F5F5F5F5F5F5E2F5F5F5F5E2F5F5F5F5F5F5F5F5E2E2F5F5F5E2F5F5F5F5F5F5F5F5F5F5F5F5F5F5F5F5F5F5F5F5F5F5F5F5E2F5F5F5F5F5F5F5F5E2F5F5F5F5E2F5F5F5F5F5F5F5F5F5F5F5F5F5E2F5F5F5F5E2F5F5F5F5F5F5F5F5F5F5F5F5F5F5F5F5F5F5F5F5F5F5F5F5
310
F5F5F5F5F5F5F5F5F5F5F5E2F5F5F5E2F5F5E2E2EFE2F5F5E2F5F5F5E2F5F5F5F5F5F5F5F5F5F5F5F5F5F5F5F5F5F5F5F5F5F5F5F5F5F5F5F5F5F5F5F5F5F5F5E2E2E2E2E2E2E2E2E2E2F5F5F5F5E2F5F5F5F5F5E2F5F5F5F5F5F5F5E2F5F5F5F5E2F5F5F5F5F5F5F5F5F5F5F5F5F5F5F5F5F5F5F5E2E2E2E2E2E2E2E2E2F5
310
F5F5F5F5E2F5F5F5F5E2F5F5F5F5F5F5F5F5F5F5F5F5F5E2F5F5F5F5E2F5F5F5F5F5F5F5F5F5F5F5F5F5F5F5F5F5F5F5F5F5F5F5F5F5F5F5F5F5F5F5F5F5F5F5E2F5F5F5E2F5F5E2E2EFE2F5F5E2F5F5F5E2F5F5F5F5F5F5F5F5F5F5F5F5F5F5F5F5F5F5F5F5F5F5F5F5F5F5F5F5F5F5F5F5F5F5F5E2E2E2E2E2E2E2E2E2E2
310
F5F5F5F5E2F5F5F5F5F5E2E2F5F5F5F5E2E2F5F5F5F5F5E2F5F5F5F5F5F5F5F5F5F5F5F5F5F5F5F5F5F5F5E2E2E2E2E2E2E2E2E2F5F5F5F5F5E2F5F5F5F5E2F5F5F5F5F5F5F5F5F5F5F5F5F5E2F5F5F5F5E2F5F5F5F5F5F5F5F5F5F5F5F5F5F5F5F5F5F5F5F5F5F5F5F5F5F5F5F5F5F5F5F5F5F5F5E2F5F5F5E2F5F5E2E2EF
310
E2F5F5E2F5F5F5E2F5F5F5F5F5F5F5F5F5F5F5F5F5F5F5F5F5F5F5F5F5F5F5F5F5F5F5F5F5F5F5F5F5F5F5E2E2E2E2E2E2E2E2E2E2F5F5F5F5E2F5F5F5F5F5F5F5E2E2E2E2E2F5F5F5F5F5F5E2F5F5F5F5F5F5F5F5F5F5F5F5F5F5F5F5F5F5F5E2E2E2E2E2E2E2E2E2F5F5F5F5F5E2F5F5F5F5E2E2E2E2E2E2E2E2E2E2E2E2
310
E2E2E2F5F5F5F5E2F5F5F5F5F5F5F5F5F5F5F5F5F5F5F5F5F5F5F5F5F5F5F5F5F5F5F5F5F5F5F5F5F5F5F5E2F5F5F5E2F5F5E2E2EFE2F5F5E2F5F5F5E2F5F5F5F5F5F5F5F5F5F5F5F5F5F5F5F5F5F5F5F5F5F5F5F5F5F5F5F5F5F5F5F5F5F5F5F5F5F5F5F5F5F5F5F5F5F5F5F5F5E2F5F5F5F5F5F5F5F5F5F5F5F5F5F5F5F5
310
F5F5E2F5F5F5F5F5F5F5F5F5F5F5F5F5F5F5F5F5F5F5F5F5F5F5F5F5F5F5F5F5F5F5F5F5E2F5F5F5F5F5F5F5F5F5F5F5F5F5F5F5F5F5F5F5F5F5F5F5E2F5F5F5F5F5F5F5F5F5F5F5F5F5F5F5F5F5F5F5F5F5F5F5F5F5F5F5F5F5F5F5F5F5F5F5E2F5F5F5E2F5F5E2E2EFE2F5F5E2F5F5F5E2F5F5F5F5F5F5F5F5F5F5F5F5F5
310
F5F5F5F5F5F5F5F5F5F5F5F5F5F5F5F5F5F5F5F5F5F5F5F5F5F5F5E2F5F5F5F5F5F5F5F5E2F5F5F5F5F5F5F5F5F5F5F5F5F5F5F5F5F5F5E2F5F5F5F5F5F5F5F5F5F5F5F5F5F5F5F5F5F5F5F5F5F5F5F5E2F5F5F5F5F5F5F5F5E2F5F5F5F5F5F5F5F5F5F5F5F5F5F5F5F5F5F5F5F5F5F5F5E2F5F5F5F5F5F5F5F5F5F5F5F5F5
310
F5F5F5F5F5F5F5F5F5F5F5F5F5F5F5F5F5F5F5F5F5F5E2F5F5F5E2F5F5E2E2EFE2F5F5E2F5F5F5E2F5F5F5F5F5F5F5F5F5F5F5F5F5F5F5F5F5F5F5F5F5F5F5F5F5F5F5F5F5F5F5F5F5F5F5F5F5F5F5F5E2F5F5F5F5F5F5F5F5E2F5F5F5F5F5F5F5F5F5F5F5F5F5F5F5F5F5F5E2F5F5F5F5F5F5F5F5F5F5F5F5F5F5F5F5F5F5
310
F5F5F5F5F5F5E2F5F5F5F5F5F5F5F5E2F5F5F5F5F5F5F5F5F5F5F5F5F5F5F5F5F5F5F5F5F5F5F5E2F5F5F5F5F5F5F5F5F5F5F5F5F5F5F5F5F5F5F5F5F5F5F5F5F5F5F5F5F5F5F5F5F5F5F5E2F5F5F5E2F5F5E2E2EFE2F5F5E2F5F5F5E2F5F5F5F5F5F5F5F5F5F5F5F5F5F5F5F5F5F5F5F5F5F5F5F5F5F5F5F5F5F5F5F5F5F5
310
F5F5F5F5F5F5E2F5F5F5F5F5F5F5F5E2F5F5F5F5F5F5F5F5F5F5F5F5F5F5F5F5F5F5E2F5F5F5F5F5F5F5F5F5F5F5F5F5F5F5F5F5F5F5F5F5F5F5F5E2F5F5F5F5F5F5F5F5E2F5F5F5F5F5F5F5F5F5F5F5F5F5F5F5F5F5F5F5F5F5F5F5E2F5F5F5F5F5F5F5F5F5F5F5F5F5F5F5F5F5F5F5F5F5F5F5F5F5F5F5F5F5F5F5F5F5F5
310
F5E2F5F5F5E2F5F5E2E2EFE2F5F5E2F5F5F5E2F5F5F5F5F5F5F5F5F5F5F5F5F5F5F5F5F5F5F5F5F5F5F5F5F5F5F5F5F5F5F5F5F5F5F5F5F5F5F5E2E2E2F5F5F5F5F5F5F5E2F5F5F5F5F5F5F5F5F5F5F5F5F5F5F5F5F5F5E2F5F5F5F5F5F5F5F5F5F5F5F5F5F5F5F5F5F5F5F5F5F5F5E2E2F5F5F5F5F5F5F5F5E2F5F5F5F5F5
310
F5F5F5F5F5F5F5F5F5F5F5F5F5F5F5F5F5F5E2F5F5F5F5F5F5F5F5F5F5F5F5F5F5F5F5F5F5F5F5F5F5F5F5F5F5F5F5F5F5F5F5F5F5F5E2F5F5F5E2F5F5E2E2EFE2F5F5E2F5F5F5E2F5F5F5F5F5F5F5F5F5F5F5F5F5F5F5F5F5F5F5F5F5F5F5F5F5F5F5F5F5F5F5F5F5F5F5F5F5F5F5F5E2E2F5F5F5F5F5F5F5E2F5F5F5F5F5
310
F5F5F5F5F5F5F5F5F5F5F5F5F5E2F5F5F5F5F5F5F5F5F5F5F5F5F5F5F5F5F5F5F5F5F5F5F5F5E2F5F5F5F5F5F5F5F5E2F5F5F5F5F5F5F5F5F5F5F5F5F5F5F5F5F5F5F5F5F5F5F5E2F5F5F5F5F5F5F5F5F5F5F5F5F5F5F5F5F5F5F5F5F5F5F5F5F5F5F5F5F5F5F5F5F5F5F5E2F5F5F5E2F5F5E2E2EFE2F5F5E2F5F5F5E2F5F5
310
F5F5F5F5F5F5F5F5F5F5F5F5F5F5F5F5F5F5F5F5F5F5F5F5F5F5F5F5F5F5F5F5F5F5F5F5F5F5E2E2E2E2E2E2E2E2E2E2E2E2E2E2E2E2E2E2E2E2F5F5F5F5F5F5F5F5E2F5F5F5F5F5F5F5F5F5F5F5F5F5F5F5F5F5F5F5F5F5F5F5E2E2E2E2E2E2E2E2E2E2E2E2E2E2E2E2E2E2E2E2E2E2E2E2E2E2E2E2E2E2E2E2E2E2E2F5F5
310
F5F5F5F5F5F5F5F5F5F5F5F5F5F5F5F5F5F5F5F5F5F5F5F5F5F5F5F5F5F5F5F5F5E2F5F5F5E2F5F5E2E2EFE2F5F5E2F5F5F5E2F5F5F5F5F5F5F5F5F5F5F5F5F5F5F5F5F5F5F5F5F5F5F5F5F5F5F5F5F5F5F5F5F5F5F5F5F5F5F5F5F5F5F5F5F5F5F5F5F5E2E2E2E2E2E2E2E2E2F5F5E2E2E2E2E2E2E2E2E2F5F5F5F5F5F5F5
310
F5F5F5F5F5F5F5F5F5F5F5F5F5F5F5F5F5F5F5F5F5F5F5F5F5F5F5F5F5F5E2E2E2F5E2E2E2F5F5F5F5E2E2E2E2E2E2F5F5F5F5F5F5F5F5F5F5F5F5F5F5F5F5F5F5F5F5F5F5F5F5F5F5F5F5F5F5F5F5F5F5F5F5F5F5F5E2F5F5F5E2F5F5E2E2EFE2F5F5E2F5F5F5E2F5F5F5F5F5F5F5F5F5F5F5F5F5F5F5F5F5F5F5F5F5F5F5
310
F5F5F5F5F5F5F5F5F5F5F5F5F5F5F5F5F5F5F5F5F5F5F5F5F5F5F5F5F5F5F5E2E2F5F5F5F5F5F5E2E2E2F5F5F5F5F5F5F5F5F5F5F5F5F5F5F5F5F5F5F5F5F5F5F5F5F5F5F5F5F5F5F5F5F5F5F5F5F5F5F5F5F5F5F5E2E2E2F5F5F5F5F5F5F5E2E2E2F5F5F5F5F5F5F5F5F5F5F5F5F5F5F5F5F5F5F5F5F5F5F5F5F5F5F5F5F5
310
F5F5F5F5F5F5F5F5F5F5F5F5E2F5F5F5E2F5F5E2E2EFE2F5F5E2F5F5F5E2F5F5F5F5F5F5F5F5F5F5F5F5F5F5F5F5F5F5F5F5F5F5F5F5F5F5F5F5F5F5F5F5F5F5F5F5F5F5F5F5F5F5F5F5F5F5F5F5F5F5F5F5F5F5E2E2E2F5F5F5F5F5F5E2E2E2F5F5F5F5F5F5F5F5F5F5F5F5F5F5F5F5F5F5F5F5F5F5F5F5F5F5F5F5F5F5F5
310
F5F5F5F5F5F5F5F5F5F5F5E2E2E2F5F5F5F5F5F5F5E2E2E2F5F5F5F5F5F5F5F5F5F5F5F5F5F5F5F5F5F5F5F5F5F5F5F5F5F5F5F5F5F5F5F5F5F5F5F5F5F5F5F5F5E2F5F5F5E2F5F5E2E2EFE2F5F5E2F5F5F5E2F5F5F5F5F5F5F5F5F5F5F5F5F5F5F5F5F5F5F5F5F5F5F5F5F5F5F5F5F5F5F5F5F5F5F5F5F5F5F5F5F5F5F5F5
310
F5F5F5F5F5F5F5F5E2E2E2E2E2F5F5F5F5F5E2E2E2F5E2F5F5F5F5F5F5F5F5F5F5F5F5F5F5F5F5F5F5F5F5F5F5F5F5F5F5F5F5F5F5F5F5F5F5F5F5F5F5F5F5F5E2E2E2F5F5F5F5F5F5F5E2E2E2E2F5F5F5F5F5F5F5F5F5F5F5F5F5F5F5F5F5F5F5F5F5F5F5F5F5F5F5F5F5F5F5F5F5F5F5F5F5F5F5F5E2F5F5F5E2F5F5E2E2
310
EFE2F5F5F5F5F5F5E2F5F5F5F5F5F5F5F5F5F5F5F5F5F5F5F5F5F5F5F5F5F5F5F5F5F5F5F5F5F5F5F5F5F5F5F5F5F5F5F5F5F5F5F5F5F5F5F5F5F5F5E2F5E2F5E2F5E2E2E2E2E2E2E2F5E2E2F5F5F5F5F5F5F5F5F5F5F5F5F5F5F5F5F5F5F5F5F5F5F5F5F5F5F5F5F5F5F5F5F5F5F5F5F5F5F5E2E2F5E2E2F5F5F5F5F5F5F5
310
E2E2E2E2E2F5F5F5F5F5F5F5F5F5F5F5F5F5F5F5F5F5F5F5F5F5F5F5F5F5F5F5F5F5F5F5F5F5F5F5F5F5F5F5E2F5F5F5F5F5F5E2E2EFE2F5F5F5F5F5F5E2F5F5F5F5F5F5F5F5F5F5F5F5F5F5F5F5F5F5F5F5F5F5F5F5F5F5F5F5F5F5F5F5F5F5F5E2F5F5F5F5F5F5F5F5F5F5F5F5F5F5F5F5E2E2F5F5E2E2E2E2E2E2F5F5F5
310
E2F5F5F5F5F5F5F5F5F5F5F5F5F5F5F5F5F5F5F5F5F5F5F5F5F5F5F5F5F5F5F5F5F5F5F5F5F5F5F5F5E2F5E2E2E2E2F5F5F5F5F5F5E2E2E2F5E2E2F5F5F5F5F5F5F5F5F5F5F5F5F5F5F5F5F5F5F5F5F5F5F5F5F5F5F5F5F5F5F5F5F5F5F5F5F5F5E2F5F5F5F5F5F5E2E2EFE2F5F5F5F5F5F5E2F5F5F5F5F5F5F5F5F5F5F5F5
310
F5F5F5F5F5F5F5F5F5F5F5F5F5F5F5F5F5F5F5F5F5F5F5F5E2E2F5F5F5F5F5F5F5F5F5F5F5F5F5F5F5F5F5F5F5F5F5F5F5F5F5F5F5F5F5F5F5F5F5F5F5F5F5F5F5F5F5F5F5F5F5F5F5F5F5F5F5F5F5F5F5F5F5F5F5F5F5F5F5F5F5F5F5F5E2E2E2E2E2E2F5F5F5F5F5E2E2F5E2E2E2E2F5F5F5F5F5F5F5F5F5F5F5F5F5F5F5
310
F5F5F5F5F5F5F5F5F5F5F5F5F5F5F5F5F5F5F5F5F5F5F5E2F5F5F5F5F5F5E2E2EFE2F5F5F5F5F5F5E2F5F5F5F5F5F5F5F5F5F5F5F5F5F5F5F5F5F5F5F5F5F5F5F5F5F5F5F5F5F5F5F5F5F5F5F5F5F5E2E2E2F5F5F5F5F5F5F5F5F5F5F5F5F5F5F5F5F5F5F5F5F5F5F5F5F5F5F5F5F5F5F5F5F5F5F5F5F5F5F5F5F5F5F5F5F5
310
F5F5F5F5F5F5F5F5F5F5F5F5F5F5F5F5F5F5F5F5F5F5F5E2E2F5E2F5F5F5E2E2F5E2F5F5F5F5F5F5F5F5F5F5F5F5F5F5F5F5F5F5F5F5F5F5F5F5F5F5F5F5F5F5F5F5F5F5F5F5F5F5F5F5F5F5E2F5F5F5F5F5F5E2E2EFE2F5F5F5F5F5F5E2F5F5F5F5F5F5F5F5F5F5F5F5F5F5F5F5F5F5F5F5F5F5F5F5F5F5F5F5F5F5F5F5F5
310
F5F5F5F5F5F5F5E2E2E2F5F5F5F5F5F5F5F5F5F5F5F5F5F5F5F5F5F5F5F5F5F5F5F5F5F5F5F5F5F5F5F5F5F5F5F5F5F5F5F5F5F5F5F5F5F5F5F5F5F5F5F5F5F5F5F5F5F5F5F5F5F5F5F5F5F5F5E2E2F5E2E2E2E2F5E2F5F5F5F5F5F5F5F5F5F5F5F5F5F5F5F5F5F5F5F5F5F5F5F5F5F5F5F5F5F5F5F5F5F5F5F5F5F5F5F5F5
310
F5F5E2F5F5F5F5F5F5E2E2EFE2F5F5F5F5F5F5E2F5F5F5F5F5F5F5F5F5F5F5F5F5F5F5F5F5F5F5F5F5F5F5F5F5F5F5F5F5F5F5F5F5F5F5F5F5F5F5E2E2E2F5E2E2E2F5F5F5F5F5F5F5F5F5F5F5F5F5F5F5F5F5F5F5F5F5F5F5F5F5F5F5F5F5F5F5F5F5F5F5F5F5F5F5F5F5F5F5F5F5F5F5F5F5F5F5F5F5F5F5F5F5F5F5F5F5
310
F5F5F5F5E2E2E2E2E2E2E2F5F5F5F5F5F5F5F5F5F5F5F5F5F5F5F5F5F5F5F5F5F5F5F5F5F5F5F5F5F5F5F5F5F5F5F5F5F5F5F5F5F5F5F5E2F5F5F5F5F5F5E2E2EFE2F5F5F5F5F5F5E2F5F5F5F5F5F5F5F5F5F5F5F5F5F5F5F5F5F5F5F5F5F5F5F5F5F5F5F5F5F5F5F5F5F5F5F5F5F5F5E2E2E2F5F5F5F5E2E2E2F5F5F5F5F5
310
F5F5F5F5F5F5F5F5F5F5F5F5F5F5F5F5F5F5F5F5F5F5F5F5F5F5F5F5F5F5F5F5F5F5F5F5F5F5F5F5F5F5F5F5F5F5F5F5F5F5F5F5F5F5F5F5F5F5F5F5F5F5F5F5F5F5F5F5F5F5F5F5F5F5F5F5F5F5F5F5F5F5F5F5F5F5F5F5F5F5F5F5F5F5F5F5F5F5F5F5F5F5F5F5F5F5F5F5E2F5F5F5F5F5F5E2E2EFE2F5F5F5F5F5F5E2F5
310
F5F5F5F5F5F5F5F5F5F5F5F5F5F5F5F5F5F5F5F5F5F5F5F5F5F5F5F5F5F5F5F5F5F5F5F5F5F5F5E2F5F5F5F5F5F5F5F5E2E2F5F5F5F5F5F5F5F5F5F5F5F5F5F5F5F5F5F5F5F5F5F5F5F5F5F5F5F5F5F5F5F5F5F5F5F5F5F5F5F5F5F5F5F5F5F5F5F5F5F5F5F5F5F5F5F5F5F5F5F5F5F5F5F5F5F5F5F5F5F5F5F5F5F5F5F5F5
310
F5F5F5F5F5F5F5F5F5F5F5F5F5F5F5F5F5F5F5F5F5F5F5F5F5F5F5F5F5F5F5F5F5F5E2F5F5F5F5F5F5E2E2EFE2F5F5F5F5F5F5E2F5F5F5F5F5F5F5F5F5F5F5F5F5F5F5F5F5F5F5F5F5F5F5F5F5F5F5F5F5F5F5F5F5F5F5F5F5F5F5F5E2F5F5F5F5F5F5F5F5F5E2E2E2E2F5F5F5F5F5F5F5F5F5F5F5F5F5F5F5F5F5F5F5F5F5
310
F5F5F5F5F5F5F5F5F5F5F5F5F5F5F5F5F5F5F5F5F5F5F5F5F5F5F5F5F5F5F5F5F5F5F5F5F5F5F5F5F5F5F5F5F5F5F5F5F5F5F5F5F5F5F5F5F5F5F5F5F5F5F5F5F5F5F5F5F5F5F5F5F5F5F5F5F5F5F5F5F5F5F5F5F5F5F5E2F5F5F5F5F5F5E2E2EFE2F5F5E2F5F5F5E2F5F5F5F5F5F5F5F5F5F5F5F5F5F5F5F5F5F5F5F5F5F5
310
F5F5F5F5F5F5F5F5F5F5F5F5F5F5F5F5F5F5E2F5F5F5F5F5F5F5F5E2E2F5F5F5E2E2E2F5F5F5F5F5F5F5F5F5F5F5F5F5F5F5F5F5F5F5F5F5F5F5F5F5F5F5F5F5F5F5F5F5F5F5F5F5F5F5F5F5F5F5F5F5F5F5F5F5F5F5F5F5F5F5F5F5F5F5F5F5F5F5F5F5F5F5F5F5F5F5F5F5F5F5F5F5F5F5F5F5F5F5F5F5F5F5F5F5F5F5F5
310
F5F5F5F5F5F5F5F5F5F5F5F5F5E2F5F5F5E2F5F5E2E2EFE2F5F5E2F5F5F5E2F5F5F5F5F5F5F5F5F5F5F5F5F5F5F5F5F5F5F5F5F5F5F5F5F5F5F5F5F5F5F5F5F5F5F5F5F5F5F5F5E2F5F5F5F5F5F5F5F5E2E2E2E2E2E2F5E2E2E2E2F5F5F5F5F5F5F5F5F5F5F5F5F5F5F5F5F5F5F5F5F5F5F5F5F5F5F5F5F5F5F5F5F5F5F5F5
310
F5F5F5F5F5F5F5F5F5F5F5F5F5F5F5F5F5F5F5F5F5F5F5F5F5F5F5F5F5F5F5F5F5F5F5F5F5F5F5F5F5F5F5F5F5F5F5F5F5F5F5F5F5F5F5F5F5F5F5F5F5F5F5F5F5F5E2F5F5F5E2F5F5E2E2EFE2F5F5E2F5F5F5E2F5F5F5F5F5F5F5F5F5F5F5F5F5F5F5F5F5F5F5F5F5F5F5F5F5F5F5F5F5F5F5F5F5F5F5F5F5F5F5F5E2F5F5
310
F5F5F5F5F5F5E2E2E2E2E2F5E2E2F5F5F5E2E2E2F5F5F5F5F5F5F5F5F5F5F5F5F5F5F5F5F5F5F5F5F5F5F5F5F5F5F5F5F5F5F5F5F5F5F5F5F5F5F5F5F5F5F5F5F5F5F5F5F5F5F5F5F5F5F5F5F5F5F5F5F5F5F5F5F5F5F5F5F5F5F5F5F5F5F5F5F5F5F5F5F5F5F5F5F5F5F5F5F5F5F5F5F5F5F5F5F5F5F5E2F5F5F5E2F5F5E2
310
E2EFE2F5F5E2F5F5F5E2F5F5F5F5F5F5F5F5F5F5F5F5F5F5F5F5F5F5F5F5F5F5F5F5F5F5F5F5F5F5F5F5F5F5F5F5F5F5F5F5E2F5F5F5F5F5F5F5F5E2F5E2E2E2E2E2E2F5F5F5F5E2F5E2E2E2F5F5F5F5F5F5F5F5F5F5F5F5F5F5F5F5F5F5F5F5F5F5F5F5F5F5E2E2E2E2E2E2E2E2E2E2E2E2E2E2E2E2E2E2E2E2E2E2E2E2E2
310
E2E2E2E2E2E2E2E2E2E2F5F5F5F5F5F5F5F5F5F5F5F5F5F5F5F5F5F5F5F5F5F5F5F5F5F5F5F5F5F5F5F5F5F5F5E2F5F5F5E2F5F5E2E2EFE2F5F5E2F5F5F5E2F5F5F5F5F5F5F5F5F5F5F5F5F5F5F5F5F5F5F5F5F5F5F5F5F5F5F5F5F5F5F5F5F5F5E2E2E2E2F5F5E2F5F5F5F5F5F5F5F5E2F5F5E2E2E2E2E2F5F5F5F5E2F5F5
310
F5F5E2E2F5F5F5F5F5F5F5F5F5F5F5F5F5F5F5F5F5F5F5F5F5F5F5F5F5E2F5F5F5F5F5F5F5F5F5E2F5F5E2E2E2E2E2F5F5F5E2F5F5F5F5F5F5F5F5F5F5F5E2F5F5F5F5F5F5F5F5F5F5F5F5F5F5F5F5F5F5F5F5F5F5F5F5F5F5F5F5F5F5F5F5F5F5F5E2F5F5F5E2F5F5E2E2EFE2F5F5E2F5F5F5E2F5F5F5F5F5F5F5F5F5F5F5
310
F5F5F5F5F5F5F5F5F5F5F5F5F5F5F5F5F5F5F5F5F5F5F5E2E2E2E2F5F5E2F5F5F5F5F5F5F5F5E2F5E2E2E2F5E2E2F5F5F5F5E2F5F5F5F5F5F5E2F5F5F5F5F5F5F5F5F5F5F5F5F5F5F5F5F5F5F5F5F5F5F5E2E2F5F5F5F5F5F5F5F5E2F5F5E2E2E2E2E2E2E2E2F5E2F5F5F5F5F5F5F5F5F5F5F5E2F5F5F5F5F5F5F5F5F5F5F5
310
F5F5F5F5F5F5F5F5F5F5F5F5F5F5F5F5F5F5F5F5F5F5F5F5E2F5F5F5E2F5F5E2E2EFE2F5F5E2F5F5F5E2F5F5F5F5F5F5F5F5F5F5F5F5F5F5F5F5F5F5F5F5F5F5F5F5F5F5F5F5F5F5F5F5F5F5E2E2E2E2F5F5E2F5F5F5F5F5F5F5F5E2F5E2E2E2F5F5F5E2E2E2F5E2F5F5F5F5F5F5E2F5F5F5F5F5F5F5F5F5F5F5F5F5F5F5F5
310
F5F5F5F5F5F5F5F5E2F5F5F5F5F5F5F5F5E2F5F5E2E2E2F5F5F5E2E2E2E2E2F5F5F5F5F5F5F5F5F5F5E2F5F5F5F5F5F5F5F5F5F5F5F5F5F5F5F5F5F5F5F5F5F5F5F5F5F5F5F5F5F5F5F5F5F5F5E2F5F5F5E2F5F5E2E2EFE2F5F5E2F5F5F5E2F5F5F5F5F5F5F5F5F5F5F5F5F5F5F5F5F5F5F5F5F5F5F5F5F5F5F5F5F5F5F5F5
310
F5F5E2E2E2E2F5F5E2F5F5F5F5F5F5F5F5E2F5F5F5F5E2E2E2F5F5F5E2E2E2F5F5F5F5F5E2F5F5F5F5F5F5F5F5F5F5F5F5F5F5F5F5F5F5F5F5F5F5F5F5E2F5F5F5F5F5F5F5F5E2F5F5F5F5E2E2E2E2F5F5F5E2E2E2E2F5F5F5F5F5F5F5F5E2F5F5F5F5F5F5F5F5F5F5F5F5F5F5F5F5F5F5F5F5F5F5F5F5F5F5F5F5F5F5F5F5
310
F5F5F5E2F5F5F5E2F5F5E2E2EFE2F5F5E2F5F5F5E2F5F5F5F5F5F5F5F5F5F5F5F5F5F5F5F5F5F5F5F5F5F5F5F5F5F5F5F5F5F5F5F5F5F5F5F5F5F5F5F5E2F5F5F5F5F5F5F5F5E2F5F5F5F5F5F5E2E2E2E2F5F5F5E2E2F5F5F5E2F5F5F5F5F5F5F5F5F5F5F5F5F5F5F5F5F5F5F5F5F5F5F5F5E2F5F5F5F5F5F5F5F5E2F5F5F5
310
F5F5F5E2E2E2E2F5F5F5F5E2E2E2E2F5F5F5F5F5E2F5F5F5F5F5F5F5F5F5F5F5F5F5F5F5F5F5F5F5F5F5F5F5F5F5F5F5F5F5F5F5F5F5F5F5E2F5F5F5E2F5F5E2E2EFE2F5F5E2F5F5F5E2F5F5F5F5F5F5F5F5F5F5F5F5F5F5F5F5F5F5F5F5F5F5F5F5F5F5F5F5F5F5F5F5F5F5F5F5F5F5F5F5E2F5F5F5F5F5F5F5F5E2F5F5F5
310
F5F5F5E2F5F5F5E2E2F5F5F5E2E2F5E2F5F5F5F5F5F5F5F5F5F5F5F5F5F5F5F5F5F5F5F5F5F5F5F5E2F5F5F5F5F5F5F5F5E2F5F5F5F5F5F5F5F5F5E2E2E2E2F5F5F5E2E2E2E2F5F5F5E2F5F5F5F5F5F5F5F5F5F5F5F5F5F5F5F5F5F5F5F5F5F5F5F5F5F5F5F5F5F5F5F5F5F5F5E2F5F5F5E2F5F5E2E2EFE2F5F5E2F5F5F5E2
310
F5F5F5F5F5F5F5F5F5F5F5F5F5F5F5F5F5F5F5F5F5F5F5F5F5F5F5F5F5F5F5F5F5F5F5F5F5F5F5F5E2F5F5F5F5F5F5F5F5E2F5F5F5F5F5F5E2F5F5F5F5E2E2E2E2F5F5F5E2F5F5F5F5F5F5F5F5F5F5F5F5F5F5F5F5F5F5F5F5F5F5F5F5E2F5F5F5F5F5F5F5F5E2F5F5F5F5F5F5F5F5F5F5F5E2E2E2E2E2F5E2F5E2F5F5F5E2
310
F5F5F5F5F5F5F5F5F5F5F5F5F5F5F5F5F5F5F5F5F5F5F5F5F5F5F5F5F5F5F5F5F5F5F5E2F5F5F5E2F5F5E2E2EFE2F5F5E2F5F5F5E2F5F5F5F5F5F5F5F5F5F5F5F5F5F5F5F5F5F5F5F5F5F5F5F5F5F5F5F5F5F5F5F5F5F5F5F5F5F5F5F5E2F5F5F5F5F5F5F5F5E2F5F5F5F5F5F5E2F5F5F5F5E2F5F5F5E2E2F5E2F5F5F5F5F5
310
F5F5F5F5F5F5F5F5F5F5F5F5F5F5F5F5F5F5F5E2F5F5F5F5F5F5F5F5E2F5F5F5F5F5F5F5F5F5F5F5E2F5E2E2E2E2E2E2F5F5F5F5E2F5F5F5F5F5F5F5F5F5F5F5F5F5F5F5F5F5F5F5F5F5F5F5F5F5F5F5F5F5F5F5F5F5F5F5E2F5F5F5E2F5F5E2E2EFE2F5F5E2F5F5F5E2F5F5F5F5F5F5F5F5F5F5F5F5F5F5F5F5F5F5F5F5F5
310
F5F5F5F5F5F5F5F5F5F5F5F5F5F5F5F5F5F5F5E2F5F5F5F5F5F5F5F5E2F5F5F5F5F5F5E2F5F5F5F5E2F5F5F5F5F5F5E2F5F5F5F5F5F5F5F5F5F5F5F5F5F5F5F5F5F5F5F5F5F5F5F5E2F5F5F5F5F5F5F5F5E2F5F5F5F5F5F5F5F5F5F5F5E2F5F5F5E2E2E2E2F5F5F5F5E2F5F5F5F5F5F5F5F5F5F5F5F5F5F5F5F5F5F5F5F5F5
310
F5F5F5F5F5F5F5F5F5F5F5F5F5F5E2F5F5F5E2F5F5E2E2EFE2F5F5E2F5F5F5E2F5F5F5F5F5F5F5F5F5F5F5F5F5F5F5F5F5F5F5F5F5F5F5F5F5F5F5F5F5F5F5F5F5F5F5F5F5F5F5F5E2F5F5F5F5F5F5F5F5E2F5F5F5F5F5F5E2F5F5F5F5E2F5F5F5F5F5F5E2F5F5F5F5F5F5F5F5F5F5F5F5F5F5F5F5F5F5F5F5F5F5F5F5E2F5
310
F5F5F5F5F5F5F5E2F5F5F5F5F5F5F5F5F5F5F5E2F5F5F5F5E2F5E2E2E2F5F5E2F5F5F5F5F5F5F5F5F5F5F5F5F5F5F5F5F5F5F5F5F5F5F5F5F5F5F5F5F5F5F5F5F5F5F5E2F5F5F5E2F5F5E2E2EFE2F5F5E2F5F5F5E2F5F5F5F5F5F5F5F5F5F5F5F5F5F5F5F5F5F5F5F5F5F5F5F5F5F5F5F5F5F5F5F5F5F5F5F5F5F5F5F5E2F5
310
F5F5F5F5F5F5F5E2F5F5F5F5F5F5E2F5F5F5F5E2F5F5F5F5F5F5E2F5F5F5F5F5F5F5F5F5F5F5F5F5F5F5F5F5F5F5F5F5F5F5F5E2F5F5F5F5F5F5F5F5E2F5F5E2E2F5F5F5F5F5F5F5E2F5F5F5F5E2E2E2F5E2F5F5E2F5F5F5F5F5F5F5F5F5F5F5F5F5F5F5F5F5F5F5F5F5F5F5F5F5F5F5F5F5F5F5F5F5F5F5E2F5F5F5E2F5F5
310
E2E2EFE2F5F5F5F5F5F5E2F5F5F5F5F5F5F5F5F5F5F5F5F5F5F5F5F5F5F5F5F5F5F5F5F5F5F5F5F5F5F5F5F5F5F5F5F5F5F5F5E2F5F5F5F5F5F5F5F5E2F5F5F5F5F5F5E2F5F5F5F5E2F5F5F5F5F5F5E2F5F5F5F5F5F5F5F5F5F5F5F5F5F5F5F5F5F5E2E2E2E2F5F5E2F5F5F5F5F5F5F5F5E2F5F5E2E2E2E2E2F5F5F5F5E2F5
310
F5E2E2F5F5E2E2E2F5F5E2F5F5F5F5F5F5F5F5F5F5F5F5F5F5F5F5F5F5F5F5F5F5F5F5F5F5F5F5F5F5F5F5F5F5F5E2F5F5F5F5F5F5E2E2EFE2F5F5F5F5F5F5E2F5F5F5F5F5F5F5F5F5F5F5F5F5F5F5F5F5F5F5F5F5F5F5F5F5F5F5F5F5F5F5F5F5F5F5F5F5F5F5E2E2E2F5F5F5F5F5F5F5E2F5F5E2E2F5F5E2F5F5F5F5E2F5
310
F5F5F5F5F5E2F5F5F5F5F5F5F5F5F5F5F5F5F5F5F5F5F5F5E2E2E2E2F5F5E2F5F5F5F5F5F5F5F5E2F5F5E2E2F5F5F5E2E2E2F5E2E2E2F5F5F5F5F5E2E2F5F5E2F5F5F5F5F5F5F5F5F5F5F5F5F5F5F5F5F5F5F5F5F5F5F5F5F5F5F5F5F5F5F5F5F5F5F5E2F5F5F5F5F5F5E2E2EFE2F5F5F5F5F5F5E2F5F5F5F5F5F5F5F5F5F5
310
F5F5F5F5F5F5F5F5F5F5F5F5F5F5F5F5F5F5F5F5F5F5F5F5F5E2F5F5F5E2E2E2F5F5F5F5F5F5F5E2F5F5F5F5E2E2E2F5F5F5F5E2F5F5F5F5F5F5E2F5F5F5F5F5F5F5F5F5F5F5F5F5F5F5F5F5F5E2E2E2E2F5F5E2F5F5F5F5F5F5F5F5E2F5F5E2E2F5F5F5F5F5F5E2E2E2F5F5F5F5F5F5E2E2F5F5E2F5F5F5F5F5F5F5F5F5F5
310
F5F5F5F5F5F5F5F5F5F5F5F5F5F5F5F5F5F5F5F5F5F5F5F5F5E2F5F5F5F5F5F5E2E2EFE2F5F5F5F5F5F5E2F5F5F5F5F5F5F5F5F5F5F5F5F5F5F5F5F5F5F5F5F5F5F5F5F5F5F5F5F5F5F5F5F5F5F5F5E2E2E2F5E2F5F5F5F5F5F5F5F5E2F5E2E2F5F5F5F5E2E2F5F5E2F5F5F5F5F5F5E2F5F5F5F5F5F5F5F5F5F5F5F5F5F5F5
310
F5F5F5F5F5F5F5F5F5E2F5F5F5F5F5F5F5F5E2F5F5E2E2F5F5F5F5F5F5E2E2F5E2E2E2F5F5F5F5E2F5F5E2F5F5F5F5F5F5F5F5F5F5F5F5F5F5F5F5F5F5F5F5F5F5F5F5F5F5F5F5F5F5F5F5F5F5F5E2F5F5F5F5F5F5E2E2EFE2F5F5F5F5F5F5E2F5F5F5F5F5F5F5F5F5F5F5F5F5F5F5F5F5F5F5F5F5F5F5F5F5F5F5F5F5F5F5
310
F5F5F5F5F5F5F5F5E2E2F5F5F5F5F5F5F5F5E2F5F5F5E2E2E2F5F5F5E2E2E2F5F5F5F5F5F5E2F5F5F5F5F5F5F5F5F5F5F5F5F5F5F5F5F5F5F5F5F5F5F5F5E2F5F5F5F5F5F5F5F5E2F5F5E2F5E2F5F5F5E2E2F5E2F5F5F5F5E2E2E2F5E2F5F5E2F5F5F5F5F5F5F5F5F5F5F5F5F5F5F5F5F5F5F5F5F5F5F5F5F5F5F5F5F5F5F5
310
F5F5F5F5E2F5F5F5F5F5F5E2E2EFE2F5F5F5F5F5F5E2F5F5F5F5F5F5F5F5F5F5F5F5F5F5F5F5F5F5F5F5F5F5F5F5F5F5F5F5F5F5F5F5F5F5F5F5F5F5F5F5F5E2E2E2F5F5F5F5F5E2F5F5F5F5F5F5E2E2F5F5F5F5E2E2E2F5F5F5E2F5F5F5F5F5F5F5F5F5F5F5F5F5F5F5F5F5F5F5F5F5F5F5F5E2F5F5F5F5F5F5F5F5E2F5F5
310
E2F5E2E2E2E2F5F5F5E2F5F5F5F5F5F5F5E2E2F5F5E2F5F5F5F5F5F5F5F5F5F5F5F5F5F5F5F5F5F5F5F5F5F5F5F5F5F5F5F5F5F5F5F5F5F5F5E2F5F5F5F5F5F5E2E2EFE2F5F5F5F5F5F5E2F5F5F5F5F5F5F5F5F5F5F5F5F5F5F5F5F5F5F5F5F5F5F5F5F5F5F5F5F5F5F5F5F5F5F5F5F5F5F5F5F5F5F5F5E2E2E2F5F5E2F5F5
310
F5F5F5F5E2F5E2E2E2F5F5F5F5E2E2F5E2F5F5F5F5F5F5F5F5F5F5F5F5F5F5F5F5F5F5F5F5F5F5F5F5E2F5F5F5F5F5F5F5F5E2F5F5E2E2F5F5E2F5F5F5F5E2F5F5F5F5F5F5F5F5F5F5F5E2F5F5F5F5F5F5F5F5F5F5F5F5F5F5F5F5F5F5F5F5F5F5F5F5F5F5F5F5F5F5F5F5F5F5F5E2F5F5F5F5F5F5E2E2EFE2F5F5F5F5F5F5
310
E2F5F5F5F5F5F5F5F5F5F5F5F5F5F5F5F5F5F5F5F5F5F5F5F5F5F5F5F5F5F5F5F5F5F5F5F5F5F5F5F5F5F5F5F5F5F5F5E2E2E2F5F5F5F5F5F5E2F5F5F5F5E2E2E2E2E2E2F5E2F5F5F5F5F5F5F5F5F5F5F5F5F5F5F5F5F5F5F5F5F5F5F5F5E2F5F5F5F5F5F5F5F5E2F5F5F5F5E2E2E2E2F5F5F5E2F5F5F5F5F5F5F5F5F5F5F5
310
E2F5F5F5F5F5F5F5F5F5F5F5F5F5F5F5F5F5F5F5F5F5F5F5F5F5F5F5F5F5F5F5F5F5F5F5E2F5F5F5F5F5F5E2E2EFE2F5F5E2F5F5F5E2F5F5F5F5F5F5F5F5F5F5F5F5F5F5F5F5F5F5F5F5F5F5F5F5F5F5F5F5F5F5F5F5F5F5F5F5F5F5F5F5F5F5F5F5F5F5F5F5F5F5E2E2F5F5F5F5E2F5F5F5F5E2E2E2E2E2E2F5E2F5F5F5F5
310
F5F5F5F5F5F5F5F5F5F5F5F5F5F5F5F5F5F5F5F5E2F5F5F5F5F5F5F5F5E2F5F5F5F5E2E2E2E2E2E2F5E2F5F5F5F5F5F5F5F5F5F5F5E2F5F5F5F5F5F5F5F5F5F5F5F5F5F5F5F5F5F5F5F5F5F5F5F5F5F5F5F5F5F5F5F5F5F5F5E2F5F5F5E2F5F5E2E2EFE2F5F5E2F5F5F5E2F5F5F5F5F5F5F5F5F5F5F5F5F5F5F5F5F5F5F5F5
310
F5F5F5F5F5F5F5F5F5F5F5F5F5F5F5F5F5F5F5F5F5F5F5F5F5F5F5F5F5F5F5F5E2E2E2F5E2F5F5F5F5E2E2E2E2E2E2F5E2F5F5F5F5F5F5F5F5F5F5F5F5F5F5F5F5F5F5F5F5F5F5F5F5E2F5F5F5F5F5F5F5F5E2F5F5F5E2F5F5E2F5E2E2E2E2F5F5F5F5F5F5F5F5F5F5F5E2F5F5F5F5F5F5F5F5F5F5F5F5F5F5F5F5F5F5F5F5
310
F5F5F5F5F5F5F5F5F5F5F5F5F5F5F5E2F5F5F5E2F5F5E2E2EFE2F5F5E2F5F5F5E2F5F5F5F5F5F5F5F5F5F5F5F5F5F5F5F5F5F5F5F5F5F5F5F5F5F5F5F5F5F5F5F5F5F5F5F5F5F5F5F5F5F5F5F5F5F5F5F5F5F5F5F5F5F5F5E2E2E2F5F5F5E2E2E2E2E2E2E2E2F5F5F5F5F5F5F5F5F5F5F5F5F5F5F5F5F5F5F5F5F5F5F5F5E2
310
F5F5F5F5F5F5F5F5E2F5F5F5E2E2E2E2F5F5F5E2E2E2E2F5F5F5F5F5F5F5F5F5E2F5F5F5F5F5F5F5F5F5F5F5F5F5F5F5F5F5F5F5F5F5F5F5F5F5F5F5F5F5F5F5F5F5F5F5E2F5F5F5E2F5F5E2E2EFE2F5F5E2F5F5F5E2F5F5F5F5F5F5F5F5F5F5F5F5F5F5F5F5F5F5F5F5F5F5F5F5F5F5F5F5F5F5F5F5F5F5F5F5F5F5F5F5F5
310
F5F5F5F5F5F5F5F5F5F5F5F5F5F5F5F5F5E2E2E2E2F5F5E2E2E2F5E2F5F5F5F5F5F5F5F5F5F5F5F5F5F5F5F5F5F5F5F5F5F5F5F5E2F5F5F5F5F5F5F5F5E2F5F5F5F5F5E2E2E2E2F5F5F5F5E2E2E2E2F5F5F5F5F5F5E2F5F5F5F5F5F5F5F5F5F5F5F5F5F5F5F5F5F5F5F5F5F5F5F5F5F5F5F5F5F5F5F5F5F5F5E2F5F5F5E2F5
310
F5E2E2EFE2F5F5E2F5F5F5E2F5F5F5F5F5F5F5F5F5F5F5F5F5F5F5F5F5F5F5F5F5F5F5F5F5F5F5F5F5F5F5F5F5F5F5F5F5F5F5F5F5F5F5F5F5F5F5F5F5F5F5F5F5F5F5F5F5F5F5F5F5E2E2E2E2F5F5E2E2F5F5F5F5F5F5F5F5F5F5F5F5F5F5F5F5F5F5F5F5F5F5F5F5E2F5F5F5F5F5F5F5F5E2F5F5F5F5F5F5F5F5E2E2E2E2
310
F5F5F5F5E2E2E2F5F5F5F5E2F5F5F5F5F5F5F5F5F5F5F5F5F5F5F5F5F5F5F5F5F5F5F5F5F5F5F5F5F5F5F5F5F5F5F5E2F5F5F5E2F5F5E2E2EFE2F5F5E2F5F5F5E2F5F5F5F5F5F5F5F5F5F5F5F5F5F5F5F5F5F5F5F5F5F5F5F5F5F5F5F5F5F5F5F5F5F5F5F5F5F5F5F5F5F5F5F5F5F5F5F5F5F5F5F5F5F5F5F5F5F5F5F5F5F5
310
F5F5F5E2E2E2E2F5F5F5F5F5F5F5F5F5F5F5F5F5F5F5F5F5F5F5F5F5F5F5F5E2F5F5F5F5F5F5F5F5E2F5F5F5F5F5F5F5F5F5F5E2E2E2E2E2F5F5F5E2E2E2F5F5E2F5F5F5F5F5F5F5F5F5F5F5F5F5F5F5F5F5F5F5F5F5F5F5F5F5F5F5F5F5F5F5F5F5F5F5E2F5F5F5E2F5F5E2E2EFE2F5F5E2F5F5F5E2F5F5F5F5F5F5F5F5F5
310
F5F5F5F5F5F5F5F5F5F5F5F5F5F5F5F5F5F5F5F5F5F5F5F5F5F5F5F5F5F5F5F5F5F5F5F5F5F5F5F5F5F5F5F5F5F5F5F5F5F5F5F5F5F5F5F5F5F5F5F5F5F5F5F5F5F5F5F5F5F5F5F5F5F5F5F5F5F5F5F5F5F5F5E2E2F5F5F5F5F5F5F5F5E2F5F5F5F5F5F5F5F5F5F5F5E2E2E2E2E2E2F5E2F5E2F5F5E2F5F5F5F5F5F5F5F5F5
310
F5F5F5F5F5F5F5F5F5F5F5F5F5F5F5F5F5F5F5F5F5F5F5F5F5F5E2F5F5F5E2F5F5E2E2EFE2F5F5E2F5F5F5E2F5F5F5F5F5F5F5F5F5F5F5F5F5F5F5F5F5F5F5F5F5F5F5F5F5F5F5F5F5F5F5F5F5F5F5F5F5F5F5F5F5F5F5F5F5F5F5F5F5F5F5F5F5F5F5F5F5F5F5F5F5F5F5F5F5F5F5F5F5F5F5F5F5F5F5F5F5F5F5F5F5F5F5
310
F5F5F5F5F5F5F5F5F5F5E2F5F5F5F5F5F5F5F5E2F5F5F5F5F5F5F5F5F5F5F5E2F5E2E2E2E2E2E2E2F5F5F5E2F5F5F5F5F5F5F5F5F5F5F5F5F5F5F5F5F5F5F5F5F5F5F5F5F5F5F5F5F5F5F5F5F5F5F5E2F5F5F5E2F5F5E2E2EFE2F5F5E2F5F5F5E2F5F5F5F5F5F5F5F5F5F5F5F5F5F5F5F5F5F5F5F5F5F5F5F5F5F5F5F5F5F5
310
F5F5F5F5F5F5F5F5F5F5F5F5F5F5F5F5F5F5F5F5F5F5F5F5F5F5F5F5F5F5F5F5F5F5F5F5F5F5F5F5F5F5F5F5F5F5F5F5F5F5F5F5F5F5F5F5F5F5F5F5F5F5E2E2E2E2E2E2E2E2E2E2E2E2E2E2E2E2E2E2E2E2E2E2E2E2E2E2E2E2E2E2E2E2E2E2E2F5F5F5F5F5F5F5F5F5F5F5F5F5F5F5F5F5F5F5F5F5F5F5F5F5F5F5F5F5F5
310
F5F5F5F5F5E2F5F5F5E2F5F5E2E2EFE2F5F5E2F5F5F5E2F5F5F5F5F5F5F5F5F5F5F5F5F5F5F5F5F5F5F5F5F5F5F5F5F5F5F5F5F5F5F5F5F5F5F5F5F5F5F5F5F5F5F5F5F5F5F5F5F5F5F5F5F5F5F5F5F5F5F5F5F5F5F5F5F5F5F5F5F5F5F5F5F5F5F5F5F5F5F5F5F5F5F5F5F5F5F5F5F5F5F5F5F5F5F5F5F5F5F5F5F5F5F5F5
310
F5F5F5F5F5F5F5F5F5F5F5F5F5F5F5F5F5F5F5F5F5F5F5F5F5F5F5F5F5F5F5F5F5F5F5F5F5F5F5F5F5F5F5F5F5F5F5F5F5F5F5F5F5F5F5F5F5F5E2F5F5F5E2F5F5E2E2EFE2F5F5E2F5F5F5E2F5F5F5F5F5F5F5F5F5F5F5F5F5F5F5F5F5F5F5F5F5F5F5F5F5F5F5F5F5F5F5F5F5F5F5F5F5F5F5F5F5F5F5F5F5F5F5F5F5F5F5
310
F5F5F5F5F5F5F5F5F5F5F5F5F5F5F5F5F5F5F5F5F5F5F5F5F5F5F5F5F5F5F5F5F5F5F5F5F5F5F5F5F5F5F5F5F5F5F5F5F5F5F5F5F5F5F5F5F5F5F5F5F5F5F5F5F5F5F5F5F5F5F5F5F5F5F5F5F5F5F5F5F5F5F5F5F5F5F5F5F5F5F5F5F5F5F5F5F5F5F5F5F5F5F5F5F5F5F5F5F5F5F5E2F5F5F5E2F5F5E2E2EFE2F5F5E2F5F5
310
F5E2F5F5F5F5F5F5F5F5F5F5F5F5F5F5F5F5F5F5F5F5F5F5F5F5F5F5F5F5F5F5F5F5F5F5F5F5F5F5F5F5F5F5F5F5F5F5F5F5F5F5F5F5F5F5F5F5F5F5F5F5F5F5F5F5F5F5F5F5F5F5F5F5F5F5F5F5F5F5F5F5F5F5F5F5F5F5F5F5F5F5F5F5F5F5F5F5F5F5F5F5F5F5F5F5F5F5F5F5F5F5F5F5F5F5F5F5F5F5F5F5F5F5F5F5F5
310
F5F5F5F5F5F5F5F5F5F5F5F5F5F5F5F5F5F5F5F5F5F5F5F5F5F5F5F5F5F5F5F5F5F5F5F5F5E2F5F5F5E2F5F5E2E2EFE2F5F5E2F5F5F5E2F5F5F5F5F5F5F5F5F5F5F5F5F5F5F5F5F5F5F5F5F5F5F5F5F5F5F5F5F5F5F5F5F5F5F5F5F5F5F5F5F5F5F5F5F5F5F5F5F5F5F5F5F5F5F5F5F5F5F5F5F5F5F5F5F5F5F5F5F5F5F5F5
310
F5F5F5F5F5F5F5F5F5F5F5F5F5F5F5F5F5F5F5F5F5F5F5F5F5F5F5F5F5F5F5F5F5F5F5F5F5F5F5F5F5F5F5F5F5F5F5F5F5F5F5F5F5F5F5F5F5F5F5F5F5F5F5F5F5F5F5F5F5F5F5F5F5F5F5F5F5F5F5F5F5F5F5F5F5F5F5F5F5F5E2F5F5F5E2F5F5E2E2EFE2F5F5E2F5F5F5E2F5F5F5F5F5F5F5F5F5F5F5F5F5F5F5F5F5F5F5
310
F5F5F5F5F5F5F5F5F5F5F5F5F5F5F5F5F5F5F5F5F5F5F5F5F5F5F5F5F5F5F5F5F5F5F5F5F5F5F5F5F5F5F5F5F5F5F5F5F5F5F5F5F5F5F5F5F5F5F5F5F5F5F5F5F5F5F5F5F5F5F5F5F5F5F5F5F5F5F5F5F5F5F5F5F5F5F5F5F5F5F5F5F5F5F5F5F5F5F5F5F5F5F5F5F5F5F5F5F5F5F5F5F5F5F5F5F5F5F5F5F5F5F5F5F5F5F5
310
F5F5F5F5F5F5F5F5F5F5F5F5F5F5F5F5E2F5F5F5E2F5F5E2E2EFE2F5F5E2F5F5F5E2F5F5F5F5F5F5F5F5F5F5F5F5F5F5F5F5F5F5F5F5F5F5F5F5F5F5F5F5F5F5F5F5F5F5F5F5F5F5F5F5F5F5F5F5F5F5F5F5F5F5F5F5F5F5F5F5F5F5F5F5F5F5F5F5F5F5F5F5F5F5F5F5F5F5F5F5F5F5F5F5F5F5F5F5F5F5F5F5F5F5F5F5F5
310
F5F5F5F5F5F5F5F5F5F5F5F5F5F5F5F5F5F5F5F5F5F5F5F5F5F5F5F5F5F5F5F5F5F5F5F5F5F5F5F5F5F5F5F5F5F5F5F5F5F5F5F5F5F5F5F5F5F5F5F5F5F5F5F5F5F5F5F5F5E2F5F5F5E2F5F5E2E2EFE2F5F5F5F5F5F5E2F5F5F5F5F5F5F5F5F5F5F5F5F5F5F5F5F5F5F5F5F5F5F5F5F5F5F5F5F5F5F5F5F5F5F5F5F5F5F5F5
310
F5F5F5F5F5F5F5F5F5F5F5F5F5F5F5F5F5F5F5F5F5F5F5F5F5F5F5F5F5F5F5F5F5F5F5F5F5F5F5F5F5F5F5F5F5F5F5F5F5F5F5F5F5F5F5F5F5F5F5F5F5F5F5F5F5F5F5F5F5F5F5F5F5F5F5F5F5F5F5F5F5F5F5F5F5F5F5F5F5F5F5F5F5F5F5F5F5F5F5F5F5F5F5F5F5F5F5F5F5F5F5F5F5F5F5F5F5F5F5F5F5F5E2F5F5F5F5
310
F5F5E2E2EFE2F5F5F5F5F5F5E2F5F5F5F5F5F5F5F5F5F5F5F5F5F5F5F5F5F5F5F5F5F5F5F5F5F5F5F5F5F5F5F5F5F5F5F5F5F5F5F5F5F5F5F5F5F5F5F5F5F5F5F5F5F5F5F5F5F5F5F5F5F5F5F5F5F5F5F5F5F5F5F5F5F5F5F5F5F5F5F5F5F5F5F5F5F5F5F5F5F5F5F5F5F5F5F5F5F5F5F5F5F5F5F5F5F5F5F5F5F5F5F5F5F5
310
F5F5F5F5F5F5F5F5F5F5F5F5F5F5F5F5F5F5F5F5F5F5F5F5F5F5F5F5F5F5F5F5F5F5F5F5F5F5F5F5F5F5F5F5F5F5F5F5E2F5F5F5F5F5F5E2E2EFE2F5F5F5F5F5F5E2F5F5F5F5F5F5F5F5F5F5F5F5F5F5F5F5F5F5F5F5F5F5F5F5F5F5F5F5F5F5F5F5F5F5F5F5F5F5F5F5F5F5F5F5F5F5F5F5F5F5F5F5F5F5F5F5F5F5F5F5F5
310
F5F5F5F5F5F5F5F5F5F5F5F5F5F5F5F5F5F5F5F5F5F5F5F5F5F5F5F5F5F5F5F5F5F5F5F5F5F5F5F5F5F5F5F5F5F5F5F5F5F5F5F5F5F5F5F5F5F5F5F5F5F5F5F5F5F5F5F5F5F5F5F5F5F5F5F5F5F5F5F5F5F5F5F5F5F5F5F5F5F5F5F5F5F5F5F5F5F5F5F5F5E2F5F5F5F5F5F5E2E2EFE2F5F5F5F5F5F5E2F5F5F5F5F5F5F5F5
310
F5F5F5F5F5F5F5F5F5F5F5F5F5F5F5F5F5F5F5F5F5F5F5F5F5F5F5F5F5F5F5F5F5F5F5F5F5F5F5F5F5F5F5F5F5F5F5F5F5F5F5F5F5F5F5F5F5F5F5F5F5F5F5F5F5F5F5F5F5F5F5F5F5F5F5F5F5F5F5F5F5F5F5F5F5F5F5F5F5F5F5F5F5F5F5F5F5F5F5F5F5F5F5F5F5F5F5F5F5F5F5F5F5F5F5F5F5F5F5F5F5F5F5F5F5F5F5
310
F5F5F5F5F5F5F5F5F5F5F5F5F5F5F5F5F5F5F5F5F5F5F5F5F5F5F5E2F5F5F5F5F5F5E2E2EFE2F5F5F5F5F5F5E2F5F5F5F5F5F5F5F5F5F5F5F5F5F5F5F5F5F5F5F5F5F5F5F5F5F5F5F5F5F5F5F5F5F5F5F5F5F5F5F5F5F5F5F5F5F5F5F5F5F5F5F5F5F5F5F5F5F5F5F5F5F5F5F5F5F5F5F5F5F5F5F5F5F5F5F5F5F5F5F5F5F5
310
F5F5F5F5F5F5F5F5F5F5F5F5F5F5F5F5F5F5F5F5F5F5F5F5F5F5F5F5F5F5F5F5F5F5F5F5F5F5F5F5F5F5F5F5F5F5F5F5F5F5F5F5F5F5F5F5F5F5F5F5F5F5F5F5F5F5F5F5F5F5F5F5F5F5F5F5F5F5F5F5E2F5F5F5F5F5F5E2E2EFE2F5F5F5F5F5F5E2F5F5F5F5F5F5F5F5F5F5F5F5F5F5F5F5F5F5F5F5F5F5F5F5F5F5F5F5F5
310
F5F5F5F5F5F5F5F5F5F5F5F5F5F5F5F5F5F5F5F5F5F5F5F5F5F5F5F5F5F5F5F5F5F5F5F5F5F5F5F5F5F5F5F5F5F5F5F5F5F5F5F5F5F5F5F5F5F5F5F5F5F5F5F5F5F5F5F5F5F5F5F5F5F5F5F5F5F5F5F5F5F5F5F5F5F5F5F5F5F5F5F5F5F5F5F5F5F5F5F5F5F5F5F5F5F5F5F5F5F5F5F5F5F5F5F5F5F5F5F5F5F5F5F5F5F5F5
310
F5F5F5F5F5F5E2F5F5F5F5F5F5E2E2EFE2F5F5F5F5F5F5E2F5F5F5F5F5F5F5F5F5F5F5F5F5F5F5F5F5F5F5F5F5F5F5F5F5F5F5F5F5F5F5F5F5F5F5F5F5F5F5F5F5F5F5F5F5F5F5F5F5F5F5F5F5F5F5F5F5F5F5F5F5F5F5F5F5F5F5F5F5F5F5F5F5F5F5F5F5F5F5F5F5F5F5F5F5F5F5F5F5F5F5F5F5F5F5F5F5F5F5F5F5F5F5
310
F5F5F5F5F5F5F5F5F5F5F5F5F5F5F5F5F5F5F5F5F5F5F5F5F5F5F5F5F5F5F5F5F5F5F5F5F5F5F5F5F5F5F5F5F5F5F5F5F5F5F5F5F5F5F5F5F5F5F5E2F5F5F5F5F5F5E2E2EFE2F5F5F5F5F5F5E2F5F5F5F5F5F5F5F5F5F5F5F5F5F5F5F5F5F5F5F5F5F5F5F5F5F5F5F5F5F5F5F5F5F5F5F5F5F5F5F5F5F5F5F5F5F5F5F5F5F5
310
F5F5F5F5F5F5F5F5F5F5F5F5F5F5F5F5F5F5F5F5F5F5F5F5F5F5F5F5F5F5F5F5F5F5F5F5F5F5F5F5F5F5F5F5F5F5F5F5F5F5F5F5F5F5F5F5F5F5F5F5F5F5F5F5F5F5F5F5F5F5F5F5F5F5F5F5F5F5F5F5F5F5F5F5F5F5F5F5F5F5F5F5F5F5F5F5F5F5F5F5F5F5F5F5F5F5F5F5F5F5F5F5E2F5F5F5F5F5F5E2E2EFE2F5F5F5F5
310
F5F5E2F5F5F5F5F5F5F5F5F5F5F5F5F5F5F5F5F5F5F5F5F5F5F5F5F5F5F5F5F5F5F5F5F5F5F5F5F5F5F5F5F5F5F5F5F5F5F5F5F5F5F5F5F5F5F5F5F5F5F5F5F5F5F5F5F5F5F5F5F5F5F5F5F5F5F5F5F5F5F5F5F5F5F5F5F5F5F5F5F5F5F5F5F5F5F5F5F5F5F5F5F5F5F5F5F5F5F5F5F5F5F5F5F5F5F5F5F5F5F5F5F5F5F5F5
310
F5F5F5F5F5F5F5F5F5F5F5F5F5F5F5F5F5F5F5F5F5F5F5F5F5F5F5F5F5F5F5F5F5F5F5F5F5F5E2F5F5F5F5F5F5E2E2EFE2F5F5E2F5F5F5E2F5F5F5F5F5F5F5F5F5F5F5F5F5F5F5F5F5F5F5F5F5F5F5F5F5F5F5F5F5F5F5F5F5F5F5F5F5F5F5F5F5F5F5F5F5F5F5F5F5F5F5F5F5F5F5F5F5F5F5F5F5F5F5F5F5F5F5F5F5F5F5
310
F5F5F5F5F5F5F5F5F5F5F5F5F5F5F5F5F5F5F5F5F5F5F5F5F5F5F5F5F5F5F5F5F5F5F5F5F5F5F5F5F5F5F5F5F5F5F5F5F5F5F5F5F5F5F5F5F5F5F5F5F5F5F5F5F5F5F5F5F5F5F5F5F5F5F5F5F5F5F5F5F5F5F5F5F5F5F5F5F5F5F5E2F5F5F5E2F5F5E2E2EFE2F5F5E2F5F5F5E2F5F5F5F5F5F5F5F5F5F5F5F5F5F5F5F5F5F5
310
F5F5F5F5F5F5F5F5F5F5F5F5F5F5F5F5F5F5F5F5F5F5F5F5F5F5F5F5F5F5F5F5F5F5F5F5F5F5F5F5F5F5F5F5F5F5F5F5F5F5F5F5F5F5F5F5F5F5F5F5F5F5F5F5F5F5F5F5F5F5F5F5F5F5F5F5F5F5F5F5F5F5F5F5F5F5F5F5F5F5F5F5F5F5F5F5F5F5F5F5F5F5F5F5F5F5F5F5F5F5F5F5F5F5F5F5F5F5F5F5F5F5F5F5F5F5F5
310
F5F5F5F5F5F5F5F5F5F5F5F5F5F5F5F5F5E2F5F5F5E2F5F5E2E2EFE2F5F5E2F5F5F5E2F5F5F5F5F5F5F5F5F5F5F5F5F5F5F5F5F5F5F5F5F5F5F5F5F5F5F5F5F5F5F5F5F5F5F5F5F5F5F5F5F5F5F5F5F5F5F5F5F5F5F5F5F5F5F5F5F5F5F5F5F5F5F5F5F5F5F5F5F5F5F5F5F5F5F5F5F5F5F5F5F5F5F5F5F5F5F5F5F5F5F5F5
310
F5F5F5F5F5F5F5F5F5F5F5F5F5F5F5F5F5F5F5F5F5F5F5F5F5F5F5F5F5F5F5F5F5F5F5F5F5F5F5F5F5F5F5F5F5F5F5F5F5F5F5F5F5F5F5F5F5F5F5F5F5F5F5F5F5F5F5F5F5F5E2F5F5F5E2F5F5E2E2EFE2F5F5E2F5F5F5E2F5F5F5F5F5F5F5F5F5F5F5F5F5F5F5F5F5F5F5F5F5F5F5F5F5F5F5F5F5F5F5F5F5F5F5F5F5F5F5
310
F5F5F5F5F5F5F5F5F5F5F5F5F5F5F5F5F5F5F5F5F5F5F5F5F5F5F5F5F5F5F5F5F5F5F5F5F5F5F5F5F5F5F5F5F5F5F5F5F5F5F5F5F5F5F5F5F5F5F5F5F5F5F5F5F5F5F5F5F5F5F5F5F5F5F5F5F5F5F5F5F5F5F5F5F5F5F5F5F5F5F5F5F5F5F5F5F5F5F5F5F5F5F5F5F5F5F5F5F5F5F5F5F5F5F5F5F5F5F5F5F5F5F5E2F5F5F5
310
E2F5F5E2E2EFE2F5F5E2F5F5F5E2F5F5F5F5F5F5F5F5F5F5F5F5F5F5F5F5F5F5F5F5F5F5F5F5F5F5F5F5F5F5F5F5F5F5F5F5F5F5F5F5F5F5F5F5F5F5F5F5F5F5F5F5F5F5F5F5F5F5F5F5F5F5F5F5F5F5F5F5F5F5F5F5F5F5F5F5F5F5F5F5F5F5F5F5F5F5F5F5F5F5F5F5F5F5F5F5F5F5F5F5F5F5F5F5F5F5F5F5F5F5F5F5F5
310
F5F5F5F5F5F5F5F5F5F5F5F5F5F5F5F5F5F5F5F5F5F5F5F5F5F5F5F5F5F5F5F5F5F5F5F5F5F5F5F5F5F5F5F5F5F5F5F5F5E2F5F5F5E2F5F5E2E2EFE2F5F5E2F5F5F5E2F5F5F5F5F5F5F5F5F5F5F5F5F5F5F5F5F5F5F5F5F5F5F5F5F5F5F5F5F5F5F5F5F5F5F5F5F5F5F5F5F5F5F5F5F5F5F5F5F5F5F5F5F5F5F5F5F5F5F5F5
310
F5F5F5F5F5F5F5F5F5F5F5F5F5F5F5F5F5F5F5F5F5F5F5F5F5F5F5F5F5F5F5F5F5F5F5F5F5F5F5F5F5F5F5F5F5F5F5F5F5F5F5F5F5F5F5F5F5F5F5F5F5F5F5F5F5F5F5F5F5F5F5F5F5F5F5F5F5F5F5F5F5F5F5F5F5F5F5F5F5F5F5F5F5F5F5F5F5F5F5F5F5F5E2F5F5F5E2F5F5E2E2EFE2F5F5E2F5F5F5E2E2E2E2E2E2E2E2
310
E2E2E2E2E2E2E2E2E2E2E2E2E2E2E2E2E2E2E2E2E2E2E2E2E2E2E2E2E2E2E2E2E2E2E2E2E2E2E2E2E2E2E2E2E2E2E2E2E2E2E2E2E2E2E2E2E2E2E2E2E2E2E2E2E2E2E2E2E2E2E2E2E2E2E2E2E2E2E2E2E2E2E2E2E2E2E2E2E2E2E2E2E2E2E2E2E2E2E2E2E2E2E2E2E2E2E2E2E2E2E2E2E2E2E2E2E2E2E2E2E2E2E2E2E2E2E2
310
E2E2E2E2E2E2E2E2E2E2E2E2E2E2E2E2E2E2E2E2E2E2E2E2E2E2E2E2E2F5F5F5E2F5F5E2E2EFE2F5F5E2E2E2E2E2E2E2E2F5F5F5F5F5F5F5F5F5E2E2E2E2E2E2E2E2E2E2E2E2E2E2E2E2F5F5F5F5F5F5F5F5F5E2E2E2E2E2E2E2E2E2E2E2E2E2E2E2F5F5F5F5F5F5F5F5F5E2E2E2E2E2E2E2E2E2E2E2E2E2E2E2E2F5F5F5F5
310
F5F5F5F5E2E2E2E2E2E2E2E2E2E2E2E2E2E2E2E2F5F5F5F5F5F5F5F5F5E2E2E2E2E2E2E2E2E2E2E2E2E2E2E2F5F5F5F5F5F5F5F5F5E2E2E2E2E2E2E2E2E2E2E2E2E2E2E2E2F5F5F5F5F5F5F5F5F5E2E2E2E2E2E2E2E2F5F5E2E2EFE2F5F5F5F5F5F5F5F5F5F5F5F5F5F5F5F5F5F5F5F5F5F5F5F5F5F5F5F5F5F5F5F5F5F5F5
310
F5F5F5F5F5F5F5F5F5F5F5F5F5F5F5F5F5F5F5F5F5F5F5F5F5F5F5F5F5F5F5F5F5F5F5F5F5F5F5F5F5F5F5F5F5F5F5F5F5F5F5F5F5F5F5F5F5F5F5F5F5F5F5F5F5F5F5F5F5F5F5F5F5F5F5F5F5F5F5F5F5F5F5F5F5F5F5F5F5F5F5F5F5F5F5F5F5F5F5F5F5F5F5F5F5F5F5F5F5F5F5F5F5F5F5F5F5F5F5F5F5F5F5F5F5F5F5
310
F5F5F5F5F5F5F5F5F5F5F5F5F5F5E2E2EFE2F5F5F5F5F5F5F5F5F5F5F5F5F5F5F5F5F5F5F5F5F5F5F5F5F5F5F5F5F5F5F5F5F5F5F5F5F5F5F5F5F5F5F5F5F5F5F5F5F5F5F5F5F5F5F5F5F5F5F5F5F5F5F5F5F5F5F5F5F5F5F5F5F5F5F5F5F5F5F5F5F5F5F5F5F5F5F5F5F5F5F5F5F5F5F5F5F5F5F5F5F5F5F5F5F5F5F5F5F5
310
F5F5F5F5F5F5F5F5F5F5F5F5F5F5F5F5F5F5F5F5F5F5F5F5F5F5F5F5F5F5F5F5F5F5F5F5F5F5F5F5F5F5F5F5F5F5F5F5F5F5F5F5F5F5F5F5F5F5F5F5F5F5F5F5F5F5F5E2E2EFE2F5F5F5F5F5F5F5F5F5F5F5F5F5F5F5F5F5F5F5F5F5F5F5F5F5F5F5F5F5F5F5F5F5F5F5F5F5F5F5F5F5F5F5F5F5F5F5F5F5F5F5F5F5F5F5F5
310
F5F5F5F5F5F5F5F5F5F5F5F5F5F5F5F5F5F5F5F5F5F5F5F5F5F5F5F5F5F5F5F5F5F5F5F5F5F5F5F5F5F5F5F5F5F5F5F5F5F5F5F5F5F5F5F5F5F5F5F5F5F5F5F5F5F5F5F5F5F5F5F5F5F5F5F5F5F5F5F5F5F5F5F5F5F5F5F5F5F5F5F5F5F5F5F5F5F5F5F5F5F5F5F5F5F5F5F5F5F5F5F5F5F5F5F5F5F5F5F5E2EFEFE2E2E2E2
310
E2E2E2E2E2E2E2E2E2E2E2E2E2E2E2E2E2E2E2E2E2E2E2E2E2E2E2E2E2E2E2E2E2E2E2E2E2E2E2E2E2E2E2E2E2E2E2E2E2E2E2E2E2E2E2E2E2E2E2E2E2E2E2E2E2E2E2E2E2E2E2E2E2E2E2E2E2E2E2E2E2E2E2E2E2E2E2E2E2E2E2E2E2E2E2E2E2E2E2E2E2E2E2E2E2E2E2E2E2E2E2E2E2E2E2E2E2E2E2E2E2E2E2E2E2E2E2
310
E2E2E2E2E2E2E2E2E2E2E2E2E2E2E2E2E2E2E2E2E2E2E2E2E2E2E2E2E2E2E2E2E2E2E2E2E2E2E2E2E2E2E2E2E2E2E2EF
  0
XRECORD
  5
140C8
102
{ACAD_REACTORS
330
140C7
102
}
330
140C7
100
AcDbXrecord
280
     1
102
SHADEPLOT
 70
     0
102
SHADEPLOTRESLEVEL
 70
     2
102
SHADEPLOTCUSTOMDPI
 70
   300
  0
XRECORD
  5
14030
102
{ACAD_REACTORS
330
1402F
102
}
330
1402F
100
AcDbXrecord
280
     1
102
MATERIAL
148
0.0
149
0.0
149
0.0
 93
        0
 94
       63
282
     0
 72
     1
 77
     1
171
     1
175
     1
179
     1
273
     0
  0
XRECORD
  5
1402E
102
{ACAD_REACTORS
330
1402D
102
}
330
1402D
100
AcDbXrecord
280
     1
102
MATERIAL
148
0.0
149
0.0
149
0.0
 93
        0
 94
       63
282
     0
 72
     1
 77
     1
171
     1
175
     1
179
     1
273
     0
  0
XRECORD
  5
14032
102
{ACAD_REACTORS
330
14031
102
}
330
14031
100
AcDbXrecord
280
     1
102
MATERIAL
148
0.0
149
0.0
149
0.0
 93
        0
 94
       63
282
     0
 72
     1
 77
     1
171
     1
175
     1
179
     1
273
     0
  0
XRECORD
  5
140CC
102
{ACAD_REACTORS
330
140CB
102
}
330
140CB
100
AcDbXrecord
280
     1
102
SHADEPLOT
 70
     0
102
SHADEPLOTRESLEVEL
 70
     2
102
SHADEPLOTCUSTOMDPI
 70
   300
  0
ACAD_PROXY_OBJECT
  5
135F9
102
{ACAD_REACTORS
330
1B05
102
}
330
1B05
100
AcDbProxyObject
 90
      499
 91
      513
 95
       27
 70
     0
 93
     5441
310
40D054060020000020000003200101A0000800029416000000304000000000000001840404000000000000F83F0000000000003E0FC000000000000F83F0000000000003E0FC0AD7A3703D0AC73F02B5E8DC0F42B1CFD0640640600000030400FEFFFFFF80AD7A3703D0AA73F40A40600000030400FEFFFFFF80AD7A3703D0
310
AA73F41240600000030400FEFFFFFF80AD7A3703D0AA73F42240600000030400FEFFFFFF80AD7A3703D0AA73F44240600000030400FEFFFFFF80AD7A3703D0AA73F48240600000030400FEFFFFFF80AD7A3703D0AA73F4050141501A8000000C800406800020000A5058000000C10000000000000004901010000000000003
310
E0FC000000000000F83F0000000000003E0FC000000000000F83F02B5E8DC0F42B1CFC0AD7A3703D0AC73F419019018000000C1003FBFFFFFE02B5E8DC0F42A9CFD029018000000C1003FBFFFFFE02B5E8DC0F42A9CFD049018000000C1003FBFFFFFE02B5E8DC0F42A9CFD089018000000C1003FBFFFFFE02B5E8DC0F42A9
310
CFD109018000000C1003FBFFFFFE02B5E8DC0F42A9CFD209018000000C1003FBFFFFFE02B5E8DC0F42A9CFD0240505406A0000003200101A000080002940A000000304000000000000001240404000000000000F83F0000000000003E0FC000000000000F83F0000000000003E0FC0AD7A3703D0AC73F02B5E8DC0F42B1CFD
310
0640640600000030400FEFFFFFF80AD7A3703D0AA73F40A40600000030400FEFFFFFF80AD7A3703D0AA73F41240600000030400FEFFFFFF80AD7A3703D0AA73F42240600000030400FEFFFFFF80AD7A3703D0AA73F44240600000030400FEFFFFFF80AD7A3703D0AA73F48240600000030400FEFFFFFF80AD7A3703D0AA73F
310
40D029065F005400490054004C0045009075F004800450041004400450052009055F0044004100540041004401CC
340
11
340
0
340
0
340
0
340
0
340
0
340
0
340
11
340
0
340
0
340
0
340
0
340
0
340
0
340
11
340
0
340
0
340
0
340
0
340
0
340
0
 94
        0
1001
ACAD
1000
AcRTDxfName
1000
CELLSTYLEMAP
1000
AcRTDxfName
1000
CELLSTYLEMAP
  0
XRECORD
  5
140CD
102
{ACAD_REACTORS
330
1B05
102
}
330
1B05
100
AcDbXrecord
280
     1
102
ACAD_ROUNDTRIP_PRE2007_TABLESTYLE
 90
      512
 91
        0
  1

 92
      512
 93
        0
  2

 94
      512
 95
        0
  3

  0
ENDSEC
  0
EOF
